osu file format v9

[General]
AudioFilename: Yumemiboshi boom!boom! (Short Ver.).mp3
AudioLeadIn: 0
PreviewTime: 71665
Countdown: 0
SampleSet: Normal
StackLeniency: 0.7
Mode: 0
LetterboxInBreaks: 1

[Editor]
DistanceSpacing: 1
BeatDivisor: 2
GridSize: 8

[Metadata]
Title:Yumemiboshi * boom!boom! (Short Ver.)
Artist:KOTOKO
Creator:R a i n
Version:MiLu
Source:Twinkle Crusaders
Tags:lillian darknessangel gamu milu

[Difficulty]
HPDrainRate:3
CircleSize:3
OverallDifficulty:4
ApproachRate:4
SliderMultiplier:1
SliderTickRate:1

[Events]
//Background and Video events
0,0,"BG.jpg"
Video,100,"kurukuru.avi"
//Break Periods
//Storyboard Layer 0 (Background)
//Storyboard Layer 1 (Fail)
//Storyboard Layer 2 (Pass)
//Storyboard Layer 3 (Foreground)
//Storyboard Sound Samples
//Background Colour Transformations
3,100,163,162,255

[TimingPoints]
22132,363.636363636364,4,1,1,50,1,0
23768,-100,4,1,1,65,0,0
24132,-100,4,1,1,60,0,0
26677,-100,4,1,1,65,0,0
27041,-100,4,1,1,60,0,0
29586,-100,4,1,1,65,0,0
29950,-100,4,1,1,60,0,0
32495,-100,4,1,1,65,0,0
32859,-100,4,1,1,60,0,0
71586,-100,4,1,0,60,0,1
96132,-100,4,1,1,50,0,1
97222,-100,4,1,1,65,0,1
98132,-100,4,1,1,60,0,0
100859,-100,4,1,1,65,0,0
101222,-100,4,1,1,60,0,0
103768,-100,4,1,1,65,0,0
104132,-100,4,1,1,60,0,0
106677,-100,4,1,1,65,0,0
107041,-100,4,1,1,60,0,0

[Colours]
Combo1 : 255,0,0
Combo2 : 255,128,192
Combo3 : 255,255,128
Combo4 : 0,0,255

[HitObjects]
328,72,22132,1,8
376,160,22495,1,8
288,208,22859,1,8
240,120,23222,1,8
152,72,23586,5,4
48,72,23950,1,4
104,160,24313,2,0,B|144:240|96:312,2,150,2|2|2
152,72,25768,1,0
152,72,26132,1,4
192,264,26859,5,4
288,280,27222,2,0,B|360:256|432:320,2,150,2|2|2
224,352,28677,2,0,B|168:368|120:328,1,99.9999999999999,0|4
256,176,29768,5,4
320,104,30132,2,0,B|256:64|256:64|192:104,2,150
368,192,31586,2,0,B|416:224,2,50,0|0|4
192,103,32677,5,4
296,96,33041,2,0,B|336:56,2,50,2|0|0
280,144,33586,2,0,B|264:232|320:304,2,150,2|2|2
331,60,35041,1,2
256,192,35404,12,4,36677
160,336,37404,5,0
352,272,38132,2,0,B|408:184|344:80,1,200,2|2
248,96,39222,1,0
152,64,39586,1,4
48,232,40313,1,0
144,248,40677,6,0,B|167:200|146:151,2,99.9999999999999,0|2|0
48,232,41768,1,2
64,328,42132,1,0
160,360,42495,1,4
256,192,43222,5,0
432,112,43950,2,0,B|456:192|424:264,2,150,2|2|0
352,48,45404,1,6
288,128,45768,1,0
352,208,46132,1,0
184,320,46859,5,2
248,240,47222,1,0
184,160,47586,1,0
304,320,48313,6,0,B|104:320,1,200,4|0
40,240,49404,1,2
136,216,49768,2,0,B|192:200|208:144,1,99.9999999999999,0|2
208,104,50313,2,0,B|166:63|109:77,1,99.9999999999999,0|2
72,104,50859,1,2
32,192,51222,5,4
152,352,51950,1,0
352,328,52677,6,0,B|376:280|360:232,1,99.9999999999999,2|0
312,216,53222,2,0,B|264:240|216:224,2,99.9999999999999,2|2|2
352,184,54132,2,0,B|360:136|352:80,2,99.9999999999999,4|2|0
320,328,55404,5,0
272,312,55586,2,0,B|200:296|112:312,2,150,2|0|2
368,336,57041,2,0,B|424:328|440:272,1,99.9999999999999,2|0
408,232,57586,2,0,B|392:184|400:128,1,100,2|0
256,192,58313,12,4,59950
88,144,60677,6,0,B|88:256,2,99.9999999999999,0|0|2
208,304,62132,2,0,B|208:200,1,99.9999999999999
288,144,62859,2,0,B|288:296,2,150,2|0|2
192,112,64313,6,0,B|120:56|56:112,2,150
256,192,65768,1,4
384,344,66495,5,2
464,280,66859,1,0
440,184,67222,1,0
248,120,67950,1,2
184,40,68313,1,0
88,64,68677,2,0,B|56:128|80:216,2,150,2|2|0
184,88,70132,6,0,B|232:120|288:112,1,99.9999999999999,2|0
328,112,70677,2,0,B|384:176|352:272,1,150,2|0
304,336,71586,5,4
208,312,71950,1,2
112,344,72313,1,2
48,264,72677,1,2
48,264,72859,2,0,B|128:240|136:144,1,150,2|0
112,56,73768,5,2
208,72,74132,1,2
208,72,74313,2,0,B|360:128,1,150,2|2
376,224,75222,6,0,B|235:172,2,150,2|2|2
384,328,76677,2,0,B|304:296|232:328,2,150,2|2|2
480,312,78132,6,0,B|440:280|432:224,1,99.9999999999999,2|0
464,184,78677,2,0,B|400:120|320:128,1,150,2|2
264,200,79586,1,0
192,272,79950,1,0
112,336,80313,6,0,B|72:296|80:240,1,99.9999999999999,2|0
96,144,81041,1,0
144,56,81404,1,0
256,192,81768,12,4,83222
256,64,83950,5,2
384,216,84677,2,0,B|416:176|400:112,1,99.9999999999999,2|0
312,160,85404,2,0,B|216:208|112:168,1,200,2|2
64,88,86495,1,2
160,56,86859,6,0,B|224:144|192:256,1,200,2|2
120,312,87950,1,2
216,344,88313,2,0,B|264:360|320:344,1,99.9999999999999,2|0
408,304,89041,1,4
440,104,89768,1,0
248,56,90495,6,0,B|192:80|136:72,2,99.9999999999999
344,72,91586,1,0
424,136,91950,2,0,B|400:184|416:240,1,99.9999999999999,2|8
360,320,92677,2,0,B|312:344|256:328,1,99.9999999999999,2|8
168,304,93404,2,0,B|128:240|152:152,2,150,2|8|8
256,352,94859,5,4
232,152,95586,1,0
72,272,96313,2,8,B|24:288,2,50
232,152,97404,5,4
264,248,97768,2,0,B|280:296|336:320,1,99.9999999999999,0|2
360,224,98495,2,0,B|408:208|432:152,1,99.9999999999999,0|2
336,128,99222,2,0,B|320:80|264:56,1,99.9999999999999,0|2
232,152,99950,2,0,B|184:168|160:224,1,99.9999999999999,0|4
224,296,100677,5,0
320,328,101041,1,4
416,312,101404,2,0,B|456:280|440:216,1,99.9999999999999,2|0
400,192,101950,2,0,B|320:208|256:168,2,150,2|2|2
432,152,103222,1,4
256,64,103950,5,4
160,88,104313,2,0,B|120:128|64:144,1,99.9999999999999,2|0
75,243,105041,2,0,B|120:256|160:296,1,99.9999999999999,2|0
256,320,105768,2,0,B|256:272,2,50,0|0|4
240,120,106859,5,4
208,216,107222,2,0,B|192:264|208:328,1,99.9999999999999,2|0
256,320,107768,2,0,B|328:296|416:328,2,150,2|2|2
160,352,109222,1,2
256,192,109586,12,4,110859
