osu file format v9

[General]
AudioFilename: Yumemiboshi boom!boom! (Short Ver.).mp3
AudioLeadIn: 0
PreviewTime: 71665
Countdown: 0
SampleSet: Normal
StackLeniency: 0.7
Mode: 0
LetterboxInBreaks: 1

[Editor]
Bookmarks: 22120,37029,59938,68665,98120,111574
DistanceSpacing: 1
BeatDivisor: 4
GridSize: 4

[Metadata]
Title:Yumemiboshi * boom!boom! (Short Ver.)
Artist:KOTOKO
Creator:R a i n
Version:Insane
Source:Twinkle Crusaders
Tags:lillian darknessangel gamu milu

[Difficulty]
HPDrainRate:7
CircleSize:4
OverallDifficulty:7
ApproachRate:8
SliderMultiplier:1.8
SliderTickRate:1

[Events]
//Background and Video events
0,0,"BG.jpg"
Video,100,"kurukuru.avi"
//Break Periods
//Storyboard Layer 0 (Background)
//Storyboard Layer 1 (Fail)
//Storyboard Layer 2 (Pass)
//Storyboard Layer 3 (Foreground)
//Storyboard Sound Samples
//Background Colour Transformations
3,100,163,162,255

[TimingPoints]
22132,363.636363636364,4,1,0,60,1,0
59950,-100,4,1,0,60,0,0
60132,-100,4,2,0,60,0,0
68677,-100,4,1,0,60,0,0
71586,-100,4,1,0,60,0,1
98132,-100,4,1,0,60,0,0

[Colours]
Combo1 : 255,0,0
Combo2 : 255,128,192
Combo3 : 255,255,128
Combo4 : 0,0,255

[HitObjects]
112,192,22132,1,0
112,192,22222,1,0
112,192,22313,1,0
256,192,22495,1,0
256,192,22586,1,0
256,192,22677,1,0
400,192,22859,1,0
400,192,22950,1,0
400,192,23041,1,0
319,276,23222,2,0,B|239:356,1,90
255,340,23495,1,0
255,340,23586,1,4
73,192,23950,1,2
258,50,24313,6,0,B|330:50|338:130,1,90,0|0
350,182,24677,1,8
361,271,24859,2,0,B|383:340|331:392|243:364,1,180,0|0
176,329,25404,1,8
108,269,25586,1,0
52,197,25768,2,0,B|4:173|28:117,1,90,2|0
112,92,26132,2,0,B|160:116|136:172,1,90,2|0
137,167,26495,5,4
204,314,26859,1,8
362,347,27222,2,0,B|306:347|306:291,1,90,0|0
303,201,27586,1,8
304,110,27768,2,0,B|283:6|148:22,1,180
79,23,28313,5,8
8,138,28495,1,0
78,253,28677,1,0
78,253,28768,1,0
78,253,28859,1,0
149,138,29041,1,8
305,180,29404,5,4
253,26,29768,1,10
416,102,30132,1,0
388,187,30313,1,0
477,175,30495,1,8
477,175,30677,2,0,B|493:287|389:311,1,180
305,338,31222,5,8
218,350,31404,1,0
218,350,31586,2,0,B|186:374|114:342,2,90,2|0|10
204,189,32313,5,4
62,110,32677,1,8
252,55,33041,1,0
219,138,33222,1,0
307,152,33404,1,8
307,152,33586,2,0,B|348:144|380:152|408:176|416:212|416:248|396:272,1,180
348,372,34132,5,8
247,312,34313,1,0
148,248,34495,1,0
148,248,34586,1,0
148,248,34677,1,0
70,160,34859,2,0,B|34:124|69:59,1,90,8|0
256,192,35404,12,4,36677
139,100,37041,6,0,B|171:52|219:60,1,90,8|0
330,73,37404,1,0
421,145,37586,1,0
479,247,37768,2,0,B|495:311|407:343,1,90,8|0
393,249,38132,5,0
304,261,38313,2,0,B|288:197|376:165,1,90,0|8
272,120,38677,1,0
223,196,38859,1,0
209,285,39041,2,0,B|225:349|289:349,1,90,0|8
267,346,39313,1,0
267,346,39404,1,0
383,358,39586,1,0
203,347,39950,5,8
120,310,40132,1,0
183,246,40313,2,0,B|247:246|263:182,1,90
207,126,40677,2,0,B|143:126|127:190,1,90,8|0
107,255,41041,1,0
177,309,41222,6,0,B|265:229|329:333,1,180,8|8
326,328,41768,1,0
404,288,41950,1,0
476,236,42131,1,8
476,236,42222,1,0
476,236,42313,1,0
404,288,42495,1,0
181,361,42859,5,8
97,278,43041,1,0
19,191,43222,2,0,B|107:111|27:31,2,180,0|8|0
136,196,44131,1,0
184,120,44313,1,8
136,196,44495,2,0,B|192:212|192:212|200:268|200:268|272:292,1,180
348,312,45041,1,8
436,336,45222,1,0
348,312,45404,1,0
143,264,45768,6,0,B|79:272|79:192,1,90,8|0
162,176,46131,1,0
179,88,46313,2,0,B|243:80|243:160,1,90,0|8
241,227,46677,2,0,B|241:339|369:323,2,180
85,135,47586,5,0
85,135,47677,1,0
85,135,47768,1,0
84,315,47950,1,0
84,315,48041,1,0
84,315,48131,1,0
241,227,48313,1,4
341,118,48677,6,0,B|397:110|405:166,1,90,8|0
322,202,49041,1,0
308,292,49222,2,0,B|252:300|244:244,1,90,0|8
242,155,49586,2,0,B|154:155,2,90
331,139,50131,1,8
407,185,50313,1,0
328,276,50495,2,0,B|312:324|248:332,1,90
186,209,50859,1,8
186,209,50950,1,0
186,209,51041,1,0
151,320,51222,1,0
56,184,51586,6,0,B|48:120|120:112,1,90,8|0
204,172,51950,2,0,B|212:236|140:244,1,90
261,301,52313,2,0,B|253:237|325:229,1,90,8|0
416,216,52677,5,0
480,280,52859,1,8
392,304,53041,1,8
416,216,53222,2,0,B|312:208|296:336,1,180
415,317,53768,1,0
415,317,53859,1,0
415,317,53950,1,0
482,221,54131,1,0
346,355,54495,5,8
262,275,54677,1,0
258,159,54859,2,0,B|248:84|300:40|372:56,1,180,0|8
348,144,55404,1,0
348,144,55586,1,0
436,128,55768,2,0,B|446:203|394:247|322:231,1,180,0|8
238,234,56313,5,0
164,325,56495,1,0
89,234,56677,1,8
168,147,56859,1,0
168,147,57041,6,0,B|272:131|280:27,1,180,0|8
383,113,57586,2,0,B|279:129|271:233,1,180
270,232,58131,1,8
270,232,58313,1,0
256,192,58495,12,4,59950
186,311,60313,6,0,B|278:350|376:297,2,180,8|0|8
146,229,61222,1,0
147,138,61404,2,0,B|152:90|210:61,2,90,0|0|8
237,131,61950,2,0,B|322:73|416:125,1,180
486,164,62495,2,0,B|476:214|414:233,1,90,8|0
348,271,62859,6,0,B|253:301,1,90
175,323,63222,1,8
87,342,63404,2,0,B|97:229|204:229,1,180
291,229,63950,2,0,B|366:231|366:161,1,90,8|0
387,100,64313,5,2
94,44,64859,1,2
184,328,65404,1,2
270,279,65586,5,0
356,326,65768,2,0,B|381:278|348:225,1,90,4|0
311,160,66131,1,8
362,86,66313,2,0,B|442:142|426:260,1,180
346,204,66859,2,0,B|251:250,1,90,8|0
186,287,67222,6,0,B|106:329,2,90,0|0|8
275,273,67768,2,0,B|375:250|452:312,1,180
445,307,68313,1,8
486,226,68495,5,0
486,226,68586,1,0
486,226,68677,2,0,B|410:166,1,90,4|0
350,106,69041,1,8
283,45,69222,2,0,B|216:45|216:45|232:117|159:138,1,180
123,56,69768,1,8
32,56,69950,1,0
77,133,70131,6,0,B|77:231,1,90
175,296,70495,1,8
175,296,70677,2,0,B|261:362|261:362|283:328|335:323,1,180
431,287,71222,1,0
440,247,71313,1,0
435,206,71404,1,0
411,173,71495,1,0
374,150,71586,6,0,B|333:110|293:125,1,90,6|0
314,204,71950,2,0,B|252:220|232:176,1,90,10|0
160,92,72313,1,0
84,180,72495,1,0
160,268,72677,1,10
236,180,72859,2,0,B|264:72|376:80,1,180,2|0
365,79,73404,1,10
344,194,73586,6,0,B|448:151,1,90,0|2
348,268,73950,2,0,B|437:310,1,90,2|8
252,307,74313,2,0,B|315:230|234:133,1,180,2|0
198,63,74859,1,10
348,101,75222,5,2
399,164,75404,1,0
420,244,75586,1,10
404,324,75768,2,0,B|379:368|301:363,1,90,2|0
332,280,76131,2,0,B|284:256|245:278,1,90,2|8
240,358,76495,2,0,B|180:372|139:321,1,90,2|0
87,294,76859,5,0
28,184,77041,1,8
84,84,77222,2,0,B|172:24|252:84,1,180,2|0
250,83,77768,1,10
409,122,78132,6,0,B|509:122,2,90,2|0|8
330,35,78677,2,0,B|254:107|330:200,1,180,2|0
402,284,79222,1,10
290,320,79404,1,0
290,320,79495,1,0
290,320,79586,2,0,B|204:349,2,90,2|0|10
72,192,80313,5,2
148,92,80495,1,0
256,24,80677,1,10
364,92,80859,1,0
440,192,81041,1,2
316,192,81222,5,2
380,300,81404,1,10
440,192,81586,2,0,B|409:98|301:75,1,180,2|0
312,76,82131,1,10
196,56,82313,1,0
196,56,82404,1,0
196,56,82495,1,2
112,136,82677,1,0
220,184,82859,1,10
45,339,83222,6,0,B|146:371,1,90,6|0
221,366,83586,2,0,B|316:335,1,90,10|0
397,339,83950,2,0,B|499:388,2,90,2|0|10
465,222,84495,2,0,B|364:192|304:282,1,180,2|0
308,140,85041,1,10
444,140,85222,1,0
376,24,85404,6,0,B|376:176,2,135,2|2|2
278,89,86131,1,0
199,175,86313,1,0
142,277,86495,2,0,B|207:258|245:291,1,90,10|0
405,320,86859,5,2
322,265,87041,1,0
408,216,87222,1,10
324,164,87404,2,0,B|281:67|171:88,1,180,2|0
80,104,87950,5,10
80,104,88131,1,0
80,104,88222,1,0
80,104,88313,2,0,B|48:140|80:192,1,90,0|0
137,288,88677,1,10
234,352,88859,1,0
255,236,89041,1,0
465,337,89404,6,0,B|361:350,1,90,10|0
400,233,89768,2,0,B|329:171,2,90,0|0|10
490,231,90313,2,0,B|511:172|469:125,1,90,2|0
405,55,90677,2,0,B|349:38|295:90,1,90,2|8
266,175,91041,2,0,B|258:239|325:277,1,90,2|0
391,324,91404,5,2
442,151,91586,1,8
266,175,91768,1,2
260,329,91950,6,0,B|200:324|173:258,1,90
154,199,92313,2,0,B|159:139|225:112,1,90,10|0
266,64,92677,1,0
352,90,92859,1,0
286,151,93041,2,0,B|216:216,2,90,10|0|0
360,206,93586,5,0
308,280,93768,1,10
220,276,93950,1,0
156,340,94131,1,0
92,272,94313,1,0
92,272,94404,1,0
92,272,94495,1,0
86,91,94859,6,0,B|163:16|268:67,1,180,4|10
335,92,95404,1,0
448,128,95586,1,0
360,208,95768,1,0
464,260,95950,1,10
380,340,96131,1,0
280,280,96313,5,0
248,168,96495,1,0
336,92,96677,1,10
224,60,96859,5,0
168,232,97041,1,0
312,124,97222,1,0
132,124,97404,1,10
276,232,97586,1,0
224,60,97768,6,0,B|113:76|102:192,1,180,4|8
104,264,98313,1,0
172,324,98495,2,0,B|146:365|90:357,2,90,0|0|8
224,252,99041,2,0,B|252:198|339:179|392:234,1,180
460,184,99586,2,0,B|419:149|439:88,1,90,8|0
334,40,99950,1,0
435,102,100131,1,0
334,40,100313,1,8
117,110,100677,5,4
251,344,101041,1,8
436,148,101404,2,0,B|480:67,2,90,0|0|8
350,120,101950,2,0,B|251:61|205:170,1,180
207,257,102495,2,0,B|213:312|159:334,1,90,8|0
109,260,102859,1,0
109,260,102950,1,0
109,260,103041,1,0
84,173,103222,1,8
238,80,103586,1,4
430,31,103950,5,8
411,209,104313,2,0,B|418:262|365:299,1,90,0|0
323,359,104677,1,8
265,290,104859,2,0,B|242:176|154:162,1,180
75,121,105404,2,0,B|17:120|-14:57,1,90,8|0
31,201,105768,2,0,B|30:296,2,90,0|0|8
227,231,106495,1,4
403,320,106859,5,8
223,324,107222,2,0,B|113:325,2,90,0|0|8
313,325,107768,2,0,B|414:338|465:248,1,180
479,160,108313,1,8
479,70,108495,1,0
400,114,108677,1,0
400,114,108768,1,0
400,114,108859,1,0
309,115,109041,2,0,B|204:115,1,90,8|0
88,294,109586,6,0,B|72:391,2,90,0|8|0
104,186,110131,2,0,B|108:126|180:106,1,90,8|0
244,56,110495,1,8
270,48,110586,1,0
297,43,110677,1,8
324,39,110768,1,0
351,36,110859,1,4
