osu file format v9

[General]
AudioFilename: Yumemiboshi boom!boom! (Short Ver.).mp3
AudioLeadIn: 0
PreviewTime: 71665
Countdown: 0
SampleSet: Normal
StackLeniency: 0.7
Mode: 0
LetterboxInBreaks: 1

[Editor]
Bookmarks: 22132,37041,48313,59950,71586,97768,110859
DistanceSpacing: 1.2
BeatDivisor: 4
GridSize: 8

[Metadata]
Title:Yumemiboshi * boom!boom! (Short Ver.)
Artist:KOTOKO
Creator:R a i n
Version:Gamu
Source:Twinkle Crusaders
Tags:lillian darknessangel gamu milu

[Difficulty]
HPDrainRate:5
CircleSize:4
OverallDifficulty:5
ApproachRate:7
SliderMultiplier:1.4
SliderTickRate:1

[Events]
//Background and Video events
0,0,"BG.jpg"
Video,100,"kurukuru.avi"
//Break Periods
//Storyboard Layer 0 (Background)
//Storyboard Layer 1 (Fail)
//Storyboard Layer 2 (Pass)
//Storyboard Layer 3 (Foreground)
//Storyboard Sound Samples
//Background Colour Transformations
3,100,163,162,255

[TimingPoints]
22132,363.636363636364,4,1,1,60,1,0
23313,-100,4,1,2,60,0,0
37041,-100,4,1,2,50,0,0
59950,-133.333333333333,4,1,2,40,0,0
68586,-100,4,1,2,50,0,0
71586,-100,4,1,2,60,0,1
95222,-100,4,1,2,50,0,1
98132,-100,4,1,2,60,0,0

[Colours]
Combo1 : 255,0,0
Combo2 : 255,128,192
Combo3 : 255,255,128
Combo4 : 0,0,255

[HitObjects]
72,96,22132,2,0,B|56:56,2,35,8|0|0
96,176,22495,2,0,B|80:216,2,35,8|0|0
184,176,22859,2,0,B|200:216,2,35,8|0|0
160,96,23222,1,8
240,72,23404,1,0
320,96,23586,1,4
456,192,23950,6,0,B|448:224|416:248,1,70,2|0
344,288,24313,2,0,B|367:319|399:327,2,70,2|0|2
304,216,24859,1,2
152,288,25222,2,0,B|128:319|96:327,2,70,2|0|2
192,216,25768,2,0,B|192:144,1,70,2|0
112,120,26132,2,0,B|112:192,2,70,2|0|4
256,40,26859,5,2
416,96,27222,1,2
472,160,27404,1,0
416,224,27586,1,2
360,160,27768,2,0,B|288:160,1,70,2|0
208,160,28132,2,0,B|160:168|144:208,2,70,2|0|2
312,296,28859,1,2
312,296,29041,2,0,B|248:336|176:296,1,140,2|4
56,184,29768,6,0,B|56:144|96:128,1,70,2|0
168,88,30132,1,2
248,64,30313,1,0
328,88,30495,1,2
384,152,30677,2,0,B|400:192|384:224,1,70,2|0
312,256,31041,2,0,B|296:216|312:184,2,70,2|0|2
344,336,31586,1,2
344,336,31768,1,0
264,328,31950,1,2
264,328,32132,1,0
192,288,32313,6,0,B|160:280|120:288,1,70,4|0
48,328,32677,2,0,B|40:290|48:258,1,70,2|0
64,176,33041,2,0,B|71:138|63:106,2,70,2|0|2
128,232,33586,2,0,B|165:239|197:231,1,70,2|0
264,176,33950,2,0,B|271:138|263:106,2,70,2|0|2
272,256,34495,2,0,B|265:294|273:326,1,70,2|0
352,296,34859,2,0,B|359:258|351:226,1,70,2|0
256,192,35404,12,4,36677
376,152,37041,5,8
304,112,37222,1,0
224,88,37404,2,0,B|152:72|80:104,1,140,0|8
24,160,37950,1,0
24,160,38132,1,0
24,160,38313,2,0,B|32:200|72:216,1,70,0|8
152,200,38677,2,0,B|192:208|208:248,1,70,0|0
176,320,39041,2,0,B|280:352|384:320,1,210,0|4
456,168,39950,6,0,B|424:160|384:168,1,70,8|0
312,208,40313,1,0
232,232,40495,1,0
160,192,40677,1,8
184,112,40859,1,0
264,80,41041,5,0
264,80,41222,2,0,B|336:80,1,70,0|8
376,152,41586,2,0,B|448:152,1,70,0|0
488,224,41950,2,0,B|424:312|304:312,1,210,0|4
184,192,42859,6,0,B|176:160|144:136,1,70,8|0
64,112,43222,2,0,B|32:120|8:152,2,70,0|0|8
128,56,43768,1,0
208,80,43950,1,0
256,152,44131,2,0,B|296:160|328:152,1,70,0|8
296,72,44495,1,0
376,64,44677,1,0
440,120,44859,2,0,B|472:144|472:184,1,70,0|8
424,248,45222,5,0
360,304,45404,2,0,B|328:312|288:304,2,70,0|0|8
424,248,45950,2,0,B|360:208,1,70,0|0
280,200,46313,1,0
216,256,46495,1,8
136,280,46677,1,0
256,192,47041,12,4,48313
160,184,48677,6,0,B|128:208|88:208,2,70,8|0|0
232,144,49222,2,0,B|304:144,1,70,0|8
376,184,49586,1,0
400,264,49768,2,0,B|432:288|472:288,2,70,0|0|8
320,240,50313,2,0,B|248:240,1,70,0|0
168,264,50677,2,0,B|136:288|96:288,2,70,0|8|0
192,184,51222,1,4
320,80,51586,6,0,B|320:120|296:144,1,70,8|0
360,200,51950,2,0,B|331:228|297:228,1,70,0|0
312,312,52313,2,0,B|272:311|248:287,2,70,8|0|0
392,288,52859,1,0
448,224,53041,1,8
416,144,53222,2,0,B|392:120|352:120,1,70,0|0
280,168,53586,2,4,B|248:264|131:318,1,210,0|4
136,144,54495,6,0,B|168:119|200:143,1,70,8|0
280,168,54859,2,0,B|312:192|344:168,2,70,0|0|8
312,88,55404,1,0
392,64,55586,1,0
456,120,55768,2,0,B|464:160|456:192,1,70,0|8
440,272,56131,2,0,B|417:305|389:322,1,70
328,264,56495,2,0,B|304:296|277:314,2,70,0|8|0
256,224,57041,6,0,B|256:144,1,70,0|0
256,72,57404,1,8
184,112,57586,2,0,B|152:128|112:128,1,70,0|0
32,120,57950,2,0,B|16:152|16:192,2,70,0|8|0
256,192,58495,12,4,59950
256,280,60313,6,0,B|136:312|72:208,1,209.999993741512,0|8
168,160,61404,1,0
208,128,61586,1,0
304,96,61950,2,0,B|344:160|328:248,1,157.499995306134,0|8
408,312,62859,5,0
408,312,63041,1,0
472,232,63404,1,0
408,144,63768,1,0
360,120,63950,1,8
256,144,64313,6,0,B|208:168|152:144,1,104.999996870756,0|8
112,112,64859,1,0
72,208,65222,1,0
120,224,65404,2,0,B|144:272|120:328,1,104.999996870756,8|4
224,312,66131,6,0,B|304:336|384:312,1,157.499995306134,8|0
424,288,66859,1,8
472,192,67222,1,0
456,144,67404,1,0
384,72,67768,2,0,B|312:40|224:72,1,157.499995306134,0|8
112,192,68677,5,4
160,264,68859,2,0,B|200:272|232:264,1,70,0|8
312,248,69222,2,0,B|352:240|384:248,1,70,0|0
456,288,69586,1,0
456,288,69768,1,8
504,216,69950,5,0
424,184,70131,1,0
424,184,70313,2,0,B|424:112,1,70,0|8
344,88,70677,2,0,B|280:48|208:88|136:128|64:88,1,280,4|0
64,176,71586,6,0,B|24:240,1,70,4|0
104,272,71950,2,0,B|144:208,1,70,8|0
200,152,72313,1,0
280,136,72495,1,0
336,200,72677,1,8
320,284,72859,2,0,B|327:331|440:337|463:232|415:207,1,210,0|8
384,132,73586,6,0,B|384:92|408:60,2,70,0|0|0
336,200,74131,1,8
320,284,74313,2,0,B|248:308|176:284,1,140,4|0
96,288,74859,2,0,B|104:248|128:224,1,70,8|0
80,152,75222,2,0,B|72:112|48:88,2,70,0|0|8
168,144,75768,2,0,B|208:128|208:88,1,70
344,144,76131,2,0,B|304:128|304:88,1,70,0|8
256,160,76495,2,0,B|256:232,1,70
320,288,76859,2,0,B|294:353,2,70,0|8|0
400,264,77404,2,0,B|424:192|400:120,1,140,4|8
256,56,78131,5,0
216,128,78313,1,0
256,200,78495,1,8
216,272,78677,2,0,B|152:304|72:272,1,140,0|0
32,208,79222,1,8
32,208,79404,2,0,B|48:136,1,70
120,184,79768,2,0,B|182:144,1,70,0|8
344,104,80313,5,4
424,80,80495,1,0
448,160,80677,1,8
368,184,80859,1,0
288,168,81041,1,0
264,88,81222,2,0,B|232:80|192:88,1,70,0|8
192,176,81586,6,0,B|160:184|120:176,1,70,0|0
48,136,81950,2,0,B|40:173|48:207,1,70,0|8
72,288,82313,1,0
72,288,82404,1,0
72,288,82495,1,0
72,288,82859,2,0,B|144:288,1,70,8|0
208,232,83222,5,4
280,184,83404,1,0
280,272,83586,1,8
352,232,83768,1,0
404,296,83950,2,0,B|420:328|460:344,2,70,0|0|8
456,232,84495,2,0,B|488:200|496:128|432:72|368:104,1,210,0|8
296,128,85222,5,0
216,104,85404,2,0,B|184:96|144:104,2,70,0|0|8
232,184,85950,2,0,B|240:240|312:248|384:240|392:184,1,210,4|8
256,80,86859,5,0
176,56,87041,1,0
96,80,87222,1,8
48,152,87404,2,0,B|40:192|48:224,1,70,0|0
72,304,87768,1,0
152,280,87950,2,0,B|176:256,4,35,8|0|0|0|0
320,304,88677,2,0,B|360:312|392:304,2,70,8|0|4
256,152,89404,6,0,B|248:192|216:216,1,70,8|0
160,152,89768,2,0,B|168:112|200:88,2,70,0|0|8
136,232,90313,2,0,B|160:304|256:320,1,140,0|0
320,296,90859,1,8
400,320,91041,2,0,B|448:328|480:312,1,70
440,240,91404,2,0,B|448:192|432:160,1,70,0|8
376,112,91768,1,0
296,84,91950,6,0,B|224:76,2,70,0|0|8
304,168,92495,1,0
224,184,92677,2,0,B|152:192,2,70,0|0|8
304,168,93222,1,0
240,320,93586,2,0,B|312:312,2,70,0|8|0
176,288,94131,1,0
160,280,94222,1,0
144,272,94313,1,0
72,232,94495,2,0,B|60:162,1,70,8|0
56,80,94859,1,4
224,64,95222,5,8
304,48,95404,1,0
360,112,95586,1,0
328,192,95768,1,0
248,216,95950,5,8
200,144,96131,1,0
128,104,96313,2,0,B|96:96|56:104,2,70,8|8|8
128,192,96859,6,0,B|120:224|128:264,2,70,0|0|0
200,144,97404,1,8
280,112,97586,2,0,B|312:104|352:112,2,70,0|4|0
352,192,98131,6,0,B|360:224|352:264,1,70,2|0
267,261,98495,2,0,B|259:229|267:189,2,70,2|0|2
264,344,99041,2,0,B|232:352|192:344,1,70,2|0
120,312,99404,1,0
72,240,99586,1,2
72,156,99768,1,0
120,88,99950,2,0,B|144:64|184:56,1,70,2|0
264,72,100313,2,0,B|336:104|400:72,1,140,2|4
496,208,101041,5,2
344,272,101404,2,0,B|304:280|288:312,2,70,2|0|2
408,216,101950,2,0,B|408:144,1,70,2|0
408,64,102313,2,0,B|400:24|368:8,2,70,2|0|2
256,144,103041,1,0
256,144,103222,2,0,B|224:160|184:168,2,70,2|0|4
256,312,103950,6,0,B|288:296|328:288,1,70,2|0
406,289,104313,2,0,B|437:304|471:311,2,70,2|0|2
364,216,104859,2,0,B|364:136,1,70,2|0
360,64,105222,1,0
280,96,105404,1,2
232,168,105586,1,0
152,192,105768,2,0,B|80:192,1,70,2|0
48,272,106131,2,0,B|120:272,2,70,2|0|4
208,328,106859,5,2
368,272,107222,2,0,B|408:264|432:232,1,70,2|0
416,152,107586,2,0,B|376:160|352:192,1,70,2|0
256,320,108131,2,0,B|216:312|192:280,2,70,2|0|2
296,248,108677,1,2
256,176,108859,1,0
296,104,109041,1,2
256,32,109222,1,0
104,104,109586,6,0,B|72:112|32:104,2,70,2|0|2
184,80,110131,2,0,B|216:72|256:80,1,70,2|0
224,160,110495,2,0,B|256:168|296:160,1,70,2|0
368,120,110859,1,4
