osu file format v9

[General]
AudioFilename: Kotoko_-_Wing_My_Way.mp3
AudioLeadIn: 0
PreviewTime: 202396
Countdown: 0
SampleSet: Normal
StackLeniency: 0.7
Mode: 0
LetterboxInBreaks: 1

[Editor]
DistanceSpacing: 1.1
BeatDivisor: 4
GridSize: 8

[Metadata]
Title:Wing my Way
Artist:KOTOKO
Creator:momoco
Version:Hard
Source:Farland Symphony
Tags:i've sound

[Difficulty]
HPDrainRate:5
CircleSize:4
OverallDifficulty:6
ApproachRate:6
SliderMultiplier:1.5
SliderTickRate:1

[Events]
//Background and Video events
0,0,"BG1.png"
//Break Periods
//Storyboard Layer 0 (Background)
//Storyboard Layer 1 (Fail)
//Storyboard Layer 2 (Pass)
//Storyboard Layer 3 (Foreground)
//Storyboard Sound Samples
//Background Colour Transformations
3,100,163,162,255

[TimingPoints]
12551,508.345335931543,4,1,0,54,1,0
89819,-100,4,1,0,19,0,0
90836,-100,4,1,0,32,0,0
91852,-100,4,1,0,41,0,0
92869,-100,4,1,0,52,0,0
93886,-100,4,1,0,55,0,0
97953,-100,4,1,0,55,0,1
130487,-100,4,1,0,55,0,0

[Colours]
Combo1 : 249,253,159
Combo2 : 248,194,231
Combo3 : 201,201,254
Combo4 : 192,249,176

[HitObjects]
96,32,16617,2,0,B|208:32,2,112.5
64,176,17888,1,0
136,224,18142,1,0
216,208,18396,1,0
272,144,18651,2,0,B|352:96,1,75,2|0
400,56,19159,2,0,B|464:120,1,75,2|0
384,344,20684,6,0,B|272:344,2,112.5
480,208,21955,1,0
432,136,22209,1,0
352,128,22463,1,0
312,200,22717,5,2
312,200,22844,1,0
312,200,22972,1,0
248,272,23226,1,2
248,272,23353,1,0
248,272,23480,1,0
168,216,23734,1,0
232,160,23988,2,0,B|176:104|216:16,1,150
213,21,24751,5,2
272,80,25005,1,0
344,40,25259,1,8
400,112,25513,1,0
480,88,25767,2,0,B|480:176,1,75
384,256,26276,2,0,B|384:152,1,75,8|0
312,224,26784,5,2
272,296,27038,1,0
192,272,27293,1,8
144,344,27547,1,0
80,288,27801,2,0,B|8:208,1,75
80,128,28309,2,0,B|136:192,1,75,8|0
200,136,28818,5,0
240,136,28945,1,0
280,136,29072,1,0
256,216,29326,2,0,B|336:240|416:232,1,150,8|0
456,168,30088,2,0,B|488:88|440:24,1,150
360,80,30851,5,2
416,160,31105,1,0
488,96,31359,1,8
432,16,31613,1,0
360,80,31868,1,2
280,80,32122,2,0,B|112:80,1,150
48,104,32884,2,0,B|24:144|48:192,1,75,2|0
208,320,33393,2,0,B|224:288|208:240,1,75,8|0
216,168,33901,6,0,B|144:168,2,37.5
280,112,34409,2,0,B|320:88|360:88,1,75,8|0
424,128,34918,1,2
488,176,35172,1,0
464,256,35426,1,8
400,208,35680,1,0
376,288,35934,2,0,B|320:344,1,75,0|0
216,328,36443,2,0,B|272:280,1,75,8|0
256,200,36951,5,2
256,160,37078,1,0
256,120,37205,1,0
208,48,37459,2,0,B|112:56|96:152,1,150,8|0
48,200,38222,2,0,B|0:200,2,37.5,0|0|8
120,160,38730,1,0
136,240,38984,5,0
144,280,39112,1,0
168,312,39239,1,0
200,336,39366,1,0
240,344,39493,1,8
296,280,39747,1,0
360,328,40001,6,0,B|360:272,1,37.5
448,280,40382,1,0
448,240,40509,2,0,B|448:152,1,75,8|0
448,80,41018,1,4
208,16,41780,5,0
224,56,41907,1,0
240,88,42035,2,0,B|296:200,2,112.5,2|0|0
320,56,43051,2,0,B|376:24|440:64,2,112.5,2|0|0
376,112,44068,2,0,B|376:288,1,150,2|0
320,328,44830,1,0
320,328,44958,1,0
320,328,45085,2,0,B|248:352|144:328,1,150,2|8
96,296,45847,5,0
40,216,46101,1,0
72,112,46355,1,0
168,48,46610,2,0,B|208:40|256:56,1,75,8|0
288,200,47118,2,0,B|224:144,1,75
248,72,47626,2,0,B|304:120,1,75,8|0
288,200,48135,6,0,B|168:96,1,150,0|8
174,101,48897,1,8
216,32,49151,2,0,B|296:16|392:56,1,150,2|8
488,168,49914,1,0
448,240,50168,2,0,B|408:272|352:288,2,75,0|0|8
376,200,50931,1,0
376,200,51058,6,0,B|264:200,1,112.5,2|0
144,264,51693,1,8
200,328,51947,1,0
272,352,52201,1,0
352,336,52456,1,0
400,272,52710,2,0,B|400:168,1,75,8|0
432,176,53091,6,0,B|408:96,1,75
432,72,53472,2,0,B|376:8,1,75,0|8
384,16,53854,1,0
384,16,53981,1,0
288,112,54235,2,0,B|304:144|336:192,1,75,2|0
336,32,54743,2,0,B|256:8,1,75,10|0
216,80,55252,5,0
216,80,55506,1,0
144,128,55760,2,0,B|144:216,1,75,8|0
160,288,56268,5,2
192,312,56395,1,2
232,328,56522,1,0
312,328,56777,1,10
352,312,56904,1,0
272,256,57158,1,0
272,216,57285,1,4
56,72,58047,5,0
32,104,58174,1,0
16,144,58302,2,0,B|0:224|80:288,1,150,2|8
152,264,59064,1,0
192,192,59318,2,0,B|264:176|368:216,1,150,2|8
376,280,60081,1,0
408,360,60335,2,0,B|480:312|480:224,1,150,2|0
448,96,61097,1,0
448,96,61225,1,0
448,96,61352,6,0,B|448:184,1,75,2|0
304,248,61860,2,0,B|304:160,1,75,8|0
304,88,62368,5,0
368,40,62623,1,0
448,40,62877,1,8
504,104,63131,1,0
504,184,63385,2,0,B|472:272|432:320,1,150,0|8
434,316,64148,1,0
376,256,64402,2,0,B|328:216|232:184,1,150,0|8
168,144,65164,1,8
104,88,65418,6,0,B|144:0,1,75
184,160,65927,2,0,B|160:216|136:248,1,75,8|0
136,312,66435,2,0,B|168:344|216:352,1,75,2|0
288,344,66943,2,0,B|360:320,1,75,8|0
400,304,67325,1,0
432,280,67452,6,0,B|432:192,1,75,2|0
392,56,67960,1,8
312,32,68214,1,0
232,64,68468,2,0,B|208:32,2,37.5
280,128,68977,2,0,B|312:104,2,37.5,8|0|0
232,192,69485,2,0,B|272:248|272:336,1,150,0|8
192,312,70248,2,0,B|112:296|64:232,1,150
136,192,71010,1,0
208,232,71264,5,0
240,256,71391,1,0
280,264,71519,1,2
320,256,71646,1,0
352,232,71773,1,0
424,192,72027,1,0
480,128,72281,1,0
432,56,72535,5,2
352,88,72789,1,0
320,104,72917,1,0
280,112,73044,1,0
240,104,73171,1,0
208,80,73298,1,0
128,56,73552,1,4
48,256,74060,6,0,B|128:240,1,75,8|0
88,168,74569,2,0,B|184:168,1,75
144,88,75077,2,0,B|232:120,1,75,8|0
232,32,75585,2,0,B|288:104|280:208,1,150,2|8
224,264,76348,1,0
304,328,76602,1,0
368,248,76856,5,0
280,184,77110,1,8
224,264,77365,1,0
144,328,77619,2,0,B|64:296|32:224,1,150,2|8
34,230,78381,1,0
48,80,78635,2,0,B|136:104|168:184,1,150,2|8
161,170,79398,1,0
128,248,79652,5,2
128,248,79906,1,0
256,320,80160,1,10
256,320,80415,1,0
248,168,80669,1,2
248,168,80923,1,0
176,40,81177,1,10
176,40,81431,1,0
328,24,81685,2,0,B|400:32|456:104,2,150,0|8|0
272,80,82956,5,0
336,136,83211,1,8
296,208,83465,1,0
360,264,83719,2,0,B|448:240|488:168,2,150,0|8|0
360,264,84990,5,0
304,328,85244,1,8
304,328,85498,1,0
224,344,85752,2,0,B|64:344,1,150,0|8
74,344,86515,1,0
24,200,86769,2,0,B|184:200,1,150,0|8
174,200,87531,1,0
264,184,87786,6,0,B|264:272,1,75,2|0
320,320,88294,1,8
336,240,88548,2,0,B|336:176,1,37.5,2|2
304,80,89056,2,0,B|248:56|192:48,1,112.5
72,48,89819,6,0,B|32:112|104:88|64:160,2,112.5,2|0|0
72,48,90836,1,2
144,88,91090,1,0
192,152,91344,1,8
184,232,91598,1,0
128,296,91852,2,0,B|40:312|104:328|24:344,2,112.5,2|0|0
208,328,92869,2,0,B|264:344|344:328,1,112.5,2|0
408,248,93632,1,0
400,160,93886,6,0,B|376:120|320:96,1,75,2|0
288,160,94394,2,0,B|312:200|368:216,1,75,8|0
400,96,94902,2,0,B|376:56|336:40,1,75,2|0
320,272,95411,2,0,B|336:312|376:320,1,75,8|0
368,192,95919,1,4
184,24,96682,5,0
184,104,96936,2,0,B|184:200,1,75
184,179,97317,1,0
184,179,97444,1,0
184,179,97698,1,0
232,248,97953,6,0,B|208:264|144:264,1,75,2|0
120,240,98334,2,0,B|48:224|16:160,1,112.5
64,96,98969,2,0,B|112:96|160:128,1,75,2|0
160,152,99350,2,0,B|192:192|272:200,1,112.5
264,120,99986,6,0,B|288:88|328:88,1,75,2|0
336,48,100367,2,0,B|384:16|472:32,1,112.5
456,112,101003,1,2
480,144,101130,1,0
504,176,101257,1,0
448,232,101511,2,0,B|384:272,1,75,8|0
336,336,102019,6,0,B|248:336,1,75
216,216,102528,2,0,B|304:216,1,75,8|0
256,288,103036,2,0,B|104:288,1,150,0|8
106,288,103798,1,0
56,208,104053,6,0,B|136:216|208:184,1,150,2|8
202,186,104815,1,0
256,120,105069,1,2
256,120,105196,1,2
256,120,105324,1,0
304,184,105578,1,8
256,256,105832,1,2
256,256,105959,2,0,B|256:320,1,37.5,2|0
416,240,106594,6,0,B|416:280|384:320,1,75,8|0
320,352,107103,2,0,B|280:360|224:328,1,75
208,264,107611,2,0,B|200:224|232:184,1,75,8|0
288,136,108119,2,0,B|344:88|440:88,1,150,2|8
344,96,108882,2,0,B|296:48|192:32,1,150
209,34,109644,1,8
152,144,109899,1,0
152,144,110026,6,0,B|144:200|168:256,1,112.5,2|0
208,320,110661,1,8
288,320,110915,1,0
344,256,111169,2,0,B|344:208|328:168,1,75,2|0
333,182,111551,1,0
333,182,111678,1,8
376,112,111932,1,0
448,160,112186,2,0,B|488:224|480:296,2,112.5
328,224,113203,2,2,B|304:184,2,37.5
192,248,113711,2,2,B|184:288,2,37.5
80,168,114220,6,0,B|88:112|120:88,1,75
144,80,114601,2,0,B|176:32|240:16,1,112.5,2|0
296,72,115236,2,0,B|328:120|320:152,1,75
304,176,115618,2,0,B|328:240|400:272,1,112.5,2|0
440,312,116253,6,0,B|472:288|480:248,1,75
496,208,116634,2,0,B|504:136|456:96,1,112.5,2|0
416,168,117270,1,2
384,200,117397,1,0
352,232,117524,1,0
272,200,117778,2,0,B|240:216,2,37.5,8|0|0
288,120,118286,6,0,B|232:96|160:104,2,112.5
224,40,119303,1,0
112,40,119557,1,0
48,120,119811,1,8
48,224,120066,1,0
120,296,120320,2,0,B|168:320|208:320,1,75,2|0
208,280,120701,2,0,B|256:264|352:288,1,112.5,2|0
456,232,121336,2,0,B|392:176|312:208,2,150,2|0|4
336,96,122861,5,8
256,120,123116,2,0,B|224:152|184:176,1,75
248,232,123624,2,0,B|288:208|336:208,1,75,0|8
384,272,124132,1,0
400,240,124259,1,0
416,208,124386,2,0,B|472:88,2,112.5,2|0|0
296,240,125403,2,0,B|224:368,2,112.5,2|0|0
264,216,126293,1,0
224,208,126420,6,0,B|136:208,1,75,2|0
48,136,126928,2,0,B|136:136,1,75,8|0
160,64,127437,1,0
264,80,127691,1,0
312,176,127945,1,8
400,232,128199,1,0
256,192,128453,12,4,130487
