osu file format v5

[General]
AudioFilename: KOTOKO_-_We_Survive_(Full_ver.).mp3
AudioLeadIn: 0
PreviewTime: -1
Countdown: 1
SampleSet: Soft
StackLeniency: 0.7
Mode: 0
LetterboxInBreaks: 1

[Metadata]
Title:We Survive
Artist:KOTOKO
Creator:haisha_
Version:Easy
Source:www.esnips.com
Tags:

[Difficulty]
HPDrainRate:5
CircleSize:5
OverallDifficulty:5
SliderMultiplier:1.4
SliderTickRate:1

[Events]
//Background and Video events
//Break Periods
//Storyboard Layer 0 (Background)
//Storyboard Layer 1 (Failing)
//Storyboard Layer 2 (Passing)
//Storyboard Layer 3 (Foreground)
//Storyboard Sound Samples
//Background Colour Transformations
3,100,163,162,255

[TimingPoints]
26771.4285714286,428.571428571429,4,2,0,100,1

[Colours]
Combo1 : 255,179,64
Combo2 : 179,253,179
Combo3 : 116,116,252
Combo4 : 252,88,88

[HitObjects]
96,64,26771,1,0
192,64,27628,1,0
288,64,28485,1,0
384,64,29342,1,0
384,160,30200,5,0
288,160,31057,1,0
192,160,31914,1,0
96,160,32771,1,0
256,64,33628,5,0
256,64,34057,1,0
256,64,34485,1,0
256,192,35342,1,0
256,192,35771,1,0
256,192,36200,1,0
256,320,37057,1,0
256,320,37485,1,0
256,320,37914,1,0
256,192,38771,5,0
256,192,39200,1,0
256,192,39628,1,0
256,64,40485,1,0
256,64,40914,1,0
256,64,41342,1,0
64,192,42200,1,0
160,192,42628,1,0
224,192,43057,1,0
288,192,43914,1,0
352,192,44342,1,0
448,192,44771,1,0
256,192,45200,12,0,46485
96,64,47342,6,0,B|384:64|416:64,1,280
384,96,48628,1,0
384,128,49057,2,0,B|32:128|96:128,1,280
96,160,50342,1,0
96,192,50771,2,0,B|384:192,1,280
384,256,52057,2,0,B|96:256,1,280
256,192,53342,5,0
96,64,54200,1,0
224,64,55057,1,0
256,64,55485,1,0
288,64,55914,1,0
128,192,56771,1,0
160,192,57200,1,0
192,192,57628,1,0
320,192,58485,1,0
448,192,59342,1,0
256,192,60200,1,0
64,192,61057,5,0
256,192,61485,5,0
448,192,61914,5,0
256,192,62342,5,0
256,192,62771,12,0,64057
96,64,64485,5,0
416,64,65342,1,0
160,192,66200,1,0
256,192,66628,1,0
352,192,67057,1,0
352,64,67914,2,0,B|96:64,1,280
256,192,69200,1,0
128,320,69628,2,0,B|416:320,1,280
96,96,71342,1,0
224,96,72200,1,0
352,96,73057,1,0
256,192,73914,12,0,75628
96,64,76485,5,0
256,64,77342,1,0
448,64,78200,1,0
96,192,79057,1,0
256,192,79914,1,0
448,192,80771,1,0
96,320,81628,1,0
256,320,82485,1,0
448,320,83342,1,0
256,192,84200,1,0
256,192,84628,1,0
256,192,85057,1,0
256,192,85914,1,0
256,192,86771,1,0
256,192,87628,1,0
96,64,88485,6,0,B|384:64,1,280
256,192,89771,1,0
96,320,90200,2,0,B|416:320,1,280
384,352,91485,2,0,B|384:64,1,280
384,64,92771,6,0,B|96:64,1,280
96,64,94057,2,0,B|96:352,1,280
96,320,95342,5,0
192,256,96200,1,0
256,192,97057,1,0
288,160,97485,1,0
320,128,97914,1,0
256,64,98771,5,0
256,320,99628,1,0
256,192,100485,12,0,103057
96,64,103914,5,0
256,64,104771,1,0
416,64,105628,1,0
416,192,106485,1,0
256,192,107342,1,0
64,192,108200,1,0
64,320,109057,1,0
256,320,109914,1,0
448,320,110771,1,0
256,192,111628,5,0
256,192,112057,1,0
256,192,112485,1,0
256,96,113342,1,0
256,288,114200,1,0
352,192,115057,1,0
160,192,115914,1,0
256,192,116771,1,0
256,192,117200,1,0
256,192,117628,1,0
256,192,118485,5,0
