osu file format v12

[General]
AudioFilename: BALDR SKY ZERO demo.mp3
AudioLeadIn: 500
PreviewTime: 58399
Countdown: 0
SampleSet: Soft
StackLeniency: 0.7
Mode: 0
LetterboxInBreaks: 0
WidescreenStoryboard: 0

[Editor]
DistanceSpacing: 1.6
BeatDivisor: 4
GridSize: 8

[Metadata]
Title:WING OF ZERO
TitleUnicode:WING OF ZERO
Artist:KOTOKO
ArtistUnicode:KOTOKO
Creator:baldrace
Version:BALDRHEAD
Source:BALDR SKY "ZERO"
Tags:DarknessAngel GIGA opening Sirou Tunasima galgame eroge
BeatmapID:270136
BeatmapSetID:102171

[Difficulty]
HPDrainRate:7
CircleSize:4
OverallDifficulty:7
ApproachRate:8
SliderMultiplier:2
SliderTickRate:2

[Events]
//Background and Video events
0,0,"BG1.jpg",0,0
Video,0,"video.avi"
//Break Periods
2,89432,91839
//Storyboard Layer 0 (Background)
//Storyboard Layer 1 (Fail)
//Storyboard Layer 2 (Pass)
//Storyboard Layer 3 (Foreground)
//Storyboard Sound Samples
//Background Colour Transformations
3,100,163,162,255

[TimingPoints]
1960,419.58041958042,4,1,1,50,1,0
3638,-100,4,2,1,50,0,0
4897,-100,4,1,1,40,0,0
12449,-133.333333333333,4,2,1,50,0,0
18743,-133.333333333333,4,1,3,50,0,0
18953,-133.333333333333,4,2,1,50,0,0
25666,-133.333333333333,4,1,0,40,0,0
32169,-100,4,1,1,40,0,0
38883,-100,4,1,3,50,0,0
39092,-100,4,1,1,40,0,0
45596,-100,4,2,1,50,0,0
55666,-100,4,1,0,40,0,0
58183,-100,4,2,1,50,0,0
59023,-100,4,2,1,60,0,1
60701,-100,4,1,1,50,0,1
62379,-100,4,2,1,60,0,1
64057,-100,4,1,1,50,0,1
64897,-100,4,1,1,50,0,1
65526,-100,4,2,1,60,0,1
67414,-100,4,1,1,50,0,1
69092,-100,4,2,1,60,0,1
70771,-100,4,1,1,50,0,1
72449,-100,4,2,1,60,0,1
74127,-100,4,1,1,50,0,1
75701,-100,4,2,1,50,0,1
75806,-100,4,2,1,60,0,1
77484,-100,4,1,1,50,0,1
79162,-100,4,2,1,60,0,1
80841,-100,4,1,1,50,0,1
82519,-100,4,2,1,50,0,0
89232,-100,4,2,1,5,0,0
92589,-100,4,1,0,40,0,0
100351,-100,4,2,0,40,0,0
100980,-100,4,2,1,50,0,0

[Colours]
Combo1 : 22,155,226
Combo2 : 221,221,221
Combo3 : 170,69,237
Combo4 : 155,78,0

[HitObjects]
256,192,1960,1,4,0:0:0:0:
355,328,3638,5,2,0:0:0:0:
355,328,3743,2,0,L|379:280,1,50,0|0,0:0|0:0,0:0:0:0:
315,168,4057,1,2,0:0:0:0:
315,168,4162,2,0,L|291:216,1,50,0|0,0:0|0:0,0:0:0:0:
168,256,4477,1,2,0:0:0:0:
168,256,4582,2,0,L|192:208,1,50,0|0,0:0|0:0,0:0:0:0:
128,96,4897,1,8,0:0:0:0:
128,96,5001,2,0,L|112:128,4,25
160,40,5316,5,6,0:0:0:0:
281,87,5526,1,0,0:0:0:0:
318,102,5631,1,0,0:0:0:0:
350,115,5736,1,8,0:0:0:0:
472,162,5946,1,2,0:0:0:0:
424,282,6155,1,0,0:0:0:0:
410,316,6260,1,0,0:0:0:0:
391,355,6365,1,0,0:0:0:0:
268,311,6575,1,10,0:0:0:0:
152,256,6785,1,0,0:0:0:0:
116,238,6890,1,0,0:0:0:0:
80,221,6994,6,0,L|20:187,1,50,2|0,0:0|0:0,0:0:0:0:
72,128,7204,2,0,B|113:99|113:99|173:99,1,100,2|8,0:0|0:0,0:0:0:0:
432,163,7624,2,0,L|491:196,1,50,2|0,0:0|0:0,0:0:0:0:
440,256,7834,2,0,B|399:285|399:285|339:285,1,100,2|0,0:0|0:0,0:0:0:0:
432,163,8253,1,10,0:0:0:0:
349,285,8463,1,0,0:0:0:0:
256,88,8673,5,2,0:0:0:0:
134,130,8883,1,0,0:0:0:0:
107,107,8987,1,0,0:0:0:0:
79,85,9092,1,8,0:0:0:0:
256,120,9302,1,2,0:0:0:0:
378,162,9512,1,0,0:0:0:0:
404,139,9616,1,0,0:0:0:0:
430,116,9721,1,0,0:0:0:0:
256,152,9932,1,10,0:0:0:0:
145,219,10141,1,0,0:0:0:0:
115,236,10246,1,0,0:0:0:0:
85,254,10351,6,0,L|35:282,1,50,2|0,0:0|0:0,0:0:0:0:
82,343,10561,2,0,B|129:359|129:359|217:340,1,100,2|8,0:0|0:0,0:0:0:0:
427,315,10980,2,0,L|449:337,4,25,2|0|0|2|2,0:0|0:0|0:0|0:0|0:0,0:0:0:0:
429,186,11400,1,0,0:0:0:0:
409,56,11610,2,0,B|358:48|358:48|275:75,1,100,10|0,0:0|0:0,0:0:0:0:
279,76,11925,1,0,0:0:0:0:
247,89,12029,1,4,0:0:0:0:
203,291,12449,6,0,P|163:257|151:238,1,75.0000028610231,2|0,0:0|0:0,0:0:0:0:
256,192,12869,1,0,0:0:0:0:
308,92,13078,2,0,P|348:126|360:145,1,75.0000028610231,0|2,0:0|0:0,0:0:0:0:
477,241,13498,2,0,P|463:287|479:340,1,75.0000028610231
400,352,13813,1,0,0:0:0:0:
400,352,13918,2,0,L|331:296,1,75.0000028610231,0|2,0:0|0:0,0:0:0:0:
156,326,14337,2,0,L|184:352,1,37.5000014305115
104,272,14547,2,0,P|87:198|103:123,1,150.000005722046,0|2,0:0|0:0,0:0:0:0:
456,64,15386,5,0,0:0:0:0:
376,120,15596,1,0,0:0:0:0:
376,120,15701,1,0,0:0:0:0:
376,120,15806,2,0,P|323:130|286:147,1,75.0000028610231,2|0,0:0|0:0,0:0:0:0:
136,120,16225,2,0,P|188:130|225:147,1,75.0000028610231,0|0,0:0|0:0,0:0:0:0:
56,64,16645,1,2,0:0:0:0:
256,8,16855,2,0,L|256:112,1,75.0000028610231,0|0,0:0|0:0,0:0:0:0:
256,8,17274,1,0,0:0:0:0:
136,120,17484,1,2,0:0:0:0:
256,232,17694,5,0,0:0:0:0:
136,152,17904,1,2,0:0:0:0:
256,264,18114,1,2,0:0:0:0:
58,228,18323,2,0,B|91:277|151:265|151:265|177:301,1,150.000005722046,2|10,0:0|2:1,0:0:0:0:
432,320,19162,5,2,0:0:0:0:
352,256,19372,1,0,0:0:0:0:
352,256,19477,1,0,0:0:0:0:
352,256,19582,2,0,L|282:201,1,75.0000028610231
344,128,20001,1,2,0:0:0:0:
204,25,20211,2,0,L|264:72,1,75.0000028610231
204,25,20631,1,0,0:0:0:0:
184,128,20841,1,2,0:0:0:0:
71,225,21050,5,0,0:0:0:0:
112,252,21155,1,0,0:0:0:0:
160,264,21260,2,0,P|199:281|223:321,2,75.0000028610231,0|0|2,0:0|0:0|0:0,0:0:0:0:
184,128,21890,1,0,0:0:0:0:
135,123,21994,1,0,0:0:0:0:
92,99,22099,2,0,P|60:67|52:27,1,75.0000028610231
184,128,22519,5,2,0:0:0:0:
256,64,22729,1,0,0:0:0:0:
352,56,22939,2,0,P|340:114|296:152,1,112.500004291535,0|0,0:0|0:0,0:0:0:0:
266,182,23358,1,2,0:0:0:0:
352,56,23568,2,0,P|392:96|416:160,1,112.500004291535
432,192,23987,1,0,0:0:0:0:
267,181,24197,1,2,0:0:0:0:
150,265,24407,5,0,0:0:0:0:
296,160,24617,1,2,0:0:0:0:
176,248,24826,1,2,0:0:0:0:
338,275,25036,2,0,P|298:347|234:324,1,150.000005722046,2|4,0:0|0:0,0:0:0:0:
296,160,25666,6,0,L|303:73,1,75.0000028610231,2|8,0:0|0:0,0:0:0:0:
216,40,26085,1,2,0:0:0:0:
176,70,26190,1,0,0:0:0:0:
136,96,26295,2,0,L|73:44,1,75.0000028610231,0|2,0:0|0:0,0:0:0:0:
58,160,26715,2,0,L|121:210,1,75.0000028610231,8|0,0:0|0:0,0:0:0:0:
299,160,27134,5,0,0:0:0:0:
445,50,27344,1,2,0:0:0:0:
392,224,27554,1,8,0:0:0:0:
482,156,27764,1,2,0:0:0:0:
257,46,27973,2,0,L|332:52,1,75.0000028610231,0|2,0:0|0:0,0:0:0:0:
299,160,28393,2,0,L|225:154,1,75.0000028610231,8|0,0:0|0:0,0:0:0:0:
392,224,28813,5,4,0:0:0:0:
207,229,29023,1,2,0:0:0:0:
244,335,29233,1,8,0:0:0:0:
297,161,29442,2,0,L|310:73,1,75.0000028610231,2|0,0:0|0:0,0:0:0:0:
404,150,29862,2,0,L|392:224,1,75.0000028610231,2|8,0:0|0:0,0:0:0:0:
352,328,30281,1,0,0:0:0:0:
296,160,30491,5,0,0:0:0:0:
105,127,30701,1,2,0:0:0:0:
212,84,30911,1,8,0:0:0:0:
160,224,31120,2,0,L|168:272,2,37.5000014305115,2|0|0,0:0|0:0|0:0,0:0:0:0:
72,344,31540,2,0,L|65:307,4,37.5000014305115
368,328,32169,5,4,0:0:0:0:
400,72,32589,2,0,L|336:160,1,100,10|0,0:0|0:0,0:0:0:0:
280,72,33008,1,0,0:0:0:0:
400,232,33218,1,2,0:0:0:0:
264,264,33429,2,0,P|203:271|159:306,1,100,8|0,0:0|0:0,0:0:0:0:
118,349,33743,5,0,0:0:0:0:
118,349,33848,2,0,L|30:285,1,100,0|2,0:0|0:0,0:0:0:0:
40,160,34267,1,8,0:0:0:0:
40,160,34477,1,0,0:0:0:0:
9,34,34687,2,0,P|58:23|106:38,1,100,2|0,0:0|0:0,0:0:0:0:
160,88,35001,1,0,0:0:0:0:
160,88,35106,2,0,P|210:100|257:84,1,100,10|0,0:0|0:0,0:0:0:0:
264,264,35526,5,4,0:0:0:0:
394,290,35736,1,0,0:0:0:0:
328,152,35946,1,10,0:0:0:0:
456,168,36155,1,0,0:0:0:0:
335,0,36365,1,0,0:0:0:0:
459,40,36575,2,0,P|407:67|383:123,1,100,2|8,0:0|0:0,0:0:0:0:
328,152,36890,1,0,0:0:0:0:
328,152,36994,2,0,L|243:99,1,100,2|0,0:0|0:0,0:0:0:0:
128,160,37414,6,0,L|213:213,1,100,2|8,0:0|0:0,0:0:0:0:
127,48,37834,1,2,0:0:0:0:
95,248,38043,1,0,0:0:0:0:
31,136,38253,1,2,0:0:0:0:
183,339,38463,1,10,0:0:0:0:
223,323,38568,1,0,0:0:0:0:
255,299,38673,1,0,0:0:0:0:
279,267,38778,1,0,0:0:0:0:
295,227,38883,1,8,2:1:0:0:
449,24,39302,6,0,P|385:24|345:56,1,100,10|0,0:0|0:0,0:0:0:0:
305,168,39722,1,2,0:0:0:0:
212,80,39932,1,2,0:0:0:0:
116,164,40141,2,0,L|52:124,1,50,8|0,0:0|0:0,0:0:0:0:
128,248,40351,2,0,P|184:256|240:312,1,100,2|0,0:0|0:0,0:0:0:0:
346,296,40771,5,2,0:0:0:0:
417,184,40980,1,8,0:0:0:0:
351,70,41190,1,0,0:0:0:0:
351,70,41295,1,0,0:0:0:0:
351,70,41400,1,2,0:0:0:0:
225,105,41610,1,0,0:0:0:0:
118,29,41820,2,0,P|134:85|62:205,1,200,10|4,0:0|0:0,0:0:0:0:
288,340,42659,6,0,P|328:316|352:252,1,100,10|0,0:0|0:0,0:0:0:0:
423,248,42973,1,0,0:0:0:0:
423,248,43078,2,0,L|421:147,1,100,2|0,0:0|0:0,0:0:0:0:
320,65,43498,1,10,0:0:0:0:
188,45,43708,2,0,P|137:54|90:115,1,100,2|0,0:0|0:0,0:0:0:0:
173,194,44127,6,0,L|104:192,1,50,2|0,0:0|0:0,0:0:0:0:
80,280,44337,2,0,L|154:279,1,50,8|0,0:0|0:0,0:0:0:0:
208,328,44547,2,2,L|248:357,1,50,2|0,0:0|0:0,0:0:0:0:
311,295,44757,2,0,L|360:312,1,50,0|0,0:0|0:0,0:0:0:0:
408,232,44966,2,0,L|519:253,1,100,2|10,0:0|0:0,0:0:0:0:
240,192,45386,2,0,L|199:180,4,25,0|0|0|0|4,0:0|0:0|0:0|0:0|0:0,0:0:0:0:
208,64,46015,5,8,0:0:0:0:
240,192,46225,2,0,P|328:112|328:16,1,200,2|0,0:0|0:0,0:0:0:0:
440,112,46855,1,8,0:0:0:0:
504,224,47064,2,0,P|416:304|416:400,1,200,2|0,0:0|0:0,0:0:0:0:
288,336,47694,5,8,0:0:0:0:
168,288,47904,2,0,L|136:328,2,50,2|0|2,0:0|0:0|0:0,0:0:0:0:
80,192,48323,1,0,0:0:0:0:
144,80,48533,2,0,P|184:120|200:168,1,100,8|0,0:0|0:0,0:0:0:0:
259,206,48848,5,0,0:0:0:0:
259,206,48953,2,0,P|307:198|347:142,1,100,2|0,0:0|0:0,0:0:0:0:
472,136,49372,2,0,P|448:200|464:264,1,100,8|0,0:0|0:0,0:0:0:0:
420,301,49687,1,0,0:0:0:0:
420,301,49792,2,0,P|372:293|308:325,1,100,2|0,0:0|0:0,0:0:0:0:
192,312,50211,1,8,0:0:0:0:
192,312,50421,2,0,P|144:336|56:304,1,150,2|0,0:0|0:0,0:0:0:0:
30,276,50841,5,2,0:0:0:0:
9,117,51050,1,10,0:0:0:0:
148,33,51260,1,2,0:0:0:0:
148,33,51365,2,0,L|202:138,1,100,0|0,0:0|0:0,0:0:0:0:
279,150,51680,2,0,L|319:110,1,50,2|0,0:0|0:0,0:0:0:0:
400,93,51890,2,0,L|384:149,1,50,10|0,0:0|0:0,0:0:0:0:
474,124,52099,1,2,0:0:0:0:
474,124,52204,2,0,L|495:68,1,50,0|6,0:0|0:0,0:0:0:0:
448,280,52729,5,8,0:0:0:0:
344,360,52939,2,0,P|352:272|296:176,1,200,2|0,0:0|0:0,0:0:0:0:
376,72,53568,1,8,0:0:0:0:
256,24,53778,2,0,P|224:72|88:104,1,200,2|0,0:0|0:0,0:0:0:0:
96,232,54407,5,8,0:0:0:0:
120,272,54512,1,0,0:0:0:0:
160,296,54617,2,0,P|216:320|272:304,1,100,2|2,0:0|0:0,0:0:0:0:
256,192,55036,2,0,L|256:160,8,25,2|0|2|0|2|0|0|2|0,0:0|0:0|0:0|0:0|0:0|0:0|0:0|0:0|0:0,0:0:0:0:
328,104,55666,6,0,L|359:171,1,50,2|0,0:0|0:0,0:0:0:0:
344,264,55876,2,0,L|282:294,1,50,2|0,0:0|0:0,0:0:0:0:
184,280,56085,2,0,L|153:209,1,50,2|0,0:0|0:0,0:0:0:0:
168,120,56295,2,0,L|237:89,1,50,2|0,0:0|0:0,0:0:0:0:
342,86,56505,6,0,L|381:167,1,50,2|0,0:0|0:0,0:0:0:0:
361,278,56715,2,0,L|281:315,1,50,2|0,0:0|0:0,0:0:0:0:
169,297,56924,2,0,L|134:219,1,50,2|0,0:0|0:0,0:0:0:0:
150,105,57134,2,0,L|234:67,1,50,2|0,0:0|0:0,0:0:0:0:
256,192,57344,5,0,0:0:0:0:
256,192,57554,1,0,0:0:0:0:
256,192,57764,2,0,L|256:248,4,33.3333333333333,2|0|0|2|0,0:0|0:0|0:0|0:0|0:0,0:0:0:0:
104,48,58393,5,2,0:0:0:0:
341,231,58708,1,2,0:0:0:0:
296,96,59022,6,0,B|250:120|250:120|224:176,1,100,6|0,0:0|0:0,0:0:0:0:
341,231,59442,1,8,0:0:0:0:
280,344,59652,2,0,B|236:322|236:322|213:277,1,100,2|0,0:0|0:0,0:0:0:0:
88,304,60071,1,2,0:0:0:0:
123,192,60281,1,8,0:0:0:0:
341,231,60491,1,2,0:0:0:0:
349,101,60701,6,0,B|300:89|300:89|252:97,1,100,2|0,0:0|0:0,0:0:0:0:
216,224,61120,1,8,0:0:0:0:
246,351,61330,2,0,B|296:365|296:365|377:336,1,100,2|0,0:0|0:0,0:0:0:0:
88,186,61750,1,2,0:0:0:0:
115,156,61855,1,0,0:0:0:0:
142,125,61960,2,0,B|192:112|192:112|243:127,1,100,10|0,0:0|0:0,0:0:0:0:
408,228,62379,6,0,B|411:277|411:277|384:319,1,100,6|0,0:0|0:0,0:0:0:0:
442,102,62799,1,8,0:0:0:0:
217,75,63008,2,0,B|266:64|266:64|315:75,1,100,2|0,0:0|0:0,0:0:0:0:
256,192,63428,1,2,0:0:0:0:
128,208,63638,1,8,0:0:0:0:
216,344,63848,1,2,0:0:0:0:
400,304,64057,6,0,B|440:272|440:272|448:200,1,100,2|0,0:0|0:0,0:0:0:0:
449,183,64372,2,0,L|454:98,1,50,0|10,0:0|0:0,0:0:0:0:
367,33,64687,1,2,0:0:0:0:
240,48,64897,2,0,B|192:48|192:48|144:80,1,100,2|0,0:0|0:0,0:0:0:0:
120,104,65211,1,0,0:0:0:0:
88,128,65316,1,10,0:0:0:0:
120,256,65526,1,0,0:0:0:0:
224,336,65736,6,0,B|240:288|240:288|232:232,1,100,6|0,0:0|0:0,0:0:0:0:
360,208,66155,1,8,0:0:0:0:
440,104,66365,2,0,B|392:88|392:88|320:104,1,100,2|0,0:0|0:0,0:0:0:0:
103,137,66785,1,2,0:0:0:0:
216,72,66994,1,8,0:0:0:0:
216,202,67204,2,0,L|248:264,1,50,2|0,0:0|0:0,0:0:0:0:
192,320,67414,6,0,B|144:336|144:336|96:322,1,100,2|0,0:0|0:0,0:0:0:0:
320,304,67834,1,8,0:0:0:0:
444,160,68043,2,0,B|456:208|456:208|440:256,1,100,2|0,0:0|0:0,0:0:0:0:
368,56,68463,1,2,0:0:0:0:
368,56,68568,1,0,0:0:0:0:
368,56,68673,2,0,B|320:72|320:72|256:56,1,100,10|0,0:0|0:0,0:0:0:0:
160,128,69092,5,4,0:0:0:0:
14,266,69302,1,2,0:0:0:0:
160,128,69512,1,8,0:0:0:0:
163,304,69722,1,2,0:0:0:0:
160,128,69932,1,4,0:0:0:0:
263,237,70141,1,2,0:0:0:0:
160,128,70351,1,8,0:0:0:0:
285,128,70561,1,2,0:0:0:0:
401,66,70771,5,4,0:0:0:0:
401,66,70876,1,2,0:0:0:0:
400,194,71085,1,0,0:0:0:0:
400,194,71190,1,10,0:0:0:0:
276,234,71400,2,0,B|233:260|233:260|191:327,1,100,2|4,0:0|0:0,0:0:0:0:
77,324,71820,1,2,0:0:0:0:
48,197,72029,2,0,L|28:159,6,25,10|0|0|0|0|0|0,0:0|0:0|0:0|0:0|0:0|0:0|0:0,0:0:0:0:
127,161,72449,6,0,L|153:203,1,50,4|0,0:0|0:0,0:0:0:0:
128,75,72659,2,0,B|175:65|175:65|262:87,1,100,2|8,0:0|0:0,0:0:0:0:
342,216,73078,2,0,B|354:168|354:168|345:112,1,100,2|0,0:0|0:0,0:0:0:0:
465,171,73498,1,2,0:0:0:0:
246,258,73708,1,8,0:0:0:0:
327,374,73918,1,2,0:0:0:0:
160,349,74127,5,2,0:0:0:0:
80,147,74337,2,0,B|71:197|71:197|81:246,1,100,2|8,0:0|0:0,0:0:0:0:
203,94,74757,1,2,0:0:0:0:
212,224,74966,2,0,B|262:235|262:235|351:218,1,100,0|2,0:0|0:0,0:0:0:0:
314,95,75386,2,0,B|391:95|391:95|462:133,1,150,10|0,0:0|0:0,0:0:0:0:
430,210,75806,6,0,L|470:246,1,50,6|0,0:0|0:0,0:0:0:0:
362,265,76015,2,0,B|311:276|311:276|260:266,1,100,2|8,0:0|0:0,0:0:0:0:
151,117,76435,2,0,B|139:165|139:165|147:215,1,100,2|0,0:0|0:0,0:0:0:0:
88,64,76855,1,2,0:0:0:0:
277,154,77064,1,8,0:0:0:0:
72,272,77275,1,2,0:0:0:0:
263,331,77484,6,0,B|212:324|212:324|166:337,1,100,2|0,0:0|0:0,0:0:0:0:
360,256,77904,1,8,0:0:0:0:
277,154,78113,2,0,B|319:132|319:132|379:133,1,100,2|0,0:0|0:0,0:0:0:0:
472,52,78533,1,2,0:0:0:0:
341,36,78743,1,10,0:0:0:0:
304,48,78848,1,0,0:0:0:0:
265,59,78953,1,2,0:0:0:0:
227,71,79057,1,0,0:0:0:0:
189,86,79162,6,0,B|141:95|141:95|70:82,1,100,6|0,0:0|0:0,0:0:0:0:
103,215,79582,1,8,0:0:0:0:
199,305,79792,1,2,0:0:0:0:
329,311,80001,1,0,0:0:0:0:
329,311,80106,2,0,L|330:379,2,50,0|2|0,0:0|0:0|0:0,0:0:0:0:
348,226,80421,2,8,L|348:157,1,50,10|0,0:0|0:0,0:0:0:0:
432,151,80631,2,0,L|433:87,1,50,2|0,0:0|0:0,0:0:0:0:
365,44,80841,6,0,B|318:63|318:63|243:60,1,100,2|0,0:0|0:0,0:0:0:0:
235,128,81155,1,0,0:0:0:0:
235,128,81260,2,0,B|187:123|187:123|123:155,1,100,10|0,0:0|0:0,0:0:0:0:
221,248,81680,1,2,0:0:0:0:
116,329,81890,1,0,0:0:0:0:
95,295,81994,1,0,0:0:0:0:
75,260,82099,2,0,B|54:212|54:212|61:148,1,100,10|0,0:0|0:0,0:0:0:0:
90,38,82519,6,0,P|144:59|172:100,1,100,6|0,0:0|0:0,0:0:0:0:
235,128,82834,1,0,0:0:0:0:
235,128,82939,2,0,L|325:79,1,100,10|0,0:0|0:0,0:0:0:0:
462,160,83358,2,0,P|470:136|452:66,1,100,2|0,0:0|0:0,0:0:0:0:
337,199,83778,1,8,0:0:0:0:
414,305,83987,1,0,0:0:0:0:
308,381,84197,5,2,0:0:0:0:
232,276,84407,1,0,0:0:0:0:
182,158,84617,2,0,P|127:193|116:223,1,100,8|0,0:0|0:0,0:0:0:0:
310,124,85036,2,0,P|246:49|143:33,1,200,2|8,0:0|0:0,0:0:0:0:
182,158,85666,1,2,0:0:0:0:
256,192,85876,12,0,89232,0:0:0:0:
76,242,92589,6,0,L|140:306,1,50,6|0,0:0|0:0,0:0:0:0:
140,298,92799,1,0,0:0:0:0:
173,310,92904,1,0,0:0:0:0:
206,320,93008,1,10,0:0:0:0:
76,155,93218,2,0,L|140:91,1,50,2|0,0:0|0:0,0:0:0:0:
136,95,93428,1,0,0:0:0:0:
166,77,93533,1,0,0:0:0:0:
198,63,93638,1,2,0:0:0:0:
328,56,93848,1,10,0:0:0:0:
360,80,93953,1,0,0:0:0:0:
384,112,94057,1,0,0:0:0:0:
400,152,94162,1,0,0:0:0:0:
408,192,94267,6,0,L|408:248,4,50,2|0|0|0|10,0:0|0:0|0:0|0:0|0:0,0:0:0:0:
283,323,94897,2,0,L|283:273,3,50,0|0|2|0,0:0|0:0|0:0|0:0,0:0:0:0:
256,248,95316,1,0,0:0:0:0:
216,240,95421,1,0,0:0:0:0:
184,256,95526,1,10,0:0:0:0:
144,256,95631,1,0,0:0:0:0:
112,232,95736,1,0,0:0:0:0:
104,184,95841,1,0,0:0:0:0:
112,144,95946,6,0,L|88:88,4,50,6|0|0|0|10,0:0|0:0|0:0|0:0|0:0,0:0:0:0:
232,88,96575,2,0,L|231:39,4,50,2|0|0|0|2,0:0|0:0|0:0|0:0|0:0,0:0:0:0:
336,168,97204,1,10,0:0:0:0:
360,200,97309,1,0,0:0:0:0:
368,240,97414,1,0,0:0:0:0:
352,280,97519,1,0,0:0:0:0:
328,312,97624,5,2,0:0:0:0:
296,336,97729,1,0,0:0:0:0:
256,352,97834,1,0,0:0:0:0:
216,336,97939,1,0,0:0:0:0:
184,312,98043,1,10,0:0:0:0:
160,280,98148,1,0,0:0:0:0:
144,240,98253,1,0,0:0:0:0:
152,200,98358,1,0,0:0:0:0:
176,168,98463,1,2,0:0:0:0:
256,128,98673,5,0,0:0:0:0:
256,258,98883,2,0,L|256:208,3,50,10|0|0|0,0:0|0:0|0:0|0:0,0:0:0:0:
256,128,99302,1,6,0:0:0:0:
344,56,99512,2,0,P|370:111|354:160,1,100,6|0,0:0|0:0,0:0:0:0:
344,56,99932,2,0,P|256:16|168:56,1,200,4|8,0:0|0:0,0:0:0:0:
256,128,100561,1,8,0:0:0:0:
