osu file format v10

[General]
AudioFilename: Unite reactioN.mp3
AudioLeadIn: 0
PreviewTime: 78457
Countdown: 0
SampleSet: Soft
StackLeniency: 0.7
Mode: 0
LetterboxInBreaks: 0

[Editor]
Bookmarks: 2454,78621,89939,90118,104489,132693
DistanceSpacing: 1
BeatDivisor: 4
GridSize: 8
CurrentTime: 0

[Metadata]
Title:Unite + reactioN
TitleUnicode:
Artist:KOTOKO
ArtistUnicode:
Creator:-Gamu-
Version:SakiK's Easy
Source:MATERIAL BRAVE
Tags:opening eroge rpg giga visual novel melophobia bossandy darknessangel mythol sakik
BeatmapID:155963
BeatmapSetID:49406

[Difficulty]
HPDrainRate:2
CircleSize:3
OverallDifficulty:1
ApproachRate:2
SliderMultiplier:0.799999999999999
SliderTickRate:1

[Events]
//Background and Video events
0,0,"Mashiro.jpg"
Video,-100,"video.avi"
//Break Periods
//Storyboard Layer 0 (Background)
//Storyboard Layer 1 (Fail)
//Storyboard Layer 2 (Pass)
//Storyboard Layer 3 (Foreground)
//Storyboard Sound Samples
//Background Colour Transformations
3,100,163,162,255

[TimingPoints]
2454,359.281437125748,4,2,1,40,1,0
2454,-133.333333333333,4,2,1,40,0,0
7304,-133.333333333333,4,2,1,10,0,0
7394,-133.333333333333,4,2,1,40,0,0
13052,-133.333333333333,4,2,1,10,0,0
13951,-100,4,2,1,70,0,0
78621,-100,4,2,1,80,0,1
89939,-100,4,2,1,80,0,0
90118,-100,4,2,1,80,0,1
102334,-100,4,2,1,50,0,1
102513,-100,4,2,1,80,0,1
104489,-100,4,2,1,70,0,0
132064,-100,4,2,1,10,0,0

[Colours]
Combo1 : 224,157,67
Combo2 : 167,224,148
Combo3 : 170,170,255
Combo4 : 215,94,232

[HitObjects]
177,173,2454,2,0,B|178:235|241:273,1,119.999996423721,2|0,0:0|0:0,0:0
340,209,3891,2,0,B|339:147|276:109,1,119.999996423721,2|0,0:0|0:0,0:0
256,192,5328,12,0,7304,0:0
256,249,8202,6,0,B|257:323,2,59.9999982118606,0|0|2,0:0|0:0|0:0,0:0
256,128,9639,2,0,B|255:54,2,59.9999982118606,0|0|2,0:0|0:0|0:0,0:0
256,192,11076,12,0,13052,0:0
343,298,13951,6,0,B|386:227,1,79.9999999999999,0|8,0:0|0:0,0:0
345,159,14669,2,0,B|308:88,1,79.9999999999999,0|8,0:0|0:0,0:0
229,74,15388,6,0,B|169:128|84:137,1,160,4|2,0:0|0:0,0:0
147,284,16825,2,0,B|101:293|87:331,2,79.9999999999999,0|8|0,0:0|0:0|0:0,0:0
290,213,18262,5,0,0:0
437,273,18980,1,8,0:0
415,114,19699,2,0,B|360:52|269:52,2,160,0|2|4,0:0|0:0|0:0,0:0
283,205,21855,5,8,0:0
151,295,22573,2,0,B|116:273|99:232,2,79.9999999999999,0|8|0,0:0|0:0|0:0,0:0
226,268,23651,1,8,0:0
256,192,24010,12,0,25986,0:0
331,192,26885,6,0,B|254:227|176:191,1,160,2|2,0:0|0:0,0:0
66,75,28322,6,0,B|50:114|50:153,2,79.9999999999999,4|2|0,0:0|0:0|0:0,0:0
221,35,29759,2,0,B|288:78|376:85,1,160,0|2,0:0|0:0,0:0
455,221,31196,5,0,0:0
327,318,31915,1,2,0:0
167,309,32633,2,0,B|96:272|65:190,1,160,0|2,0:0|0:0,0:0
162,63,34070,5,0,0:0
302,138,34789,1,2,0:0
458,103,35507,2,0,B|491:27,2,79.9999999999999,0|2|0,0:0|0:0|0:0,0:0
354,225,36945,6,0,B|322:259|281:267,1,79.9999999999999,0|2,0:0|0:0,0:0
208,247,37663,2,0,B|171:223|127:216,1,79.9999999999999,0|2,0:0|0:0,0:0
64,177,38382,2,0,B|42:133|54:87|95:72|142:76,1,160,0|2,0:0|0:0,0:0
300,80,39819,5,4,0:0
385,214,40537,1,8,0:0
247,296,41256,2,0,B|190:353|97:362,1,160,0|8,0:0|0:0,0:0
54,209,42693,6,0,B|20:184|9:145,2,79.9999999999999,0|8|0,0:0|0:0|0:0,0:0
132,194,43771,1,8,0:0
204,160,44130,2,0,B|243:203|243:203|294:196|343:221,1,160,2|2,0:0|0:0,0:0
417,79,45567,6,0,B|464:156|423:236,2,160,4|8|0,0:0|0:0|0:0,0:0
352,31,47364,2,0,B|281:65,1,79.9999999999999,8|0,0:0|0:0,0:0
236,132,48082,1,8,0:0
256,192,48442,12,0,50418,0:0
257,274,51675,6,0,B|212:269|182:247,1,79.9999999999999,4|0,0:0|0:0,0:0
121,195,52394,1,8,0:0
121,115,52753,2,0,B|198:82|284:90,1,160,0|2,0:0|0:0,0:0
417,167,54190,2,0,B|367:200|367:200|373:255|333:301,2,160,0|2|0,0:0|0:0|0:0,0:0
302,54,56346,2,0,B|252:82|252:82|220:74,1,79.9999999999999,0|8,0:0|0:0,0:0
150,83,57064,6,0,B|105:152|99:238,1,160,4|2,0:0|0:0,0:0
156,291,58142,1,8,0:0
231,265,58501,2,0,B|262:289|280:326,2,79.9999999999999,0|8|0,0:0|0:0|0:0,0:0
370,185,59939,1,0,0:0
240,91,60657,1,2,0:0
79,95,61376,6,0,B|111:118|134:154,1,79.9999999999999,0|8,0:0|0:0,0:0
66,197,62094,2,0,B|105:240|105:240|156:233|205:258,1,160,0|4,0:0|0:0,0:0
363,271,63531,5,8,0:0
454,139,64250,2,0,B|399:80|314:59,1,160
238,75,65328,1,8,0:0
163,47,65687,2,0,B|125:115|40:151,1,160
28,227,66765,1,8,0:0
107,223,67124,2,0,B|181:201|267:236,1,160,0|2,0:0|0:0,0:0
407,165,68561,5,4,0:0
378,90,68921,2,0,B|304:57,1,79.9999999999999,8|0,0:0|0:0,0:0
225,67,69639,1,8,0:0
146,82,69998,2,0,B|72:116,2,79.9999999999999,0|8|0,0:0|0:0|0:0,0:0
198,142,71076,5,8,0:0
276,159,71436,2,0,B|348:197|388:276,1,160,4|0,0:0|0:0,0:0
317,313,72513,1,0,0:0
237,302,72873,2,0,B|165:264|125:185,1,160,2|0,0:0|0:0,0:0
119,109,73951,1,8,0:0
194,79,74310,6,0,B|257:69|319:94,2,120,2|0|8,0:0|0:0|0:0,0:0
204,158,75747,2,0,B|214:221|189:283,2,120,2|0|8,0:0|0:0|0:0,0:0
208,80,77184,6,0,B|256:32|328:48,1,120,0|2,0:0|0:0,0:0
384,88,78082,1,8,0:0
469,168,78621,6,0,B|483:248|460:327,1,160,4|0,0:0|0:0,0:0
301,305,80058,2,0,B|260:319|240:360,2,79.9999999999999,0|8|0,0:0|0:0|0:0,0:0
269,148,81495,1,0,0:0
122,84,82214,1,8,0:0
25,211,82933,2,0,B|59:265|122:275,2,120,0|0|8,0:0|0:0|0:0,0:0
63,140,84370,5,4,0:0
206,69,85088,1,8,0:0
358,119,85807,2,0,B|394:142|414:182,1,79.9999999999999,0|8,0:0|0:0,0:0
385,252,86525,2,0,B|347:276|330:309,1,79.9999999999999,0|8,0:0|0:0,0:0
259,346,87244,6,0,B|191:304|161:223,1,160
141,145,88322,1,8,0:0
160,67,88681,2,0,B|96:54|40:75,2,120,0|0|8,0:0|0:0|0:0,0:0
231,102,90118,5,4,0:0
370,180,90837,2,0,B|396:222|396:222|395:253,1,79.9999999999999,0|8,0:0|0:0,0:0
329,298,91555,2,0,B|287:280|287:280|230:294|174:257,1,160,0|2,0:0|0:0,0:0
30,196,92992,6,0,B|8:117,1,79.9999999999999,0|8,0:0|0:0,0:0
88,115,93711,2,0,B|120:41,1,79.9999999999999,0|8,0:0|0:0,0:0
183,90,94430,2,0,B|228:44|288:23,2,120,0|0|8,0:0|0:0|0:0,0:0
159,166,95867,6,0,B|145:208|154:244,1,79.9999999999999,0|4,0:0|0:0,0:0
206,305,96585,2,0,B|219:340|261:364,1,79.9999999999999,0|8,0:0|0:0,0:0
335,339,97304,1,0,0:0
371,267,97663,2,0,B|377:179|318:118,1,160,2|2,0:0|0:0,0:0
247,86,98741,1,4,0:0
89,111,99459,5,8,0:0
45,264,100178,1,0,0:0
202,293,100897,1,8,0:0
239,137,101615,6,0,B|317:106|408:112,1,160,4|4,0:0|0:0,0:0
449,171,102693,1,8,0:0
417,243,103052,2,0,B|339:274|248:268,2,160,0|0|4,0:0|0:0|0:0,0:0
418,82,105208,5,8,0:0
262,43,105927,2,0,B|206:77|147:82,2,120,0|2|8,0:0|0:0|0:0,0:0
326,90,107364,5,0,0:0
262,236,108082,2,0,B|226:266|212:296,1,79.9999999999999,0|8,0:0|0:0,0:0
132,309,108801,2,0,B|77:251|67:163,1,160,0|2,0:0|0:0,0:0
105,95,109879,1,8,0:0
180,69,110238,5,4,0:0
332,115,110956,2,0,B|351:152|396:162,1,79.9999999999999,0|8,0:0|0:0,0:0
451,216,111675,2,0,B|442:278|382:320,2,120,0|0|8,0:0|0:0|0:0,0:0
479,140,113112,5,0,0:0
352,40,113831,2,0,B|232:40,2,120,0|4|8,0:0|0:0|0:0,0:0
352,120,115268,1,8,0:0
352,200,115627,1,8,0:0
352,280,115986,5,4,0:0
192,280,116705,1,8,0:0
69,174,117424,2,0,B|141:135|191:72,1,160,0|2,0:0|0:0,0:0
350,72,118861,6,0,B|396:138,2,79.9999999999999,4|8|0,0:0|0:0|0:0,0:0
292,221,120298,2,0,B|243:291,2,79.9999999999999,0|8|0,0:0|0:0|0:0,0:0
268,144,121376,1,8,0:0
197,106,121735,6,0,B|122:138|82:216,1,160,4|2,0:0|0:0,0:0
139,270,122813,1,8,0:0
214,297,123172,2,0,B|274:306|320:349,2,120,0|0|8,0:0|0:0|0:0,0:0
193,219,124609,6,0,B|211:141|286:80,1,160,4|2,0:0|0:0,0:0
400,190,126046,2,0,B|477:233,2,79.9999999999999,0|8|0,0:0|0:0|0:0,0:0
248,241,127483,6,0,B|212:251|212:251|169:289|169:289|106:275,1,160,0|2,0:0|0:0,0:0
151,121,128921,2,0,B|186:139|186:139|228:139,1,79.9999999999999,0|8,0:0|0:0,0:0
306,137,129639,2,0,B|396:137,1,79.9999999999999,0|8,0:0|0:0,0:0
432,200,130358,6,0,B|413:272|376:333|291:346|218:337,1,280,0|4,0:0|0:0,0:0
