osu file format v9

[General]
AudioFilename: Unite reactioN.mp3
AudioLeadIn: 0
PreviewTime: 78457
Countdown: 0
SampleSet: Soft
StackLeniency: 0.7
Mode: 0
LetterboxInBreaks: 0

[Editor]
Bookmarks: 2454,78621,89939,90118,104489,132693
DistanceSpacing: 1
BeatDivisor: 4
GridSize: 4

[Metadata]
Title:Unite + reactioN
Artist:KOTOKO
Creator:-Gamu-
Version:Mythol's Normal
Source:MATERIAL BRAVE
Tags:opening eroge rpg giga visual novel melophobia bossandy darknessangel mythol sakik

[Difficulty]
HPDrainRate:4
CircleSize:3
OverallDifficulty:4
ApproachRate:5
SliderMultiplier:1
SliderTickRate:1

[Events]
//Background and Video events
0,0,"Mashiro.jpg"
Video,-100,"video.avi"
//Break Periods
//Storyboard Layer 0 (Background)
//Storyboard Layer 1 (Fail)
//Storyboard Layer 2 (Pass)
//Storyboard Layer 3 (Foreground)
//Storyboard Sound Samples
//Background Colour Transformations
3,100,163,162,255

[TimingPoints]
2454,359.281437125748,4,2,1,40,1,0
2454,-133.333333333333,4,2,1,40,0,0
7483,-133.333333333333,4,2,1,10,0,0
7663,-133.333333333333,4,2,1,40,0,0
13232,-133.333333333333,4,2,1,10,0,0
13951,-100,4,2,1,60,0,0
50956,-100,4,2,1,10,0,0
51675,-100,4,2,1,60,0,0
78621,-100,4,2,1,70,0,1
89939,-100,4,2,1,70,0,0
90118,-100,4,2,1,70,0,1
104489,-100,4,2,1,60,0,0

[Colours]
Combo1 : 224,157,67
Combo2 : 167,224,148
Combo3 : 170,170,255
Combo4 : 215,94,232

[HitObjects]
384,132,2454,6,0,B|396:176|380:236,1,74.9999977648259,2|0
312,244,3172,2,0,B|300:200|316:140,1,74.9999977648259,2|0
284,136,3711,2,0,B|244:116|184:136,2,74.9999977648259
256,192,4609,12,0,7483
128,252,8202,6,0,B|116:208|132:148,1,74.9999977648259,2|0
200,140,8920,2,0,B|212:184|196:244,1,74.9999977648259,2|0
228,248,9459,2,0,B|272:272|328:240,2,74.9999977648259
256,192,10358,12,0,13232
304,152,13951,6,0,B|356:168|412:148,1,100,0|8
360,244,14669,2,0,B|308:228|252:248,1,100,0|8
184,308,15388,6,0,B|132:336|64:312,2,100,4|8|0
216,268,16286,1,0
124,228,16645,2,0,B|68:216|40:148,1,100,0|0
124,100,17364,2,0,B|200:132|280:96,1,150,0|8
340,28,18262,6,0,B|380:68|368:132,1,100,0|8
344,216,18980,2,0,B|388:264,2,50,0|0|8
294,211,19519,2,0,B|262:269|181:277,1,100,0|0
196,172,20238,2,0,B|244:88|352:120,1,150,0|8
420,96,21136,5,4
452,192,21495,1,8
428,288,21855,1,0
428,288,22034,1,0
340,340,22394,6,0,B|288:368|212:336,1,100,0|0
195,331,22933,1,8
149,310,23112,2,0,B|73:274|-7:310,1,150,0|8
28,208,24010,6,0,B|8:152|20:92,1,100,4|8
96,48,24729,2,0,B|116:104|104:164,1,100,0|8
124,192,25268,1,4
256,344,25986,2,0,B|256:220,1,100,0|4
76,332,28322,6,0,B|128:352|184:328,1,100,4|8
228,248,29040,2,0,B|176:228|120:252,1,100,0|8
40,204,29759,1,0
44,104,30118,2,0,B|100:112|120:156|120:156|172:132|248:160,1,200,8|8
312,108,31196,6,0,B|332:168|300:216,1,100,0|8
222,152,31915,2,0,B|202:212|234:260,1,100,0|8
260,284,32453,2,0,B|344:324|400:240,1,150,0|8
464,180,33352,2,0,B|516:180,2,50,2|0|10
388,116,34070,6,0,B|336:88|284:116,1,100,0|8
212,172,34789,2,0,B|160:200|108:172,1,100,0|8
68,160,35328,2,0,B|-28:216|32:324|32:324|96:312|144:352,1,300,0|0
236,336,36765,6,0,B|304:296|304:296|324:208,1,150,0|8
308,180,37483,2,0,B|256:119|256:119|166:115,1,150,0|8
140,132,38202,2,0,B|89:192|89:192|101:282,1,150,0|8
112,312,38921,2,0,B|88:344|88:344|4:344,2,100,0|0|0
148,280,39819,6,0,B|200:256|256:280,1,100,4|8
308,356,40537,2,0,B|256:380|200:356,1,100,0|8
148,280,41256,2,0,B|120:224|144:156,1,100,0|8
184,196,41795,2,0,B|256:224|336:192,1,150,0|8
392,116,42693,6,0,B|440:156|428:220,1,100,0|8
488,288,43412,2,0,B|440:324|364:288,1,100,0|8
352,272,43951,2,0,B|328:236|336:192|336:192|288:160|292:96,1,150,0|8
236,60,44849,2,0,B|236:12,2,50,2|0|10
176,140,45567,6,0,B|124:160|68:144,1,100,4|8
32,124,46106,1,0
0,220,46465,1,0
56,304,46825,2,0,B|120:372|224:324,1,150,4|8
294,336,47723,2,0,B|292:280|248:252,1,100,0|8
256,192,48442,12,0,50956
200,64,51675,5,4
124,128,52034,2,0,B|80:100,2,50,0|0|8
148,172,52573,2,0,B|212:240|156:328,1,150,0|8
68,324,53471,2,0,B|16:328,1,50,0|0
84,252,54010,6,0,B|272:240,1,150,0|8
312,308,54909,1,0
392,248,55268,1,8
392,248,55448,2,0,B|436:168|408:80,1,150,0|8
340,36,56346,2,0,B|304:80|324:156,1,100,0|8
268,216,57064,6,0,B|212:236|160:208,1,100,4|8
84,160,57783,1,0
84,160,57962,1,0
16,236,58322,2,0,B|8:332|104:368,1,150,0|8
172,308,59220,1,0
268,340,59579,1,8
256,192,59939,12,0,62453
344,132,63172,5,8
248,108,63531,2,0,B|232:176|288:224,1,100,0|8
308,236,64070,2,0,B|336:308|248:348|208:272,1,150,0|8
128,268,64968,2,0,B|60:276,1,50,0|8
44,180,65507,6,0,B|56:96|56:96|128:108|172:24,1,200,2|0
256,36,66585,1,8
356,51,66945,2,0,B|384:108|456:96|456:96|468:180,1,200,2|0
440,272,68022,1,8
300,216,68561,6,0,B|224:172|140:220,2,150,0|0|8
280,316,69998,2,0,B|356:360|440:312,2,150,0|0|8
356,236,71436,5,0
449,199,71795,1,8
444,100,72154,1,0
347,74,72513,1,8
293,158,72873,6,0,B|248:190|246:289,1,100,0|8
311,323,73591,2,0,B|355:290|357:191,1,100,0|8
380,204,74130,6,0,B|408:172|464:172|464:172|424:104|468:24|468:24|400:56|344:32,1,350,0|8
316,40,75567,2,0,B|283:56|215:24|215:24|259:104|219:172|219:172|275:172|303:204,1,350,0|8
336,296,77184,2,0,B|368:260,2,50,0|0|8
300,332,77723,2,0,B|248:356|180:332,1,100,0|0
252,252,78442,1,0
252,252,78621,6,0,B|276:204|256:128,1,100,4|8
180,96,79340,2,0,B|156:144|176:220,1,100,0|8
164,244,79879,2,0,B|88:288|4:240,1,150,0|8
60,156,80777,1,0
121,76,81136,1,8
160,168,81495,6,0,B|212:184|260:164,1,100,0|8
352,130,82214,2,0,B|376:86,2,50,0|0|8
344,180,82753,2,0,B|344:248|260:264|260:264|248:296,1,150,0|8
224,324,83471,2,0,B|176:352|112:336,1,100,0|0
44,212,84370,6,0,B|32:152|68:100,1,100,4|8
160,116,85088,2,0,B|248:144|340:80,2,150,0|0|8
64,84,86525,1,0
20,172,86885,6,0,B|-4:224|28:300,1,100,8|0
88,340,87603,1,8
168,280,87962,2,0,B|224:216|328:244,1,150,0|0
416,340,89040,1,8
416,340,89220,2,0,B|468:280|432:168,1,150,0|8
372,124,90118,6,0,B|268:124,1,100,4|8
178,87,90837,1,0
89,132,91196,1,0
89,132,91376,2,0,B|105:300,1,150,2|8
164,360,92274,2,0,B|216:360,2,50,2|0|10
160,260,92992,6,0,B|212:236|228:184,1,100,0|8
280,104,93711,2,0,B|352:144|372:220,1,150,0|0
248,304,94789,2,0,B|208:344|208:344|144:284|56:312,1,200,8|8
24,220,95867,1,0
52,124,96226,6,0,B|112:68|236:96,1,150,12|0
268,156,97124,2,0,B|208:212|84:184,1,150,4|8
44,248,98022,1,2
100,332,98382,2,0,B|44:380,2,50,10|0|4
184,276,99100,5,8
280,304,99459,1,0
376,268,99819,2,0,B|420:232,1,50,8|0
376,144,100358,2,0,B|416:76,1,50,0|8
316,48,100897,2,0,B|264:24|188:56,1,100,0|8
120,44,101615,6,0,B|116:136|45:196|45:196|116:249|120:352,2,350,0|4|8
216,32,104489,5,4
292,96,104849,1,8
232,176,105208,2,0,B|200:244,1,50,0|0
248,316,105747,2,0,B|336:332|396:248,1,150,0|8
420,172,106645,2,0,B|468:192|488:244,1,100,0|8
448,336,107364,6,0,B|400:316|380:264,1,100,0|8
298,209,108082,2,0,B|214:217,1,50,0|0
152,244,108621,2,0,B|80:196|96:104,1,150,0|8
180,64,109519,2,0,B|200:16,2,50,2|0|10
232,152,110238,6,0,B|288:164|340:132,1,100,4|8
420,96,110956,1,0
420,96,111136,1,0
476,176,111495,2,0,B|504:248|476:344,1,150,0|8
384,356,112394,2,0,B|332:328|244:364,1,100,0|8
188,324,113112,5,0
100,276,113471,1,8
132,180,113831,2,0,B|132:116,1,50,0|0
132,28,114370,2,0,B|200:20|252:72|236:172,1,200,4|0
388,156,115627,1,8
328,76,115986,6,0,B|380:48|448:72,2,100,4|8|0
296,116,116884,1,0
388,156,117243,2,0,B|444:168|472:236,1,100,0|0
388,284,117962,2,0,B|312:252|232:288,1,150,0|8
172,356,118860,6,0,B|132:316|144:252,1,100,0|8
168,168,119578,2,0,B|124:120,2,50,0|0|8
218,169,120117,2,0,B|252:106|334:113,1,100,0|0
316,212,120836,2,0,B|268:296|160:264,1,150,0|8
92,288,121734,5,4
60,192,122093,1,8
84,96,122453,1,0
84,96,122632,1,0
172,44,122992,2,0,B|224:16|300:48,1,100,0|0
363,74,123710,2,0,B|439:110|519:74,1,150,0|8
484,176,124609,6,0,B|504:240|480:304,2,100,4|8|0
348,240,125867,1,10
156,348,126585,2,0,B|104:276|132:180,1,150,10|8
196,120,127483,6,0,B|248:192|220:288,1,150,4|2
440,320,128741,2,0,B|488:220|424:96,1,200,4|2
284,64,129998,1,10
208,144,130358,6,0,B|160:224,1,50,2|4
244,276,130897,2,0,B|336:276,1,50,2|4
361,188,131436,2,0,B|313:104,1,50,2|4
