osu file format v9

[General]
AudioFilename: Unite reactioN.mp3
AudioLeadIn: 0
PreviewTime: 78457
Countdown: 0
SampleSet: Soft
StackLeniency: 0.7
Mode: 0
LetterboxInBreaks: 0

[Editor]
Bookmarks: 2454,78621,89939,90118,104489,132693
DistanceSpacing: 1.2
BeatDivisor: 4
GridSize: 8

[Metadata]
Title:Unite + reactioN
Artist:KOTOKO
Creator:-Gamu-
Version:Insane
Source:MATERIAL BRAVE
Tags:opening eroge rpg giga visual novel melophobia bossandy darknessangel mythol sakik

[Difficulty]
HPDrainRate:7
CircleSize:4
OverallDifficulty:7
ApproachRate:8
SliderMultiplier:1.8
SliderTickRate:1

[Events]
//Background and Video events
0,0,"Mashiro.jpg"
Video,-100,"video.avi"
//Break Periods
//Storyboard Layer 0 (Background)
//Storyboard Layer 1 (Fail)
//Storyboard Layer 2 (Pass)
//Storyboard Layer 3 (Foreground)
//Storyboard Sound Samples
//Background Colour Transformations

[TimingPoints]
2454,359.281437125748,4,2,1,40,1,0
2454,-133.333333333333,4,2,1,40,0,0
7843,-133.333333333333,4,2,1,10,0,0
8112,-133.333333333333,4,2,1,40,0,0
13591,-133.333333333333,4,2,1,10,0,0
13951,-100,4,2,1,70,0,0
26974,-100,4,2,1,50,0,0
28322,-100,4,2,1,60,0,0
76376,-100,4,2,1,70,0,0
77094,-100,4,2,1,50,0,0
77903,-100,4,2,1,70,0,0
78621,-100,4,2,1,80,0,1
89939,-100,4,2,1,80,0,0
90118,-100,4,2,1,80,0,1
104489,-100,4,2,1,70,0,0
124519,-100,4,2,1,60,0,0
132154,-100,4,2,1,35,0,0
132334,-100,4,2,1,25,0,0
132513,-100,4,2,1,15,0,0
132693,-100,4,2,1,5,0,0

[Colours]
Combo1 : 224,157,67
Combo2 : 167,224,148
Combo3 : 170,170,255
Combo4 : 215,94,232

[HitObjects]
80,72,2454,2,0,B|120:88|128:128,1,67.4999979883433,4|0
125,265,2813,2,0,B|120:296|80:312,1,67.4999979883433
64,192,3172,2,0,B|208:192,1,134.999995976687
296,192,3711,2,0,B|336:184|352:144,1,67.4999979883433
360,104,4070,1,0
336,64,4250,1,0
288,56,4430,1,0
256,192,4609,12,0,7843
144,248,8202,6,0,B|152:288|200:288,1,67.4999979883433,4|0
368,136,8561,2,0,B|360:96|312:96,1,67.4999979883433
312,304,8921,2,0,B|352:296|352:248,1,67.4999979883433
200,80,9280,2,0,B|160:88|160:136,2,67.4999979883433
248,88,9819,1,0
272,128,9998,1,0
264,176,10178,1,0
256,192,10358,12,0,13591
352,120,13951,6,0,B|368:72,2,45,2|0|0
296,216,14310,2,0,B|256:248|208:232,1,90,2|0
120,176,14669,1,2
120,176,14759,1,2
120,176,14849,2,0,B|128:232|96:272,1,90,2|0
208,144,15208,2,0,B|200:88|232:48,1,90,2|4
328,40,15567,5,0
416,104,15747,1,8
408,208,15927,1,0
328,280,16106,2,0,B|288:304|240:304,2,90,0|0|8
312,176,16645,6,0,B|272:144|272:88,1,90
176,144,17004,1,0
80,96,17184,2,0,B|80:141|40:173,1,90,8|0
120,248,17543,2,0,B|192:312,1,90
296,336,17903,2,0,B|344:312|392:330,1,90,8|0
472,127,18262,6,0,B|455:177|408:199,1,90,4|0
472,320,18621,2,0,B|424:344|375:325,1,90,8|0
312,248,18980,1,0
216,296,19160,1,0
120,248,19340,1,8
136,144,19519,6,0,B|176:120|216:168|216:168|256:120|296:144,1,180
216,64,20058,1,8
376,240,20238,2,0,B|336:264|296:216|296:216|256:264|216:240,1,180
296,320,20777,1,8
344,112,21136,5,4
240,152,21316,1,0
152,216,21495,2,0,B|144:264|176:304,1,90,8|0
272,344,21855,1,0
456,304,22034,1,0
352,272,22214,1,8
400,176,22394,6,0,B|432:136|424:88,1,90
320,120,22753,2,0,B|314:69|274:40,1,90,0|8
224,136,23112,2,0,B|184:104|136:112,2,90
224,248,23651,2,0,B|184:280|136:272,1,90,8|0
40,224,24010,6,0,B|96:216|152:264|160:336,1,180,4|0
472,224,24729,2,0,B|416:216|360:264|352:336,1,180,4|0
256,280,25268,2,0,B|208:192|256:96,1,180,4|0
320,192,25986,2,0,B|280:224|232:208,1,90,4|0
368,96,26346,2,0,B|408:64|456:80|504:128|464:184,1,180,4|0
320,328,27064,6,0,B|288:360,2,45,0|0|0
256,264,27424,1,0
184,208,27603,1,0
164,184,27693,1,0
156,152,27783,1,0
164,120,27873,1,0
180,96,27962,1,0
204,76,28052,1,0
236,68,28142,1,0
264,80,28232,1,0
284,104,28322,6,0,B|316:136|372:128,1,90,4|0
448,96,28681,1,8
376,48,28861,1,0
432,184,29040,1,0
360,240,29220,2,0,B|320:256|272:256,1,90,0|8
176,216,29579,5,0
176,216,29669,1,0
176,216,29759,2,0,B|120:208|88:256,1,90
176,320,30118,1,8
280,344,30298,2,0,B|320:344|320:344|328:336|328:336|368:328,1,90
445,224,30657,2,0,B|405:224|405:224|397:232|397:232|360:240,1,90,0|8
280,168,31016,5,0
280,168,31106,1,0
280,168,31196,2,0,B|240:136|232:80,1,90,4|0
144,152,31555,1,8
40,168,31735,1,0
104,256,31915,1,0
104,256,32094,2,0,B|128:304|192:296,1,90,0|8
280,264,32453,6,0,B|328:240|320:176,2,90,4|0|0
216,176,32992,1,8
264,104,33172,1,0
352,104,33352,1,0
408,176,33531,1,0
392,264,33711,2,0,B|376:312|328:336,1,90,8|0
308,344,33980,5,0
276,348,34070,1,4
176,312,34250,1,0
128,216,34430,2,0,B|128:168|144:128,1,90,8|0
256,192,34789,1,0
384,168,34968,2,0,B|384:216|368:256,1,90,0|8
280,280,35328,1,0
256,192,35507,6,0,B|256:128|200:72|136:72,1,180,4|8
40,228,36046,2,0,B|88:236|128:216,1,90
192,152,36406,1,0
192,152,36495,1,0
192,152,36585,1,8
440,136,36765,5,0
440,136,36855,1,0
440,136,36945,2,0,B|384:224|440:312,1,180,0|8
344,312,37483,1,0
320,224,37663,1,0
256,160,37843,1,0
168,192,38022,1,8
96,144,38202,2,0,B|64:184|72:232,1,90,0|0
136,312,38561,5,2
256,272,38741,1,10
384,272,38921,1,2
40,120,39280,1,2
136,200,39459,1,2
256,160,39639,5,0
248,120,39729,1,0
224,88,39819,2,0,B|184:64|120:72,2,90,4|0|8
328,64,40358,1,0
400,144,40537,1,0
384,248,40717,2,0,B|368:296|336:328,1,90,0|8
128,248,41076,6,0,B|144:296|176:328,2,90,4|0|0
256,264,41615,1,8
296,80,41795,2,0,B|272:56|240:56|216:80,1,90
216,168,42154,2,0,B|240:192|272:192|296:168,1,90,0|8
376,128,42513,5,0
376,128,42603,1,0
376,128,42693,1,0
496,64,42873,1,0
448,192,43052,1,8
416,60,43232,1,0
360,216,43412,1,0
288,272,43591,2,0,B|248:296|200:288,1,90,0|8
16,216,43951,6,0,B|44:255|89:266,1,90,4|0
160,208,44310,1,0
201,288,44489,1,8
264,352,44669,1,0
264,352,45028,1,0
352,352,45208,2,0,B|400:344|432:304,1,90,8|0
408,104,45567,6,0,B|352:80|288:136|232:104,1,180,4|8
144,88,46106,1,0
80,152,46286,1,0
96,240,46465,2,0,B|120:280|168:296,1,90,0|8
176,208,46825,6,0,B|224:224|240:256|248:296|248:296|320:296,1,180,4|0
448,224,47364,2,0,B|360:224,1,90,8|0
216,136,47723,2,0,B|304:136,1,90
472,248,48082,2,0,B|384:248,1,90,8|0
240,160,48442,2,0,B|328:160,1,90
272,248,48801,6,0,B|232:280|184:280,1,90,4|0
104,256,49160,1,0
40,96,49340,1,4
48,184,49519,1,8
104,256,49699,2,0,B|128:304|128:352,1,90,4|0
408,256,50058,2,0,B|384:304|384:352,1,90,2|8
256,312,50418,6,0,B|256:224,1,90,4|0
256,192,50687,1,0
256,160,50777,1,0
200,64,50956,1,12
312,64,51136,1,0
312,64,51226,1,0
312,64,51316,1,0
488,240,51675,6,0,B|432:248|424:304,1,90,12|0
320,328,52034,1,0
256,240,52214,1,0
176,312,52394,1,8
88,256,52573,2,0,B|136:248|168:192|136:136|88:128,1,180
0,192,53112,2,0,B|88:192,1,90,8|0
216,160,53471,1,0
320,136,53651,2,0,B|368:144|400:176,1,90,0|8
312,240,54010,6,0,B|224:272|128:240,1,180,4|0
56,280,54549,2,0,B|72:328|128:336,1,90,8|0
384,272,54909,2,0,B|406:226|372:181,2,90,0|0|8
192,336,55448,6,0,B|142:329|126:281,1,90
112,176,55807,1,0
176,88,55986,1,8
280,120,56166,1,0
216,168,56346,2,0,B|192:128|176:88,1,90
296,216,56705,2,0,B|320:256|336:296,1,90,8|0
332,328,56974,1,0
308,348,57064,6,0,B|268:372|220:364,1,90,4|0
80,200,57424,2,0,B|72:248|96:288,1,90,8|0
184,288,57783,1,0
384,256,57962,2,0,B|400:208|384:160,1,90,0|8
304,96,58322,6,0,B|256:79|208:95,2,90
256,176,58861,1,8
256,264,59040,1,0
160,176,59220,2,0,B|112:200|104:256,1,90
352,176,59579,2,0,B|400:200|408:256,1,90,8|0
256,336,59939,2,0,B|256:381,2,45,4|0|0
168,272,60298,5,8
96,216,60477,2,0,B|56:176|96:136,1,90
160,72,60837,1,0
256,192,61016,1,8
160,176,61196,1,0
228,116,61376,6,0,B|260:84|316:84,1,90,4|0
392,120,61735,1,8
456,184,61915,2,0,B|448:232|416:264,1,90,4|0
360,192,62274,1,0
328,280,62454,1,8
256,336,62633,1,8
256,336,62723,1,0
256,336,62813,1,0
80,88,63172,6,0,B|120:112|136:160,1,90,12|0
110,268,63531,2,0,B|70:244|56:200,2,90,0|0|8
192,224,64070,2,0,B|216:232|240:200|240:200|264:240|288:200|288:200|312:232|336:224,1,180
424,256,64609,2,0,B|444:206|407:164,1,90,8|0
336,120,64968,1,0
280,184,65148,1,0
272,272,65328,1,8
208,336,65507,6,0,B|168:360|120:352,1,90,4|0
40,304,65867,1,0
32,216,66046,2,0,B|24:167|48:128,1,90,8|0
68,88,66316,1,0
104,60,66406,2,0,B|136:32|192:44,1,90
248,320,66945,6,0,B|280:348|336:336,1,90,4|0
304,248,67304,1,0
200,248,67483,2,0,B|202:290|250:321,1,90,8|0
333,336,67843,5,0
416,304,68022,1,0
440,216,68202,1,8
392,136,68382,1,0
304,152,68561,6,0,B|264:176|216:160,1,90,4|0
136,120,68921,1,8
144,208,69100,2,0,B|132:253|87:275,1,90
376,120,69639,1,8
368,208,69819,1,0
320,280,69998,6,0,B|280:304|232:312,1,90,4|0
256,224,70358,1,8
256,136,70537,1,0
176,88,70717,1,0
96,136,70897,1,0
96,224,71076,2,0,B|112:280|176:296,1,90,8|0
240,304,71436,6,0,B|352:304|392:216,1,180,4|8
272,80,72154,2,0,B|160:80|120:168,1,180,4|8
144,248,72693,1,0
232,216,72873,2,0,B|264:168|344:144|400:160,1,180,4|8
304,312,73591,2,0,B|272:344|216:336,1,90,4|0
128,320,73951,1,8
72,248,74130,1,0
72,160,74310,5,0
136,96,74489,1,8
440,224,74849,5,0
376,288,75028,1,8
136,96,75388,5,0
200,160,75567,1,8
376,288,75927,5,0
312,224,76106,1,8
120,280,76465,5,8
200,352,76645,1,8
312,352,76825,1,8
392,280,77004,1,8
352,184,77184,5,0
336,160,77274,1,0
320,136,77364,1,0
304,112,77454,1,0
288,88,77543,1,0
160,112,77723,2,0,B|108:120,1,45,4|0
40,196,77992,5,0
44,228,78082,1,0
56,256,78172,1,0
80,276,78262,1,0
112,284,78352,1,0
144,284,78442,1,0
176,276,78531,1,0
204,260,78621,6,0,B|232:232|288:228,1,90,4|0
480,296,78980,2,0,B|452:324|396:328,1,90,8|0
400,176,79340,2,0,B|400:215|363:258,1,90
280,320,79699,1,8
176,352,79879,2,0,B|128:360|88:336,1,90
24,248,80238,5,0
136,256,80418,1,8
88,160,80597,1,0
161,244,80777,2,0,B|200:264|248:256,1,90
344,200,81136,1,8
256,136,81316,5,0
232,144,81406,1,0
208,152,81495,2,0,B|168:168|120:160,1,90,4|0
24,104,81855,1,8
32,208,82034,1,0
96,296,82214,2,0,B|136:312|184:312,2,90,0|0|8
168,216,82753,5,0
272,248,82933,2,0,B|288:288|288:336,1,90
104,152,83292,1,8
212,152,83471,2,0,B|256:136|304:152,1,90
391,73,83831,2,0,B|256:16|128:72,1,270,0|4
440,288,84729,6,0,B|416:336|360:336,1,90,8|0
264,312,85088,1,0
168,264,85268,2,0,B|192:216|248:216,1,90,0|8
416,144,85627,2,0,B|392:192|336:192,1,90
272,112,85986,1,0
168,72,86166,2,0,B|112:80|72:160|96:216,1,180,8|0
144,312,86705,6,0,B|184:336|232:328,2,90,0|8|0
200,224,87244,1,0
312,144,87424,1,0
232,144,87603,1,8
344,224,87783,1,0
272,64,87962,2,0,B|232:32|184:32,1,90
80,72,88322,1,8
72,256,88501,6,0,B|104:216|104:168,2,90,4|0|0
144,336,89040,1,8
248,320,89220,1,0
472,128,89579,1,0
368,144,89759,1,8
256,192,89939,5,0
256,192,90028,1,0
256,192,90118,2,0,B|208:208|160:192,1,90,4|0
32,56,90477,2,0,B|37:99|72:136,1,90,8|0
8,224,90837,2,0,B|50:230|94:206,2,90,0|0|8
80,304,91376,6,0,B|168:336|256:304,1,180,4|0
344,240,91915,1,8
376,136,92094,1,0
440,224,92274,1,0
408,328,92454,1,0
304,344,92633,2,0,B|256:344|216:312,1,90,8|0
152,232,92992,5,4
168,128,93172,1,0
240,208,93352,2,0,B|200:232|144:232,1,90,8|0
296,104,93711,2,0,B|336:80|392:80,1,90
480,120,94070,1,8
416,208,94250,6,0,B|376:224|360:272|360:272|336:320|288:320,1,180,4|0
288,240,94789,1,8
200,304,94968,2,0,B|160:328|112:320,1,90
136,216,95328,1,0
72,128,95507,2,0,B|112:104|160:112,1,90,8|0
256,160,95867,1,0
328,80,96046,6,0,B|360:112|368:160,1,90,0|8
320,240,96406,2,0,B|288:296|248:256|224:192|112:216|96:304,1,270,4|8
184,320,97124,6,0,B|168:280|168:232|168:232|168:184|152:144,1,180,4|0
104,64,97663,1,8
151,143,97843,2,0,B|200:160|240:136,1,90,4|0
304,72,98202,1,0
360,144,98382,2,0,B|398:167|446:150,2,90,8|0|0
256,288,99100,5,8
160,232,99280,1,0
64,280,99459,2,0,B|80:328|136:336,1,90
328,328,99819,1,8
424,280,99998,2,0,B|408:232|352:224,1,90
256,200,100358,1,0
176,112,100537,2,0,B|214:127|214:127|254:79|294:127|294:127|336:112,1,180,8|0
352,216,101076,5,0
264,280,101256,1,8
160,248,101436,1,0
104,160,101615,5,0
120,56,101795,1,8
408,160,102154,5,0
392,56,102334,1,8
256,168,102693,5,0
256,280,102873,1,8
256,192,102962,12,4,104489
376,192,104849,6,0,B|368:240|328:264,1,90,8|0
240,280,105208,1,0
168,224,105388,1,0
208,144,105567,1,8
136,88,105747,6,0,B|80:88|56:136,1,90
80,216,106106,2,0,B|40:255|57:306,1,90,0|8
144,312,106465,2,0,B|174:358|227:352,1,90
304,328,106825,1,0
368,264,107004,1,8
168,64,107364,6,0,B|200:96|248:104,1,90,4|0
416,64,107723,2,0,B|384:96|336:104,1,90,8|0
288,176,108082,1,0
256,256,108262,1,0
192,192,108442,1,8
120,240,108621,6,0,B|80:256|32:256,1,90
8,96,108980,2,0,B|48:80|96:80,1,90,0|8
72,168,109340,1,0
120,240,109519,2,0,B|144:280|184:304,2,90,0|0|8
440,192,110238,6,0,B|384:176|352:216,1,90,4|0
416,280,110597,1,8
304,144,110777,1,0
288,288,110956,2,0,B|232:304|200:264,2,90,0|0|8
248,208,111495,6,0,B|200:184|202:128,1,90
344,72,111855,2,0,B|392:96|389:151,1,90,0|8
304,144,112214,1,0
256,64,112394,1,0
136,192,112573,1,0
336,224,112753,1,8
256,320,113112,5,4
80,280,113471,1,8
160,320,113651,1,0
200,240,113831,2,0,B|216:200|208:152,1,90
152,80,114190,1,8
240,64,114370,6,0,B|288:55|328:71,1,90,4|0
280,144,114729,1,8
280,144,114819,1,0
280,144,114909,1,8
368,144,115088,5,4
408,224,115268,1,8
408,224,115358,1,0
408,224,115448,1,0
368,304,115627,1,8
280,304,115807,1,0
240,224,115986,6,0,B|152:216,1,90,4|0
24,120,116346,2,0,B|112:112,1,90,8|0
192,152,116705,1,0
232,72,116885,1,0
304,120,117064,1,8
352,200,117244,6,0,B|368:248|352:288,1,90
160,288,117603,2,0,B|144:248|160:200,1,90,0|8
256,248,117962,2,0,B|272:296|256:336,1,90
64,336,118322,2,0,B|48:288|64:248,1,90,0|8
208,88,118861,6,0,B|256:88|296:64,1,90,4|0
352,136,119220,2,0,B|385:102|397:56,1,90,8|0
480,96,119579,2,0,B|502:133|502:181,2,90,0|0|8
424,168,120118,6,0,B|416:224|344:272|288:264,1,180,4|0
88,216,120837,2,0,B|96:160|168:112|224:120,1,180,4|0
216,208,121376,1,8
152,272,121555,1,0
216,336,121735,5,4
392,336,122094,1,8
304,184,122454,1,0
304,272,122633,1,0
384,232,122813,1,8
384,144,122992,6,0,B|360:96|312:80,1,90,4|0
240,120,123352,2,0,B|189:136|143:114,1,90,0|8
72,72,123711,2,0,B|53:109|70:159,1,90
120,232,124070,1,0
208,224,124250,1,8
368,136,124609,5,4
368,136,124789,2,0,B|408:168|416:216,1,90,0|8
368,288,125148,1,2
288,320,125328,2,0,B|232:352|152:336|112:288,1,180,2|8
96,272,125777,1,0
80,240,125867,6,0,B|64:192|88:152,1,90,2|0
168,200,126226,1,2
248,160,126406,1,8
288,240,126585,2,0,B|336:232|368:192,1,90,2|0
328,112,126945,1,0
248,64,127124,2,0,B|200:72|168:112,1,90,10|0
168,200,127483,5,2
192,288,127663,1,0
272,320,127843,1,8
360,312,128022,2,0,B|392:248|344:184|272:208,1,180,2|0
224,136,128561,1,8
240,48,128741,6,0,B|176:16|112:64|136:136,1,180,2|0
64,192,129280,1,8
144,240,129459,2,0,B|168:280|160:328,1,90,2|0
72,296,129819,1,0
248,280,129998,1,10
328,312,130178,2,0,B|376:320|416:288,1,90,2|0
448,208,130537,5,4
448,208,130717,1,8
64,176,131076,1,4
152,184,131256,1,8
120,104,131436,1,0
64,176,131615,1,4
256,192,131705,12,0,132693
