osu file format v9

[General]
AudioFilename: Unite reactioN.mp3
AudioLeadIn: 0
PreviewTime: 78457
Countdown: 0
SampleSet: Soft
StackLeniency: 0.7
Mode: 0
LetterboxInBreaks: 0

[Editor]
Bookmarks: 2454,78621,90118,104489,125867,132693
DistanceSpacing: 0.8
BeatDivisor: 4
GridSize: 32

[Metadata]
Title:Unite + reactioN
Artist:KOTOKO
Creator:-Gamu-
Version:D.N.Angel
Source:MATERIAL BRAVE
Tags:opening eroge rpg giga visual novel melophobia bossandy darknessangel mythol sakik

[Difficulty]
HPDrainRate:6
CircleSize:3
OverallDifficulty:8
ApproachRate:8
SliderMultiplier:2
SliderTickRate:1

[Events]
//Background and Video events
0,0,"Mashiro.jpg"
Video,-100,"video.avi"
//Break Periods
//Storyboard Layer 0 (Background)
//Storyboard Layer 1 (Fail)
//Storyboard Layer 2 (Pass)
//Storyboard Layer 3 (Foreground)
//Storyboard Sound Samples
//Background Colour Transformations
3,100,163,162,255

[TimingPoints]
2454,359.281437125748,4,2,1,60,1,0
2454,-133.333333333333,4,2,1,50,0,0
13951,-100,4,1,1,40,0,0
15477,-100,4,1,1,50,0,0
26885,-100,4,1,1,40,0,0
28501,-100,4,2,1,70,0,0
39819,-100,4,1,1,50,0,0
51316,-100,4,1,1,40,0,0
51675,-100,4,1,1,50,0,0
61915,-200,4,1,1,40,0,0
62453,-100,4,1,1,50,0,0
77184,-100,4,1,1,40,0,0
78621,-100,4,1,0,60,0,1
89939,-100,4,1,0,60,0,0
90118,-100,4,1,0,60,0,1
101615,-100,4,1,1,60,0,1
104489,-100,4,1,1,50,0,0
131615,-100,4,2,1,50,0,0
132154,-100,4,2,1,30,0,0
132334,-100,4,2,1,15,0,0
132693,-100,4,2,1,5,0,0

[Colours]
Combo1 : 224,157,67
Combo2 : 167,224,148
Combo3 : 170,170,255
Combo4 : 215,94,232

[HitObjects]
412,92,2454,6,0,B|340:68|264:92,1,149.999995529652,2|2
100,292,3172,1,2
100,292,3531,1,0
188,312,3711,2,0,B|264:324|336:280,1,149.999995529652,2|0
144,64,4250,5,2
144,64,4430,2,0,B|92:120|112:204,1,149.999995529652,2|0
192,148,4968,1,0
272,92,5148,2,0,B|291:175|239:231,1,149.999995529652,2|0
168,300,5687,2,0,B|136:324|96:316,2,74.9999977648259,2|0|0
316,288,6226,5,2
372,148,6406,1,0
244,224,6585,1,0
456,292,6765,2,0,B|436:256|400:244,1,74.9999977648259,0|2
316,76,7124,2,0,B|280:96|268:132,1,74.9999977648259,0|0
472,132,7483,2,0,B|460:96|424:76,1,74.9999977648259,0|2
184,44,7843,1,0
100,120,8022,1,0
96,232,8202,6,0,B|140:292|140:292|216:312,2,149.999995529652,2|2|2
96,232,9280,1,0
328,192,9459,2,0,B|296:168|256:168,1,74.9999977648259,2|0
424,260,9819,2,0,B|448:228|448:188,1,74.9999977648259,0|2
328,312,10178,2,0,B|380:368|464:368,1,149.999995529652,2|0
462,367,10717,1,0
128,116,11076,5,2
264,88,11255,2,0,B|200:48,1,74.9999977648259
336,172,11615,1,0
456,80,11795,2,0,B|380:80,1,74.9999977648259,2|2
216,200,12154,2,0,B|264:260,1,74.9999977648259
264,88,12513,5,0
128,116,12693,2,0,B|72:168,1,74.9999977648259,2|0
336,172,13052,1,0
216,200,13232,1,2
400,312,13412,2,0,B|424:280|428:240,2,74.9999977648259,0|0|0
160,320,13951,6,0,B|112:336,2,50,2|0|2
336,172,14310,1,2
84,216,14489,1,0
288,296,14669,1,2
160,100,14849,1,2
216,200,15028,1,0
444,76,15208,5,0
444,76,15298,1,0
444,76,15388,2,0,B|352:36|248:72,1,200,6|8
312,160,15927,1,0
396,228,16106,2,0,B|444:244|444:244|492:232,2,100,2|2|8
88,248,16645,6,0,B|108:296|156:316,1,100,2|0
160,100,17004,2,0,B|108:80|60:92,1,100,2|8
256,248,17364,1,0
348,72,17543,1,2
164,184,17723,1,2
356,288,17903,1,8
356,288,18262,6,0,B|332:336|284:352,1,100,2|0
176,320,18621,1,8
84,264,18801,2,0,B|36:284|24:340,2,100,0|2|2
180,208,19340,2,0,B|148:168|96:156,1,100,8|0
176,320,19699,5,0
404,220,19879,1,2
288,164,20058,1,8
400,328,20238,2,0,B|452:340|496:312,1,100,0|2
320,60,20597,2,0,B|268:48|224:76,1,100,2|8
288,164,20956,1,0
392,132,21136,6,0,B|428:92|424:40,2,100,4|0|8
288,164,21675,1,0
176,168,21855,1,2
112,80,22034,1,2
64,180,22214,2,0,B|44:228|68:276,1,100,8|2
292,260,22573,6,0,B|312:212|288:164,1,100,0|2
192,320,22933,1,8
396,316,23112,1,0
444,112,23292,2,0,B|408:76|356:72,1,100,2|2
112,80,23651,1,8
112,80,24010,5,2
184,164,24190,1,2
112,248,24370,1,8
192,320,24549,1,2
112,248,24729,2,0,B|60:256|36:308,1,100
192,320,25088,5,8
40,164,25268,1,0
256,264,25448,2,0,B|348:300|452:264,1,200,2|8
364,72,25986,2,0,B|272:36|168:72,1,200,2|0
40,164,26525,1,2
472,164,26885,5,0
256,192,27064,1,0
256,192,27154,1,0
256,192,27244,2,0,B|208:208|208:208|192:256,1,100,8|0
364,152,27603,1,0
192,72,27783,1,0
192,72,27873,1,0
192,72,27962,2,0,B|144:56|144:56|96:72,1,100,8|0
256,192,28322,5,4
40,248,28501,1,0
244,288,28681,2,0,B|292:312|340:296,1,100,8|2
160,224,29040,2,0,B|132:270|145:319,2,100,0|0|8
256,192,29579,1,0
340,140,29759,2,0,B|304:104|304:104|256:88|256:88|208:104|208:104|176:140,1,200,2|8
364,244,30298,2,0,B|411:226|411:226|446:189|446:189|452:139|452:139|433:95,1,200,2|0
433,95,30837,1,8
256,192,31016,5,0
256,192,31106,1,0
256,192,31196,2,0,B|220:228|164:228,1,100,2|0
60,72,31555,2,0,B|124:148,1,100,10|0
300,72,31915,2,0,B|196:72,1,100,2|0
48,240,32274,1,8
124,304,32453,2,0,B|212:352|320:344,1,200,2|0
284,168,32992,6,0,B|232:252,1,100,8|2
372,140,33352,2,0,B|472:160,1,100,0|2
300,72,33711,2,0,B|200:48,1,100,10|0
152,60,33980,5,0
116,92,34070,2,0,B|72:184,1,100,2|0
156,336,34430,2,0,B|200:244,1,100,10|2
56,300,34789,1,0
296,312,34968,2,0,B|348:316|348:316|388:288,1,100,2|8
388,96,35328,2,0,B|348:68|348:68|296:72,1,100,2|0
204,108,35687,1,0
256,192,35867,1,8
356,192,36047,6,0,B|456:192,1,100,2|0
156,192,36406,2,0,B|56:192,1,100,2|8
340,112,36765,2,0,B|304:76|304:76|256:60|256:60|208:76|208:76|176:112,1,200,2|0
256,192,37304,1,8
340,272,37483,2,0,B|304:308|304:308|256:324|256:324|208:308|208:308|176:272,1,200,2|0
256,192,38022,5,8
356,192,38202,2,0,B|440:136|440:136|436:84|468:40,1,200,2|0
256,36,38741,1,8
156,192,38921,2,0,B|72:136|72:136|76:84|45:42,1,200,2|0
256,36,39459,1,8
256,192,39639,5,0
256,192,39729,1,0
256,192,39819,2,0,B|256:292,1,100,4|0
412,176,40178,2,0,B|372:144|320:132,1,100,8|0
100,176,40537,2,0,B|140:144|192:132,1,100
256,36,40897,1,8
148,28,41076,5,0
188,132,41256,1,0
324,132,41436,1,0
364,28,41615,1,8
256,36,41795,1,0
188,132,41974,2,0,B|156:176|156:176|156:224,1,100
256,268,42334,1,8
408,240,42513,5,0
408,240,42603,1,0
408,240,42693,2,0,B|440:196|440:196|440:148,1,100
72,150,43052,2,0,B|72:196|72:196|104:240,1,100,8|0
348,320,43412,2,0,B|444:348,2,100,0|0|8
164,320,43951,2,0,B|68:348,2,100
312,92,44489,5,10
188,244,44669,1,0
200,92,44849,1,2
324,244,45028,1,2
112,164,45208,1,8
112,164,45567,6,0,B|64:256|64:256|108:340,1,200,4|8
403,341,46106,2,0,B|448:256|448:256|400:164,1,200
256,36,46645,1,8
256,36,46825,2,0,B|256:236,1,200,4|0
157,297,47364,6,0,B|257:341|353:297,2,200,8|0|8
88,212,48262,1,0
164,136,48442,1,2
88,56,48621,1,2
164,136,48801,2,0,B|220:136|256:104,1,100,8|0
408,36,49160,6,0,B|452:64|452:64|448:112,1,100,2|2
220,248,49519,1,8
432,288,49699,1,0
272,180,49879,1,2
364,344,50058,1,2
436,172,50238,6,0,B|344:136,1,100,8|0
100,240,50597,2,0,B|160:328,1,100,2|0
112,140,50956,2,0,B|60:140|60:140|24:176,1,100,8|0
360,252,51316,1,0
436,172,51495,1,0
372,80,51675,6,0,B|280:40|176:64,1,200,12|0
68,40,52214,1,0
112,140,52394,1,8
104,248,52573,2,0,B|88:296|32:316,2,100
308,160,53112,6,0,B|360:164|396:204,1,100,8|0
308,272,53471,1,0
212,324,53651,1,0
212,212,53831,1,8
308,272,54010,1,0
116,272,54190,6,0,B|64:184|100:76,1,200,0|8
200,36,54729,1,0
292,92,54909,1,0
400,72,55088,1,0
292,92,55268,2,0,B|272:140|272:140|292:184,1,100,8|0
412,336,55627,6,0,B|432:288|432:288|412:244,1,100,2|2
100,244,55986,2,0,B|80:288|80:288|100:336,1,100,8|0
256,132,56346,1,2
200,296,56525,1,0
312,296,56705,1,10
172,200,56885,1,0
340,200,57064,6,0,B|380:172|380:172|392:124,1,100,4|0
316,40,57424,1,8
256,132,57603,1,0
196,40,57783,1,0
119,122,57962,2,0,B|132:172|132:172|172:200,1,100,0|8
256,272,58322,1,0
360,312,58501,6,0,B|412:312|412:312|448:280,2,100,0|0|8
256,272,59040,1,0
152,312,59220,2,0,B|100:312|100:312|64:280,2,100,0|0|8
256,272,59759,1,0
168,60,59939,6,0,B|88:120|88:120|156:196,1,200,4|8
357,194,60477,2,0,B|424:120|424:120|344:60,1,200
256,192,61016,1,8
340,288,61196,2,0,B|380:320|432:324,1,100,0|2
172,288,61555,2,0,B|132:320|80:324,1,100,2|8
256,192,61915,6,0,B|232:240|268:272|268:272|256:336,1,150,2|8
256,76,62813,1,4
256,76,63172,5,8
148,88,63352,2,0,B|104:116|104:116|88:160,1,100
364,88,63711,2,0,B|408:116|408:116|424:160,1,100,0|8
384,264,64070,6,0,B|420:308|464:324,2,100
320,176,64609,1,8
256,268,64789,1,0
192,176,64968,1,0
128,264,65148,2,0,B|92:308|48:324,1,100,0|8
72,132,65507,6,0,B|108:88|152:72,1,100
256,36,65867,1,0
440,132,66046,2,0,B|404:88|360:72,1,100,8|0
256,192,66406,1,2
348,248,66585,2,0,B|432:300,1,100,0|10
164,248,66945,2,0,B|80:300,2,100,2|0|2
320,68,67483,6,0,B|224:44,1,100,10|0
60,108,67843,2,0,B|156:132,1,100,2|2
448,192,68202,2,0,B|404:104,1,100,8|0
232,232,68561,5,4
324,288,68741,1,0
324,176,68921,1,8
228,120,69100,2,0,B|176:112|136:148,1,100
124,256,69459,1,0
232,232,69639,1,8
448,88,69819,6,0,B|400:64|352:68,1,100
324,176,70178,1,0
352,296,70358,2,0,B|400:300|448:276,1,100,8|0
240,112,70717,2,0,B|191:107|143:131,1,100
40,328,71076,2,0,B|88:332|136:308,1,100,8|0
72,48,71436,6,0,B|24:140|60:248,1,200,4|0
453,242,72154,2,0,B|488:140|440:48,1,200,4|0
256,80,72693,1,0
256,80,72783,1,0
256,80,72873,2,0,B|240:132|240:132|272:168|272:168|256:216|256:264,1,200,4|0
348,324,73412,1,0
164,324,73591,2,0,B|92:248,1,100
348,324,73951,2,0,B|420:248,1,100
372,152,74310,5,0
160,64,74489,1,2
144,84,74849,5,0
376,36,75028,1,2
360,52,75388,5,0
192,208,75567,1,2
216,200,75927,5,0
440,280,76106,1,2
448,248,76465,5,0
264,312,76645,1,2
300,116,76825,1,0
112,88,77004,1,2
64,256,77184,5,0
100,276,77274,1,0
140,280,77364,1,0
180,276,77454,1,0
216,264,77543,1,0
248,240,77633,1,0
268,204,77723,1,0
204,104,77903,1,0
353,186,78082,1,0
392,192,78172,1,0
433,180,78262,1,0
462,155,78351,1,0
483,121,78441,1,0
204,104,78621,6,0,B|120:156,1,100,6|0
300,32,78980,2,0,B|384:88,1,100,10|0
380,344,79340,2,0,B|296:288,1,100,2|0
56,276,79699,2,2,B|140:332,1,100,8|2
172,216,80058,5,0
132,104,80238,2,0,B|84:80|36:88,1,100,2|8
280,216,80597,2,0,B|328:240|376:232,1,100,2|0
436,128,80956,1,2
352,44,81136,1,10
172,216,81316,5,0
172,216,81406,1,0
172,216,81495,1,2
376,232,81675,1,2
284,132,81855,1,8
380,344,82034,2,0,B|436:344|464:300,2,100,0|2|2
280,276,82573,1,8
172,328,82753,6,2,B|64:320|8:228,1,200,2|0
144,192,83292,1,10
280,156,83471,2,2,B|224:64|116:56,1,200,0|2
144,192,84010,1,8
144,192,84370,6,0,B|176:232|224:248,1,100,4|0
344,248,84729,2,0,B|428:196|444:80,1,200,8|0
332,40,85268,1,0
256,132,85448,1,8
180,40,85627,1,0
256,132,85807,2,0,B|260:184|232:228,1,100
116,208,86166,2,0,B|112:264|144:308,1,100,8|0
252,344,86525,1,0
416,268,86705,5,0
256,132,86885,1,8
440,72,87064,2,0,B|412:172|312:220,1,200
196,208,87603,1,8
100,132,87783,1,0
188,52,87962,2,0,B|148:16|96:16,2,100,0|0|8
100,132,88501,6,0,B|56:224|100:328,1,200
256,272,89040,1,8
413,134,89220,2,0,B|456:224|412:328,1,200
256,272,89759,1,8
184,80,89939,5,0
184,80,90028,1,0
184,80,90118,2,0,B|136:60|136:60|88:64,1,100,6|0
318,117,90477,2,0,B|366:137|366:137|414:133,1,100,10|0
104,228,90837,2,0,B|116:280|156:316,1,100,2|0
408,228,91196,2,2,B|396:280|356:316,1,100,8|2
136,128,91555,6,0,B|204:208,1,100,0|2
480,56,91915,2,0,B|376:56,1,100,10|0
268,96,92274,1,0
364,168,92453,1,2
244,176,92633,1,10
344,244,92813,1,0
60,244,92992,6,0,B|76:292|76:292|120:312,1,100,2|0
108,128,93352,2,0,B|92:80|92:80|48:60,1,100,10|2
156,224,93711,1,0
308,80,93891,1,2
260,272,94070,1,8
200,72,94250,6,0,B|196:124|232:164,1,100,2|0
348,188,94609,2,0,B|398:168|418:120,1,100,0|10
108,128,94968,2,2,B|56:216|56:216|84:308,1,200,2|2
212,308,95507,2,0,B|240:214|240:214|188:126,1,200,8|0
284,72,96046,6,0,B|332:56|384:68,1,100,0|8
468,296,96406,2,0,B|420:312|368:300,1,100
396,184,96765,2,0,B|500:184,1,100,0|8
288,172,97124,6,0,B|192:140|192:140|92:144,1,200
176,280,97663,1,8
304,76,97843,2,0,B|208:44|208:44|108:48,1,200
76,68,98292,1,0
56,104,98382,1,8
84,220,98561,2,0,B|180:252|180:252|280:248,1,200,4|0
464,80,99100,6,0,B|428:176,1,100,8|0
368,352,99459,2,0,B|416:340|452:292,1,100
352,160,99819,1,8
220,72,99998,2,0,B|120:44|24:80,1,200
23,303,100537,2,0,B|120:340|220:312,1,200,8|0
288,192,101076,1,0
128,160,101256,2,0,B|76:144|28:160,1,100,8|0
212,72,101615,5,0
356,256,101795,1,2
340,272,102154,5,0
128,160,102334,1,2
148,152,102693,5,0
372,72,102873,1,2
396,72,103232,5,2
288,120,103412,2,0,B|220:192|220:192|220:296,1,200
324,236,103951,1,0
324,236,104040,1,0
324,236,104130,1,0
288,120,104310,1,0
56,176,104489,6,0,B|44:224|68:276,1,100,4|0
152,72,104849,2,0,B|104:52|48:64,1,100,8|0
184,200,105208,1,0
236,300,105388,1,0
324,236,105567,1,8
368,60,105747,6,0,B|288:120,1,100,0|2
456,96,106106,1,2
248,32,106286,1,8
324,236,106465,2,0,B|404:176,1,100,0|2
152,72,106825,1,0
88,192,107004,2,0,B|104:292|200:356,1,200,8|0
304,344,107543,5,0
460,168,107723,2,0,B|444:216|404:248,1,100,8|0
252,88,108082,1,0
344,148,108262,1,0
348,36,108442,1,8
132,248,108621,6,0,B|176:276|228:264,1,100,2|0
152,76,108980,2,0,B|108:48|56:60,1,100,0|10
344,148,109340,1,0
344,148,109699,1,2
379,45,109879,2,0,B|432:68|464:116|460:168|436:212,1,200,8|0
256,268,110418,5,0
432,296,110597,2,0,B|420:348|420:348|380:368,1,100,8|0
80,296,110956,2,0,B|92:348|92:348|132:368,1,100
256,116,111316,1,8
120,64,111495,1,0
120,64,111855,6,0,B|80:160,1,100,0|10
430,156,112214,2,0,B|392:64,1,100,2|0
256,116,112573,1,2
176,272,112753,2,0,B|208:308|208:308|256:324|256:324|304:308|304:308|340:272,1,200,8|0
148,188,113292,6,0,B|100:204|84:260,1,100,0|8
364,188,113651,2,0,B|412:204|428:260,1,100
256,192,114010,1,0
192,100,114190,2,0,B|148:76|96:84,1,100,8|0
256,296,114549,5,2
416,84,114729,1,2
416,84,114819,1,0
416,84,114909,2,0,B|364:76|320:100,1,100,2|0
256,192,115268,2,0,B|256:242,2,50
348,256,115627,2,0,B|432:308,1,100,2|0
164,256,115986,6,0,B|80:308,1,100,4|0
256,192,116346,2,0,B|180:128,1,100,8|0
100,52,116705,1,0
8,112,116885,1,0
104,164,117064,1,8
368,44,117244,5,2
272,96,117424,1,0
444,260,117603,1,2
392,164,117783,1,8
192,308,117962,2,0,B|236:336|288:328,1,100,2|2
199,183,118322,2,0,B|155:155|103:163,1,100,2|8
64,264,118681,1,0
392,164,118861,6,0,B|316:232,1,100
87,68,119220,2,0,B|75:120|103:164,1,100,8|0
412,52,119579,2,0,B|364:28|312:36,1,100
236,116,119939,1,8
344,324,120118,6,0,B|388:296|408:248,1,100,2|0
168,324,120477,2,0,B|124:296|104:248,1,100,0|10
332,104,120837,2,0,B|328:204|240:276,1,200,2|0
112,80,121376,2,0,B|80:40,2,50,8|0|0
212,124,121735,1,0
448,108,121915,1,0
324,20,122094,1,8
348,212,122274,2,0,B|388:244|444:236,1,100
212,124,122633,2,0,B|136:188,1,100,0|8
60,268,122992,5,2
260,328,123172,1,0
176,256,123352,1,0
372,316,123531,2,0,B|420:300|448:252,1,100,10|2
212,124,123891,1,0
352,152,124070,1,2
168,24,124250,2,0,B|116:34|102:93,1,100,10|0
409,93,124609,6,0,B|395:34|344:24,1,100,4|2
256,192,124968,2,0,B|256:292,1,100,0|2
352,152,125328,1,2
144,288,125507,1,0
368,288,125687,1,2
160,152,125867,1,2
352,152,126046,6,0,B|380:112|380:112|364:64,1,100,4|0
160,152,126406,2,0,B|132:112|132:112|148:64,1,100
256,192,126765,1,2
144,288,126945,1,0
368,288,127124,1,2
368,288,127483,6,0,B|352:340|312:368,1,100,4|2
144,288,127843,2,0,B|156:340|200:368,1,100,0|2
256,192,128202,1,0
352,76,128382,1,0
160,76,128561,1,0
440,212,128741,6,0,B|352:160,1,100,6|0
72,212,129100,2,0,B|160:160,1,100,2|0
256,56,129459,2,0,B|256:156,1,100,6|0
256,268,129819,1,2
152,328,129998,1,2
360,328,130178,1,2
360,328,130537,5,2
424,112,130717,1,4
152,328,131076,5,2
88,112,131256,1,4
256,192,131615,12,0,132693
