osu file format v12

[General]
AudioFilename: KOTOKO - Teller of World.mp3
AudioLeadIn: 1500
PreviewTime: 73708
Countdown: 0
SampleSet: Soft
StackLeniency: 0.7
Mode: 0
LetterboxInBreaks: 0

[Editor]
DistanceSpacing: 1.5
BeatDivisor: 4
GridSize: 4

[Metadata]
Title:Teller of World
TitleUnicode:Teller of World
Artist:KOTOKO
ArtistUnicode:KOTOKO
Creator:DarknessAngel
Version:L18
Source:Yumeiro Alouette
Tags:visual novel Eroge opening Loneight l1106188 Gamu mana ゆめいろアルエット!
BeatmapID:257705
BeatmapSetID:95981

[Difficulty]
HPDrainRate:5
CircleSize:4
OverallDifficulty:6
ApproachRate:8
SliderMultiplier:2
SliderTickRate:2

[Events]
//Background and Video events
Video,0,"Video.flv"
0,0,"5.jpg",0,0
//Break Periods
2,103464,116736
2,117686,130958
//Storyboard Layer 0 (Background)
//Storyboard Layer 1 (Fail)
//Storyboard Layer 2 (Pass)
//Storyboard Layer 3 (Foreground)
//Storyboard Sound Samples
Sample,80597,0,"Normal-hitclap.wav",60
Sample,85930,0,"Normal-hitclap.wav",60
Sample,151708,0,"Normal-hitclap.wav",60
Sample,157041,0,"Normal-hitclap.wav",60
//Background Colour Transformations
3,100,163,162,255

[TimingPoints]
153,444.444444444444,4,2,1,40,1,0
153,-125,4,2,1,40,0,0
1930,-100,4,2,1,40,0,0
2152,-100,4,2,1,5,0,0
2264,-111.111111111111,4,2,1,40,0,0
2486,-111.111111111111,4,2,1,5,0,0
2597,-125,4,2,1,40,0,0
5486,-100,4,2,1,40,0,0
5819,-111.111111111111,4,2,1,40,0,0
6041,-111.111111111111,4,2,1,5,0,0
6152,-125,4,2,1,40,0,0
7041,-125,4,2,1,40,0,0
7264,-125,4,2,1,5,0,0
7486,-125,4,2,1,40,0,0
7708,-200,4,2,1,40,0,0
7930,-125,4,2,1,5,0,0
9041,-125,4,2,1,40,0,0
10930,-125,4,2,1,5,0,0
11041,-200,4,2,1,40,0,0
11264,-125,4,2,1,5,0,0
11930,-125,4,2,1,40,0,0
12819,-125,4,2,1,5,0,0
17041,-125,4,2,1,55,0,0
17930,-100,4,1,0,40,0,0
17986,-100,4,2,1,70,0,0
32152,-100,4,2,2,70,0,0
32597,-100,4,2,1,50,0,0
39041,-100,4,1,0,35,0,0
39708,-100,4,2,1,50,0,0
45486,-100,4,2,1,60,0,0
46375,-100,4,2,2,60,0,0
46486,-100,4,2,1,60,0,0
53264,-100,4,1,0,40,0,0
53708,-100,4,2,1,60,0,0
60597,-100,4,2,2,65,0,0
60708,-100,4,2,1,65,0,0
66819,-100,4,1,1,45,0,0
67930,-100,4,2,1,65,0,0
70375,-100,4,1,0,30,0,0
70597,-100,4,2,1,65,0,0
72375,-100,4,1,1,45,0,0
72597,-100,4,1,1,65,0,0
72819,-100,4,2,2,70,0,0
73708,-100,4,2,1,70,0,0
73930,-100,4,1,1,50,0,0
74041,-100,4,2,1,70,0,0
74375,-100,4,1,1,50,0,0
74819,-71.4285714285714,4,1,1,50,0,1
75041,-76.9230769230769,4,2,1,70,0,1
75264,-83.3333333333333,4,1,1,70,0,1
75375,-83.3333333333333,4,2,1,70,0,1
75708,-83.3333333333333,4,1,1,50,0,1
75819,-83.3333333333333,4,2,1,70,0,1
76152,-83.3333333333333,4,1,1,70,0,1
76264,-83.3333333333333,4,2,1,70,0,1
76597,-83.3333333333333,4,1,1,50,0,1
76708,-83.3333333333333,4,2,1,70,0,1
77041,-83.3333333333333,4,1,1,70,0,1
77152,-83.3333333333333,4,2,1,70,0,1
77486,-83.3333333333333,4,1,1,50,0,1
77597,-83.3333333333333,4,2,1,70,0,1
77930,-83.3333333333333,4,1,1,70,0,1
78041,-83.3333333333333,4,2,1,70,0,1
78375,-83.3333333333333,4,1,1,50,0,1
78486,-83.3333333333333,4,2,1,70,0,1
78819,-83.3333333333333,4,1,1,70,0,1
78930,-83.3333333333333,4,2,1,70,0,1
79264,-83.3333333333333,4,1,1,50,0,1
79375,-83.3333333333333,4,2,1,70,0,1
79708,-83.3333333333333,4,1,1,70,0,1
79930,-71.4285714285714,4,2,1,70,0,1
80152,-71.4285714285714,4,1,1,50,0,1
80264,-83.3333333333333,4,2,1,70,0,1
80597,-83.3333333333333,4,1,1,50,0,1
80708,-100,4,2,1,70,0,1
81041,-100,4,1,1,50,0,1
81152,-83.3333333333333,4,2,1,70,0,1
81486,-83.3333333333333,4,1,1,70,0,1
81597,-83.3333333333333,4,1,1,50,0,1
82041,-83.3333333333333,4,2,1,70,0,1
82375,-83.3333333333333,4,1,1,70,0,1
82486,-83.3333333333333,4,2,1,70,0,1
82819,-83.3333333333333,4,1,1,50,0,1
82930,-83.3333333333333,4,2,1,70,0,1
83264,-83.3333333333333,4,1,1,70,0,1
83375,-83.3333333333333,4,2,1,70,0,1
83708,-83.3333333333333,4,1,1,50,0,1
83819,-83.3333333333333,4,2,1,70,0,1
84152,-83.3333333333333,4,1,1,70,0,1
84264,-83.3333333333333,4,2,1,70,0,1
84597,-83.3333333333333,4,1,1,50,0,1
84708,-83.3333333333333,4,2,1,70,0,1
85041,-83.3333333333333,4,1,1,50,0,1
85264,-71.4285714285714,4,2,2,70,0,1
85486,-71.4285714285714,4,1,1,50,0,1
85597,-83.3333333333333,4,2,2,70,0,1
85930,-83.3333333333333,4,1,1,50,0,1
86041,-100,4,2,2,70,0,1
86375,-100,4,1,1,50,0,1
86486,-83.3333333333333,4,2,2,70,0,1
86819,-83.3333333333333,4,1,1,70,0,1
87041,-83.3333333333333,4,1,1,50,0,1
87708,-83.3333333333333,4,1,1,70,0,1
87930,-83.3333333333333,4,1,1,50,0,0
88041,-83.3333333333333,4,2,1,70,0,0
88375,-83.3333333333333,4,1,1,50,0,0
88597,-83.3333333333333,4,1,1,70,0,0
88708,-83.3333333333333,4,1,1,50,0,0
89041,-71.4285714285714,4,1,1,70,0,1
89152,-76.9230769230769,4,2,1,70,0,1
89486,-83.3333333333333,4,1,1,70,0,1
89597,-83.3333333333333,4,2,1,70,0,1
89930,-83.3333333333333,4,1,1,50,0,1
90041,-83.3333333333333,4,2,1,70,0,1
90375,-83.3333333333333,4,1,1,70,0,1
90486,-83.3333333333333,4,2,1,70,0,1
90819,-83.3333333333333,4,1,1,50,0,1
90930,-83.3333333333333,4,2,1,70,0,1
91264,-83.3333333333333,4,1,1,70,0,1
91375,-83.3333333333333,4,2,1,70,0,1
91708,-83.3333333333333,4,1,1,50,0,1
91819,-83.3333333333333,4,2,1,70,0,1
92152,-83.3333333333333,4,1,1,70,0,1
92264,-83.3333333333333,4,2,1,70,0,1
92597,-71.4285714285714,4,1,1,50,0,1
92708,-71.4285714285714,4,2,1,70,0,1
92930,-76.9230769230769,4,2,1,70,0,1
93041,-83.3333333333333,4,1,1,70,0,1
93152,-83.3333333333333,4,2,1,70,0,1
93486,-83.3333333333333,4,1,1,50,0,1
93597,-83.3333333333333,4,2,1,70,0,1
93930,-83.3333333333333,4,1,1,70,0,1
94041,-83.3333333333333,4,2,1,70,0,1
94819,-83.3333333333333,4,1,1,70,0,1
94930,-83.3333333333333,4,2,1,70,0,1
95708,-83.3333333333333,4,1,1,70,0,1
95819,-83.3333333333333,4,1,1,50,0,1
96597,-83.3333333333333,4,1,1,70,0,1
96708,-83.3333333333333,4,2,1,70,0,1
97041,-83.3333333333333,4,1,1,50,0,1
97152,-83.3333333333333,4,2,1,70,0,1
97486,-83.3333333333333,4,1,1,70,0,1
97597,-83.3333333333333,4,2,1,70,0,1
98375,-83.3333333333333,4,1,1,70,0,1
98486,-83.3333333333333,4,2,1,70,0,1
98819,-83.3333333333333,4,1,1,50,0,1
98930,-83.3333333333333,4,2,1,70,0,1
99264,-83.3333333333333,4,1,1,70,0,1
99375,-83.3333333333333,4,2,1,70,0,1
99708,-83.3333333333333,4,1,1,50,0,1
100152,-83.3333333333333,4,1,1,70,0,1
100375,-83.3333333333333,4,1,1,50,0,1
101041,-83.3333333333333,4,1,1,70,0,1
101264,-83.3333333333333,4,1,1,50,0,1
101486,-83.3333333333333,4,2,1,50,0,1
101708,-83.3333333333333,4,1,1,50,0,1
102152,-83.3333333333333,4,1,2,40,0,1
103264,-100,4,1,1,50,0,0
131819,-100,4,2,1,40,0,0
134375,-100,4,2,1,10,0,0
134597,-100,4,2,1,60,0,0
135264,-90.9090909090909,4,1,1,50,0,0
135486,-90.9090909090909,4,2,1,50,0,0
135930,-100,4,1,1,50,0,0
136152,-100,4,2,1,50,0,0
136819,-111.111111111111,4,1,1,50,0,0
137041,-111.111111111111,4,2,1,50,0,0
137708,-125,4,1,1,50,0,0
137930,-125,4,2,1,50,0,0
138264,-100,4,1,1,50,0,0
138819,-100,4,2,2,70,0,0
139041,-100,4,2,1,60,0,0
143486,-100,4,1,1,40,0,0
143708,-100,4,1,1,60,0,0
143930,-100,4,2,2,70,0,0
144819,-100,4,2,1,70,0,0
145041,-100,4,1,1,50,0,0
145152,-100,4,2,1,70,0,0
145486,-100,4,1,1,50,0,0
145930,-71.4285714285714,4,1,1,50,0,1
146152,-76.9230769230769,4,2,1,70,0,1
146375,-83.3333333333333,4,1,1,70,0,1
146486,-83.3333333333333,4,2,1,70,0,1
146819,-83.3333333333333,4,1,1,50,0,1
146930,-83.3333333333333,4,2,1,70,0,1
147264,-83.3333333333333,4,1,1,70,0,1
147375,-83.3333333333333,4,2,1,70,0,1
147708,-83.3333333333333,4,1,1,50,0,1
147819,-83.3333333333333,4,2,1,70,0,1
148152,-83.3333333333333,4,1,1,70,0,1
148264,-83.3333333333333,4,2,1,70,0,1
148597,-83.3333333333333,4,1,1,50,0,1
148708,-83.3333333333333,4,2,1,70,0,1
149041,-83.3333333333333,4,1,1,70,0,1
149152,-83.3333333333333,4,2,1,70,0,1
149486,-83.3333333333333,4,1,1,50,0,1
149597,-83.3333333333333,4,2,1,70,0,1
149930,-83.3333333333333,4,1,1,70,0,1
150041,-83.3333333333333,4,2,1,70,0,1
150375,-83.3333333333333,4,1,1,50,0,1
150486,-83.3333333333333,4,2,1,70,0,1
150819,-83.3333333333333,4,1,1,70,0,1
151041,-71.4285714285714,4,2,1,70,0,1
151264,-83.3333333333333,4,1,1,50,0,1
151375,-83.3333333333333,4,2,1,70,0,1
151708,-83.3333333333333,4,1,1,70,0,1
151819,-100,4,2,1,70,0,1
152152,-83.3333333333333,4,1,1,50,0,1
152264,-83.3333333333333,4,2,1,70,0,1
152597,-83.3333333333333,4,1,1,70,0,1
152708,-83.3333333333333,4,1,1,50,0,1
153152,-83.3333333333333,4,2,1,70,0,1
153486,-83.3333333333333,4,1,1,70,0,1
153597,-83.3333333333333,4,2,1,70,0,1
153930,-83.3333333333333,4,1,1,50,0,1
154041,-83.3333333333333,4,2,1,70,0,1
154375,-83.3333333333333,4,1,1,70,0,1
154486,-83.3333333333333,4,2,1,70,0,1
155264,-83.3333333333333,4,1,1,70,0,1
155375,-83.3333333333333,4,2,1,70,0,1
156152,-83.3333333333333,4,1,1,70,0,1
156375,-71.4285714285714,4,2,2,70,0,1
156597,-83.3333333333333,4,1,1,50,0,1
156708,-83.3333333333333,4,2,2,70,0,1
157041,-83.3333333333333,4,1,1,70,0,1
157152,-100,4,2,2,70,0,1
157486,-100,4,1,1,50,0,1
157597,-83.3333333333333,4,2,1,70,0,1
157930,-83.3333333333333,4,1,1,70,0,1
158041,-83.3333333333333,4,1,1,50,0,1
158375,-83.3333333333333,4,2,1,50,0,1
158486,-83.3333333333333,4,1,1,50,0,1
158819,-83.3333333333333,4,1,1,70,0,1
159041,-83.3333333333333,4,1,1,50,0,0
159264,-83.3333333333333,4,2,1,50,0,0
159375,-83.3333333333333,4,1,1,50,0,0
159708,-83.3333333333333,4,1,1,70,0,0
159819,-83.3333333333333,4,1,1,50,0,0
160152,-71.4285714285714,4,1,1,70,0,1
160264,-76.9230769230769,4,2,1,70,0,1
160597,-76.9230769230769,4,1,1,70,0,1
160708,-83.3333333333333,4,2,1,70,0,1
161041,-83.3333333333333,4,1,1,50,0,1
161152,-83.3333333333333,4,2,1,70,0,1
161486,-83.3333333333333,4,1,1,70,0,1
161597,-83.3333333333333,4,2,1,70,0,1
161930,-83.3333333333333,4,1,1,50,0,1
162041,-83.3333333333333,4,2,1,70,0,1
162375,-83.3333333333333,4,1,1,70,0,1
162486,-83.3333333333333,4,2,1,70,0,1
162819,-83.3333333333333,4,1,1,50,0,1
162930,-83.3333333333333,4,2,1,70,0,1
163264,-83.3333333333333,4,1,1,70,0,1
163375,-83.3333333333333,4,2,1,70,0,1
163708,-71.4285714285714,4,1,1,50,0,1
163930,-76.9230769230769,4,2,1,70,0,1
164152,-83.3333333333333,4,1,1,70,0,1
164264,-83.3333333333333,4,2,1,70,0,1
164597,-83.3333333333333,4,1,1,50,0,1
164708,-83.3333333333333,4,2,1,70,0,1
165041,-83.3333333333333,4,1,1,70,0,1
165152,-83.3333333333333,4,2,1,70,0,1
165930,-83.3333333333333,4,1,1,70,0,1
166041,-83.3333333333333,4,2,1,70,0,1
166819,-83.3333333333333,4,1,1,70,0,1
166930,-83.3333333333333,4,2,1,70,0,1
167264,-83.3333333333333,4,1,1,50,0,1
167375,-83.3333333333333,4,2,1,70,0,1
167708,-83.3333333333333,4,1,1,70,0,1
167819,-83.3333333333333,4,2,1,70,0,1
168152,-83.3333333333333,4,1,1,50,0,1
168264,-83.3333333333333,4,2,1,70,0,1
168597,-83.3333333333333,4,1,1,70,0,1
168708,-83.3333333333333,4,2,1,70,0,1
169486,-83.3333333333333,4,1,1,70,0,1
169597,-83.3333333333333,4,2,1,70,0,1
170375,-83.3333333333333,4,1,1,70,0,1
170486,-83.3333333333333,4,2,1,70,0,1
170819,-83.3333333333333,4,1,1,50,0,1
171264,-83.3333333333333,4,1,1,70,0,1
171486,-83.3333333333333,4,1,1,50,0,1
172152,-83.3333333333333,4,1,1,70,0,1
172375,-83.3333333333333,4,1,1,40,0,1
173041,-83.3333333333333,4,1,1,60,0,1
173152,-83.3333333333333,4,1,1,40,0,1
173486,-83.3333333333333,4,1,1,50,0,1
173930,-83.3333333333333,4,1,1,60,0,1
174375,-133.333333333333,4,1,1,60,0,0
175041,-133.333333333333,4,2,1,50,0,0
175930,-133.333333333333,4,2,1,5,0,0
176597,-133.333333333333,4,2,1,50,0,0
178152,-133.333333333333,4,2,1,5,0,0
178597,-133.333333333333,4,2,1,50,0,0
179708,-133.333333333333,4,2,1,5,0,0
180152,-133.333333333333,4,2,1,50,0,0
181708,-133.333333333333,4,2,1,5,0,0
182152,-133.333333333333,4,2,1,50,0,0
182375,-133.333333333333,4,2,1,5,0,0
182819,-133.333333333333,4,2,1,50,0,0
184152,-133.333333333333,4,2,1,5,0,0
184597,-133.333333333333,4,2,1,50,0,0
185264,-133.333333333333,4,2,1,5,0,0
185708,-133.333333333333,4,2,1,50,0,0
185819,-133.333333333333,4,2,1,30,0,0
186819,-133.333333333333,4,2,1,10,0,0
188597,-133.333333333333,4,2,1,5,0,0

[Colours]
Combo1 : 255,255,38
Combo2 : 223,223,223
Combo3 : 95,252,228
Combo4 : 191,128,255
Combo5 : 255,255,104
Combo6 : 232,0,0
Combo7 : 15,255,255
Combo8 : 138,21,255

[HitObjects]
176,216,819,1,0,0:0:0:0:
156,136,1041,2,0,P|184:116|244:120,1,80,2|0,0:0|0:0,0:0:0:0:
100,80,1486,2,0,P|80:112|80:160,1,80,0|2,0:0|0:0,0:0:0:0:
192,32,1930,6,0,P|240:32|296:68,1,100,2|0,0:0|0:0,0:0:0:0:
296,136,2264,2,0,P|344:160|400:156,1,89.9999972534181,2|0,0:0|0:0,0:0:0:0:
448,120,2597,1,0,0:0:0:0:
324,64,2819,2,0,P|280:60|236:84,1,80,2|0,0:0|0:0,0:0:0:0:
268,208,3264,2,0,P|312:212|356:188,1,80,0|2,0:0|0:0,0:0:0:0:
296,136,3708,5,0,0:0:0:0:
188,248,3930,1,2,0:0:0:0:
192,256,4375,1,0,0:0:0:0:
260,296,4597,2,0,P|300:300|364:288,1,80,2|0,0:0|0:0,0:0:0:0:
192,256,5041,2,0,P|152:252|88:264,1,80,0|2,0:0|0:0,0:0:0:0:
196,168,5486,6,0,P|160:164|84:176,1,100,2|0,0:0|0:0,0:0:0:0:
36,228,5819,2,0,P|16:184|28:128,1,89.9999972534181,2|0,0:0|0:0,0:0:0:0:
84,92,6152,1,0,0:0:0:0:
196,168,6375,1,2,0:0:0:0:
72,224,6597,1,0,0:0:0:0:
100,92,6819,1,2,0:0:0:0:
208,176,7041,70,0,P|268:196|308:184,1,80,2|0,0:0|0:0,0:0:0:0:
396,152,7486,1,2,0:0:0:0:
276,84,7708,2,0,B|240:128|264:200|264:200|288:268|240:320,1,250
241,318,9708,5,0,0:0:0:0:
148,288,9930,1,2,0:0:0:0:
272,300,10152,1,0,0:0:0:0:
140,256,10375,1,2,0:0:0:0:
168,380,10597,6,0,P|88:364|56:320,1,120,2|0,0:0|0:0,0:0:0:0:
40,264,11041,2,0,P|72:184|136:156,1,150,2|0,0:0|0:0,0:0:0:0:
248,192,11930,1,2,0:0:0:0:
168,92,12152,1,0,0:0:0:0:
172,216,12375,1,2,0:0:0:0:
244,112,12597,1,2,0:0:0:0:
256,192,12708,12,0,14152,0:0:0:0:
256,192,14264,12,0,16152,0:0:0:0:
160,202,17041,85,2,0:0:0:0:
202,252,17264,5,2,0:0:0:0:
232,288,17486,5,2,0:0:0:0:
253,313,17708,5,2,0:0:0:0:
332,176,17930,70,0,P|384:156|444:172,1,100,4|4,0:0|0:0,0:0:0:0:
388,240,18375,2,0,P|340:260|280:244,1,100,8|2,0:0|0:0,0:0:0:0:
368,88,18819,2,0,P|359:143|315:186,1,100,0|4,0:0|0:0,0:0:0:0:
275,98,19264,2,0,P|323:78|379:94,1,100,8|0,0:0|0:0,0:0:0:0:
275,97,19708,6,0,L|151:69,1,100,2|4,0:0|0:0,0:0:0:0:
132,176,20152,2,0,L|8:188,1,100,8|2,0:0|0:0,0:0:0:0:
0,188,20819,1,4,0:0:0:0:
0,189,21041,2,0,L|117:179,1,100,8|2,0:0|0:0,0:0:0:0:
68,276,21486,6,0,L|165:253,1,100,2|4,0:0|0:0,0:0:0:0:
176,256,21930,1,8,0:0:0:0:
301,347,22152,2,0,P|337:251|297:143,1,200,2|2,0:0|0:0,0:0:0:0:
217,199,22819,2,0,P|209:243|225:307,1,100,8|2,0:0|0:0,0:0:0:0:
330,246,23264,5,2,0:0:0:0:
334,234,23708,1,8,0:0:0:0:
320,120,23930,1,2,0:0:0:0:
324,112,24152,2,0,P|368:84|432:92,1,100,8|0,0:0|0:0,0:0:0:0:
288,184,24597,2,0,P|240:196|168:176,1,100,8|8,0:0|0:0,0:0:0:0:
236,84,25041,70,0,P|232:132|192:184,1,100,2|4,0:0|0:0,0:0:0:0:
116,184,25486,2,0,P|156:216|172:276,1,100,8|2,0:0|0:0,0:0:0:0:
28,160,25930,2,0,P|52:120|112:96,1,100,0|4,0:0|0:0,0:0:0:0:
116,184,26375,2,0,P|132:228|172:260,1,100,8|2,0:0|0:0,0:0:0:0:
116,184,26819,6,0,L|28:104,1,100,2|4,0:0|0:0,0:0:0:0:
44,16,27264,2,0,L|132:92,1,100,8|2,0:0|0:0,0:0:0:0:
60,64,27930,1,4,0:0:0:0:
68,72,28152,2,0,L|156:148,1,100,8|2,0:0|0:0,0:0:0:0:
264,268,28597,6,0,P|320:192|324:64,1,200,2|8,0:0|0:0,0:0:0:0:
176,36,29264,2,0,P|120:112|116:240,1,200,2|2,0:0|0:0,0:0:0:0:
212,204,29930,2,8,P|240:156|248:104,1,100,8|2,0:0|0:0,0:0:0:0:
264,268,30375,6,0,P|340:324|468:328,1,200,2|8,0:0|0:0,0:0:0:0:
500,184,31042,2,0,P|424:128|296:124,1,200,2|2,0:0|0:0,0:0:0:0:
328,216,31708,2,8,P|376:244|428:252,1,100,8|10,0:0|0:0,0:0:0:0:
260,144,32152,70,0,P|188:128|96:156,1,150,4|0,0:0|0:0,0:0:0:0:
52,188,32597,2,0,P|100:172|140:128,1,100,8|2,0:0|0:0,0:0:0:0:
48,88,33041,1,0,0:0:0:0:
16,264,33264,2,0,P|64:268|120:256,1,100,2|8,0:0|0:0,0:0:0:0:
16,264,33708,5,2,0:0:0:0:
20,276,33819,2,0,P|72:340|144:352,1,150,0|2,0:0|0:0,0:0:0:0:
220,264,34375,1,8,0:0:0:0:
228,256,34486,2,0,P|308:236|384:276,1,150,2|2,0:0|0:0,0:0:0:0:
296,332,35041,1,2,0:0:0:0:
180,236,35264,2,0,P|172:176|188:136,1,100,8|2,0:0|0:0,0:0:0:0:
319,93,35708,6,0,P|252:138|180:138,1,150,0|2,0:0|0:0,0:0:0:0:
156,128,36152,1,8,0:0:0:0:
184,16,36375,2,0,P|251:17|318:62,1,150,2|2,0:0|0:0,0:0:0:0:
348,104,36819,2,0,P|396:128|456:120,1,100,0|8,0:0|0:0,0:0:0:0:
348,104,37264,5,2,0:0:0:0:
336,96,37375,2,0,P|252:100|180:144,1,150,0|2,0:0|0:0,0:0:0:0:
116,252,37930,1,8,0:0:0:0:
152,268,38041,2,0,P|220:272|300:228,1,150,2|2,0:0|0:0,0:0:0:0:
184,140,38597,1,2,0:0:0:0:
96,96,38819,2,0,P|44:108|4:148,1,100,8|0,0:0|0:0,0:0:0:0:
116,252,39264,69,0,0:0:0:0:
136,260,39708,2,0,P|188:272|248:252,1,100,8|2,0:0|0:0,0:0:0:0:
316,160,40152,1,0,0:0:0:0:
184,140,40375,1,0,0:0:0:0:
176,136,40486,2,0,P|128:184|116:280,1,150,2|0,0:0|0:0,0:0:0:0:
152,328,40930,6,0,P|108:268|28:248,1,150,2|2,0:0|0:0,0:0:0:0:
152,328,41486,1,8,0:0:0:0:
176,336,41597,2,0,P|246:343|311:295,1,150,2|2,0:0|0:0,0:0:0:0:
256,144,42152,1,2,0:0:0:0:
224,242,42375,1,8,0:0:0:0:
336,144,42597,1,2,0:0:0:0:
188,104,42819,6,0,P|114:100|53:148,1,150
44,168,43264,1,8,0:0:0:0:
188,104,43486,2,0,P|144:48|56:12,1,150,2|0,0:0|0:0,0:0:0:0:
48,84,43930,2,0,P|76:120|136:148,1,100,2|8,0:0|0:0,0:0:0:0:
268,80,44375,1,2,0:0:0:0:
268,80,44597,5,0,0:0:0:0:
372,188,44819,1,2,0:0:0:0:
144,300,45152,1,2,0:0:0:0:
268,80,45486,2,0,P|336:44|428:48,1,150,2|0,0:0|0:0,0:0:0:0:
472,80,45930,2,0,P|432:72|372:24,1,100,8|8,0:0|0:0,0:0:0:0:
268,80,46375,70,0,P|208:88|164:60,1,100,6|4,0:0|0:0,0:0:0:0:
92,12,46819,2,0,P|36:20|-4:56,1,100,8|4,0:0|0:0,0:0:0:0:
56,188,47264,2,0,P|112:180|152:144,1,100,0|4,0:0|0:0,0:0:0:0:
188,64,47708,2,0,P|236:44|308:68,1,100,8|4,0:0|0:0,0:0:0:0:
256,224,48152,6,0,P|304:236|356:216,1,100,2|4,0:0|0:0,0:0:0:0:
290,80,48597,1,8,0:0:0:0:
272,76,48708,2,0,P|236:132|276:224,1,150,2|2,0:0|0:0,0:0:0:0:
356,220,49264,1,4,0:0:0:0:
384,180,49375,1,0,0:0:0:0:
408,136,49486,2,0,P|424:96|412:24,1,100,8|4,0:0|0:0,0:0:0:0:
384,180,49930,6,0,P|384:224|428:276,1,100,0|4,0:0|0:0,0:0:0:0:
504,316,50375,1,8,0:0:0:0:
312,344,50597,2,0,P|256:348|196:320,1,100,4|0,0:0|0:0,0:0:0:0:
184,188,51041,1,4,0:0:0:0:
320,248,51264,1,8,0:0:0:0:
215,335,51486,5,4,0:0:0:0:
208,340,51597,1,2,0:0:0:0:
112,308,51819,1,2,0:0:0:0:
72,280,51930,1,4,0:0:0:0:
52,236,52041,2,0,L|44:176,1,50,0|8,0:0|0:0,0:0:0:0:
116,52,52375,1,4,0:0:0:0:
208,32,52597,1,2,0:0:0:0:
100,144,52819,1,4,0:0:0:0:
184,188,53041,2,0,P|244:192|292:156,1,100,8|0,0:0|0:0,0:0:0:0:
324,40,53486,69,0,0:0:0:0:
324,40,53930,1,8,0:0:0:0:
436,56,54152,1,4,0:0:0:0:
464,176,54375,2,0,P|440:212|372:232,1,100,2|4,0:0|0:0,0:0:0:0:
320,164,54819,1,8,0:0:0:0:
332,288,55041,5,4,0:0:0:0:
320,296,55152,2,0,P|244:320|160:284,1,150,2|4,0:0|0:0,0:0:0:0:
136,208,55708,2,0,P|88:200|24:240,1,100,8|4,0:0|0:0,0:0:0:0:
28,320,56152,1,2,0:0:0:0:
28,200,56375,1,4,0:0:0:0:
48,88,56597,2,0,P|92:60|164:72,1,100,8|4,0:0|0:0,0:0:0:0:
272,160,57041,6,0,P|356:168|416:116,1,150,2|2,0:0|0:0,0:0:0:0:
444,68,57486,2,0,L|384:160,1,100,8|4,0:0|0:0,0:0:0:0:
272,160,57930,2,0,L|220:156,1,50,0|2,0:0|0:0,0:0:0:0:
228,308,58264,2,0,L|172:328,1,50,0|8,0:0|0:0,0:0:0:0:
84,308,58597,1,4,0:0:0:0:
120,112,58819,5,2,0:0:0:0:
84,308,59264,1,8,0:0:0:0:
280,348,59708,1,2,0:0:0:0:
316,152,60153,1,8,0:0:0:0:
312,144,60375,1,2,0:0:0:0:
276,340,60597,70,0,P|328:348|380:332,1,100,4|2,0:0|0:0,0:0:0:0:
436,256,61041,1,8,0:0:0:0:
320,244,61264,1,2,0:0:0:0:
184,308,61486,2,0,P|128:312|88:288,1,100,0|2,0:0|0:0,0:0:0:0:
40,208,61930,1,8,0:0:0:0:
156,216,62152,1,2,0:0:0:0:
300,256,62375,6,0,P|348:240|384:184,1,100,0|2,0:0|0:0,0:0:0:0:
376,80,62819,1,8,0:0:0:0:
260,140,63041,2,0,P|172:128|124:32,1,200,2|2,0:0|0:0,0:0:0:0:
228,44,63708,1,8,0:0:0:0:
184,232,63930,1,2,0:0:0:0:
88,200,64152,6,0,L|24:120,1,100,0|2,0:0|0:0,0:0:0:0:
36,24,64597,1,8,0:0:0:0:
188,76,64819,1,2,0:0:0:0:
184,232,65041,2,0,L|80:196,1,100,0|2,0:0|0:0,0:0:0:0:
20,128,65486,1,8,0:0:0:0:
116,84,65708,1,2,0:0:0:0:
276,92,65930,6,0,P|254:153|230:177,1,100,0|2,0:0|0:0,0:0:0:0:
128,184,66375,2,0,P|100:232|63:255,1,100,8|2,0:0|0:0,0:0:0:0:
231,177,66819,2,0,P|336:168|371:189,1,150
363,265,67264,2,0,P|375:312|411:345,1,100
371,189,67708,69,0,0:0:0:0:
364,184,67930,2,0,P|320:196|288:240,1,100,2|8,0:0|0:0,0:0:0:0:
244,328,68375,1,0,0:0:0:0:
132,284,68597,2,0,P|80:280|24:312,1,100,0|2,0:0|0:0,0:0:0:0:
196,329,69041,2,0,P|248:333|304:301,1,100,8|2,0:0|0:0,0:0:0:0:
152,204,69486,6,0,P|104:196|28:208,1,100,0|2,0:0|0:0,0:0:0:0:
39,207,69930,1,8,0:0:0:0:
232,200,70152,2,0,P|256:148|244:92,1,100,2|0,0:0|0:0,0:0:0:0:
168,48,70597,1,2,0:0:0:0:
92,136,70819,1,8,0:0:0:0:
112,276,71041,1,2,0:0:0:0:
256,276,71264,6,0,L|332:200,1,100,0|2,0:0|0:0,0:0:0:0:
332,200,71708,1,8,0:0:0:0:
236,296,71930,1,2,0:0:0:0:
236,296,72152,1,2,0:0:0:0:
380,328,72375,2,0,B|416:316,3,33.3333333333333
348,184,72819,6,0,P|248:144|144:168,1,200,4|4,0:0|0:0,0:0:0:0:
160,159,73708,5,2,0:0:0:0:
116,252,73930,1,8,0:0:0:0:
248,324,74152,1,2,0:0:0:0:
240,172,74375,1,0,0:0:0:0:
168,312,74597,1,0,0:0:0:0:
336,244,74819,6,0,P|368:176|352:112,1,139.999995727539,0|2,0:0|0:0,0:0:0:0:
280,144,75152,2,0,L|268:212,1,64.9999970245363,0|8,0:0|0:0,0:0:0:0:
248,324,75486,1,2,0:0:0:0:
116,252,75708,1,0,0:0:0:0:
240,172,75930,1,2,0:0:0:0:
168,312,76152,1,8,0:0:0:0:
92,180,76375,1,2,0:0:0:0:
240,172,76597,5,0,0:0:0:0:
92,268,76819,2,0,P|36:252|4:176,1,119.999996337891,2|8,0:0|0:0,0:0:0:0:
132,92,77264,1,2,0:0:0:0:
148,84,77486,2,0,L|264:32,1,119.999996337891,0|2,0:0|0:0,0:0:0:0:
92,108,77930,2,0,L|-16:56,1,119.999996337891,8|2,0:0|0:0,0:0:0:0:
148,84,78375,6,0,P|272:88|348:16,1,179.999994506836,0|2,0:0|0:0,0:0:0:0:
340,4,78819,1,8,0:0:0:0:
244,172,79041,2,0,P|308:208|416:188,1,179.999994506836,2|0,0:0|0:0,0:0:0:0:
456,152,79486,1,2,0:0:0:0:
336,96,79708,1,8,0:0:0:0:
216,168,79930,86,0,L|248:376,1,209.999993591309,2|0,0:0|0:0,0:0:0:0:
168,364,80375,2,0,L|140:186,1,179.999994506836,2|0,0:0|0:0,0:0:0:0:
64,212,80819,2,0,L|88:360,1,150,2|0,0:0|0:0,0:0:0:0:
88,360,81264,1,0,0:0:0:0:
64,212,81486,2,0,P|68:168|128:120,1,119.999996337891,8|0,0:0|0:0,0:0:0:0:
256,212,81930,6,0,P|360:216|460:124,1,239.999992675781,0|8,0:0|0:0,0:0:0:0:
316,64,82597,1,2,0:0:0:0:
228,140,82819,2,0,P|148:156|60:96,1,179.999994506836,0|0,0:0|0:0,0:0:0:0:
56,48,83264,1,8,0:0:0:0:
228,140,83486,6,0,P|248:256|184:332,1,179.999994506836,2|0,0:0|0:0,0:0:0:0:
164,360,83930,2,0,P|188:304|244:276,1,119.999996337891,2|8,0:0|0:0,0:0:0:0:
56,304,84375,2,0,P|36:188|100:112,1,179.999994506836,2|0,0:0|0:0,0:0:0:0:
136,108,84819,2,0,P|96:156|24:172,1,119.999996337891,2|12,0:0|0:0,0:0:0:0:
108,36,85264,86,0,P|184:24|320:76,1,209.999993591309,4|0,0:0|0:0,0:0:0:0:
120,72,85708,2,0,P|44:156|32:244,1,179.999994506836,2|0,0:0|0:0,0:0:0:0:
136,108,86152,2,0,P|208:108|280:148,1,150,4|0,0:0|0:0,0:0:0:0:
148,144,86597,2,0,P|116:188|116:264,1,119.999996337891,2|8,0:0|0:0,0:0:0:0:
260,224,87041,5,4,0:0:0:0:
268,216,87486,1,0,0:0:0:0:
288,108,87708,1,8,0:0:0:0:
148,192,87930,85,0,0:0:0:0:
116,108,88152,2,0,P|124:52|176:-8,1,119.999996337891,2|0,0:0|0:0,0:0:0:0:
120,156,88597,2,0,P|68:192|4:188,1,119.999996337891,8|0,0:0|0:0,0:0:0:0:
116,108,89041,6,0,P|176:80|272:120,1,139.999995727539,4|2,0:0|0:0,0:0:0:0:
296,156,89375,2,0,P|316:132|324:92,1,64.9999970245363,0|8,0:0|0:0,0:0:0:0:
220,168,89708,1,2,0:0:0:0:
368,212,89930,2,0,P|404:160|412:88,1,119.999996337891,0|2,0:0|0:0,0:0:0:0:
296,156,90375,1,8,0:0:0:0:
360,320,90597,1,2,0:0:0:0:
472,200,90819,2,0,P|488:144|480:68,1,119.999996337891,0|2,0:0|0:0,0:0:0:0:
372,36,91264,5,8,0:0:0:0:
372,36,91486,1,2,0:0:0:0:
272,48,91708,2,0,P|240:96|240:160,1,119.999996337891,0|2,0:0|0:0,0:0:0:0:
152,40,92152,2,0,P|76:32|24:68,1,119.999996337891,8|2,0:0|0:0,0:0:0:0:
52,208,92597,6,0,P|116:216|192:184,1,139.999995727539,0|2,0:0|0:0,0:0:0:0:
204,112,92930,2,0,P|236:128|264:168,1,64.9999970245363,0|8,0:0|0:0,0:0:0:0:
268,264,93264,1,2,0:0:0:0:
204,112,93486,2,0,P|232:56|312:32,1,119.999996337891,0|2,0:0|0:0,0:0:0:0:
248,184,93930,86,0,P|196:196|128:156,1,119.999996337891,8|2,0:0|0:0,0:0:0:0:
136,164,94597,1,2,0:0:0:0:
268,264,94819,2,0,P|312:236|324:148,1,119.999996337891,8|2,0:0|0:0,0:0:0:0:
328,168,95486,1,2,0:0:0:0:
292,332,95709,2,0,P|336:364|408:360,1,119.999996337891,8|0,0:0|0:0,0:0:0:0:
472,212,96152,5,0,0:0:0:0:
356,4,96597,1,8,0:0:0:0:
408,112,96819,1,2,0:0:0:0:
296,104,97041,2,0,P|240:120|200:176,1,119.999996337891,0|2,0:0|0:0,0:0:0:0:
240,304,97486,1,8,0:0:0:0:
300,200,97708,5,2,0:0:0:0:
292,196,98152,2,0,P|232:184|172:204,1,119.999996337891,2|8,0:0|0:0,0:0:0:0:
112,72,98597,2,0,P|228:40|360:68,1,239.999992675781,2|2,0:0|0:0,0:0:0:0:
408,132,99264,1,8,0:0:0:0:
292,196,99486,1,2,0:0:0:0:
160,140,99708,85,0,0:0:0:0:
96,268,99930,1,0,0:0:0:0:
232,320,100152,1,8,0:0:0:0:
292,196,100375,1,0,0:0:0:0:
148,168,100597,1,0,0:0:0:0:
232,320,100819,1,0,0:0:0:0:
276,336,100930,1,0,0:0:0:0:
324,336,101041,1,8,0:0:0:0:
232,148,101264,6,0,P|140:124|44:168,1,179.999994506836,0|0,0:0|0:0,0:0:0:0:
24,220,101708,2,0,P|72:188|100:116,1,119.999996337891,0|8,0:0|0:0,0:0:0:0:
76,288,102152,2,0,L|88:328,2,39.9999987792969
104,256,102375,2,0,P|152:232|228:228,1,119.999996337891
232,148,102708,2,0,P|172:148|108:164,1,119.999996337891
104,256,103041,2,0,L|160:288,1,59.9999981689454
232,320,103264,69,8,0:0:0:0:
256,192,117486,101,4,0:0:0:0:
256,236,131708,101,8,0:0:0:0:
252,248,132152,2,0,P|212:284|160:288,1,100,2|0,0:0|0:0,0:0:0:0:
240,172,132597,2,0,P|312:152|424:196,1,200,2|0,0:0|0:0,0:0:0:0:
252,248,133264,2,0,P|176:220|204:104,1,200,2|0,0:0|0:0,0:0:0:0:
252,248,133930,2,0,P|152:264|64:208,1,200,2|0,0:0|0:0,0:0:0:0:
64,204,134597,5,2,0:0:0:0:
184,116,134819,1,0,0:0:0:0:
200,256,135041,1,2,0:0:0:0:
92,120,135264,70,0,P|144:32|252:52,1,220.000006713867,2|0,0:0|0:0,0:0:0:0:
208,236,135930,6,0,P|140:276|12:268,1,200,2|0,0:0|0:0,0:0:0:0:
216,260,136819,6,0,P|312:320|408:316,1,179.999994506836,2|0,0:0|0:0,0:0:0:0:
224,284,137708,6,0,P|160:344|44:336,1,200,2|0,0:0|0:0,0:0:0:0:
72,268,138375,2,0,P|112:244|176:240,1,100
300,328,138819,6,0,P|352:332|412:300,1,100,4|2,0:0|0:0,0:0:0:0:
384,212,139264,2,0,P|332:208|268:236,1,100,8|2,0:0|0:0,0:0:0:0:
216,356,139708,1,0,0:0:0:0:
140,228,139930,1,2,0:0:0:0:
288,224,140152,1,8,0:0:0:0:
136,316,140375,70,0,P|72:288|76:160,1,200,2|2,0:0|0:0,0:0:0:0:
72,164,141041,2,0,P|92:120|80:44,1,100,8|2,0:0|0:0,0:0:0:0:
91,70,141708,2,0,P|119:109|190:136,1,100,2|8,0:0|0:0,0:0:0:0:
252,88,142152,1,2,0:0:0:0:
408,72,142375,22,0,P|448:136|440:236,1,150,2|0,0:0|0:0,0:0:0:0:
376,228,142819,2,0,P|336:164|344:64,1,150,8|0,0:0|0:0,0:0:0:0:
408,72,143264,1,2,0:0:0:0:
392,244,143486,2,0,L|344:268,3,33.3333333333333,0|0|0|0,0:0|0:0|0:0|0:0,0:0:0:0:
308,108,143930,2,0,P|376:92|488:160,1,200,4|4,0:0|0:0,0:0:0:0:
224,176,144819,21,0,0:0:0:0:
204,80,145041,2,0,P|224:40|304:8,1,100,8|2,0:0|0:0,0:0:0:0:
204,128,145486,2,0,P|156:160|84:144,1,100,8|0,0:0|0:0,0:0:0:0:
296,104,145930,6,0,P|364:112|424:164,1,139.999995727539,4|2,0:0|0:0,0:0:0:0:
412,232,146264,2,0,P|444:228|480:200,1,64.9999970245363,0|8,0:0|0:0,0:0:0:0:
320,212,146597,1,2,0:0:0:0:
420,332,146819,2,0,P|488:320|536:288,1,119.999996337891,0|2,0:0|0:0,0:0:0:0:
348,292,147264,2,0,P|288:312|244:364,1,119.999996337891,8|2,0:0|0:0,0:0:0:0:
420,332,147708,5,0,0:0:0:0:
320,212,147930,2,0,P|264:228|200:276,1,119.999996337891,2|8,0:0|0:0,0:0:0:0:
184,380,148375,1,2,0:0:0:0:
96,284,148597,2,0,P|60:232|64:160,1,119.999996337891,0|2,0:0|0:0,0:0:0:0:
247,75,149041,2,0,P|180:64|128:76,1,119.999996337891,8|2,0:0|0:0,0:0:0:0:
192,240,149486,6,0,P|276:256|368:188,1,179.999994506836
368,132,149930,1,8,0:0:0:0:
180,152,150152,2,0,P|112:200|148:320,1,179.999994506836,2|0,0:0|0:0,0:0:0:0:
180,336,150597,1,2,0:0:0:0:
180,336,150819,1,8,0:0:0:0:
180,152,151041,86,0,L|-4:44,1,209.999993591309,2|0,0:0|0:0,0:0:0:0:
80,8,151486,2,0,L|248:104,1,179.999994506836,2|0,0:0|0:0,0:0:0:0:
160,160,151930,2,0,B|20:76,1,150,2|0,0:0|0:0,0:0:0:0:
80,8,152375,1,2,0:0:0:0:
160,160,152597,2,0,P|140:224|88:256,1,119.999996337891,8|0,0:0|0:0,0:0:0:0:
116,88,153041,5,0,0:0:0:0:
124,84,153486,1,8,0:0:0:0:
232,132,153708,1,2,0:0:0:0:
256,300,153930,2,0,P|324:280|368:224,1,119.999996337891,0|2,0:0|0:0,0:0:0:0:
232,132,154375,2,0,P|180:144|124:212,1,119.999996337891,8|2,0:0|0:0,0:0:0:0:
128,200,155041,5,2,0:0:0:0:
144,320,155264,1,8,0:0:0:0:
240,248,155486,1,2,0:0:0:0:
244,240,155930,2,0,P|256:184|220:120,1,119.999996337891,2|8,0:0|0:0,0:0:0:0:
64,112,156375,86,0,P|24:184|80:296,1,209.999993591309,4|0,0:0|0:0,0:0:0:0:
128,200,156819,2,0,P|232:160|344:196,1,179.999994506836,2|0,0:0|0:0,0:0:0:0:
376,272,157264,2,0,P|320:292|216:280,1,150,4|0,0:0|0:0,0:0:0:0:
298,171,157708,2,0,P|352:152|434:155,1,119.999996337891,2|0,0:0|0:0,0:0:0:0:
288,48,158152,6,0,P|196:40|56:108,1,239.999992675781,4|0,0:0|0:0,0:0:0:0:
48,220,158819,1,8,0:0:0:0:
196,168,159041,86,0,P|280:188|344:280,1,179.999994506836
332,316,159486,1,0,0:0:0:0:
212,300,159708,1,8,0:0:0:0:
196,168,159930,1,0,0:0:0:0:
308,120,160152,6,0,P|376:112|448:132,1,139.999995727539,4|2,0:0|0:0,0:0:0:0:
400,196,160486,2,0,P|360:196|324:188,1,64.9999970245363,0|8,0:0|0:0,0:0:0:0:
232,96,160819,1,2,0:0:0:0:
64,116,161041,2,0,P|48:168|84:252,1,119.999996337891,0|2,0:0|0:0,0:0:0:0:
136,76,161486,2,0,P|72:32|16:48,1,119.999996337891,8|2,0:0|0:0,0:0:0:0:
136,172,161930,5,0,0:0:0:0:
292,228,162152,2,0,P|308:176|272:92,1,119.999996337891,2|8,0:0|0:0,0:0:0:0:
208,232,162597,1,2,0:0:0:0:
336,300,162819,2,0,P|376:240|388:176,1,119.999996337891,0|2,0:0|0:0,0:0:0:0:
387,195,163264,2,0,P|418:259|468:302,1,119.999996337891,8|2,0:0|0:0,0:0:0:0:
444,116,163708,6,0,P|364:100|296:148,1,139.999995727539,0|2,0:0|0:0,0:0:0:0:
296,200,164041,2,0,P|268:188|240:144,1,64.9999970245363,0|8,0:0|0:0,0:0:0:0:
280,44,164375,1,2,0:0:0:0:
152,136,164597,2,0,P|80:136|32:116,2,119.999996337891,0|2|8,0:0|0:0|0:0,0:0:0:0:
280,44,165264,5,2,0:0:0:0:
284,48,165708,1,2,0:0:0:0:
368,180,165930,1,8,0:0:0:0:
212,184,166152,1,2,0:0:0:0:
208,188,166597,1,2,0:0:0:0:
292,320,166819,1,8,0:0:0:0:
368,180,167041,1,2,0:0:0:0:
284,48,167264,70,0,P|156:40|48:124,1,239.999992675781,0|8,0:0|0:0,0:0:0:0:
8,204,167930,2,0,L|44:336,1,119.999996337891,2|0,0:0|0:0,0:0:0:0:
98,214,168375,2,0,L|62:82,1,119.999996337891,2|8,0:0|0:0,0:0:0:0:
188,228,168819,6,0,P|304:260|388:216,1,179.999994506836,2|0,0:0|0:0,0:0:0:0:
404,180,169264,2,0,P|352:204|320:260,1,119.999996337891,2|8,0:0|0:0,0:0:0:0:
484,208,169708,1,2,0:0:0:0:
332,56,170152,1,2,0:0:0:0:
476,56,170375,1,8,0:0:0:0:
404,180,170597,1,2,0:0:0:0:
332,56,170819,5,0,0:0:0:0:
204,116,171041,1,0,0:0:0:0:
276,240,171264,2,0,P|320:292|396:320,1,119.999996337891,8|0,0:0|0:0,0:0:0:0:
412,316,171597,1,0,0:0:0:0:
460,304,171708,1,0,0:0:0:0:
276,240,171930,1,0,0:0:0:0:
228,252,172041,1,0,0:0:0:0:
192,284,172152,1,0,0:0:0:0:
84,336,172375,2,0,L|44:376,2,39.9999987792969
76,312,172597,85,0,0:0:0:0:
72,276,172708,1,0,0:0:0:0:
80,240,172819,1,0,0:0:0:0:
104,212,172930,1,0,0:0:0:0:
132,188,173041,1,8,0:0:0:0:
148,92,173264,1,0,0:0:0:0:
116,56,173375,1,0,0:0:0:0:
68,52,173486,6,0,P|32:80|24:160,1,119.999996337891
60,212,173819,2,0,P|132:216|188:180,1,119.999996337891
204,156,174152,1,0,0:0:0:0:
248,136,174264,1,0,0:0:0:0:
296,132,174375,69,4,0:0:0:0:
360,348,175041,1,2,0:0:0:0:
148,272,175708,1,2,0:0:0:0:
296,260,176152,70,0,P|376:236|420:152,1,150.000005722046,0|0,0:0|0:0,0:0:0:0:
408,108,176819,1,2,0:0:0:0:
400,84,177930,6,0,P|280:56|168:100,1,225.000008583069,2|2,0:0|0:0,0:0:0:0:
140,308,179264,6,0,L|236:308,1,75.0000028610231,0|2,0:0|0:0,0:0:0:0:
120,104,180152,2,0,L|24:104,1,75.0000028610231,0|2,0:0|0:0,0:0:0:0:
36,180,180597,6,0,L|188:180,1,150.000005722046,0|2,0:0|0:0,0:0:0:0:
292,72,181486,70,0,P|344:172|304:280,2,225.000008583069,0|2|2,0:0|0:0|0:0,0:0:0:0:
224,40,183041,1,0,0:0:0:0:
148,44,183264,6,0,P|188:108|272:100,1,150.000005722046,2|0,0:0|0:0,0:0:0:0:
224,40,183930,1,2,0:0:0:0:
112,236,184597,1,2,0:0:0:0:
244,308,185041,6,0,P|356:304|456:232,1,225.000008583069,2|0,0:0|0:0,0:0:0:0:
256,192,185819,12,0,188597,0:0:0:0:
