osu file format v12

[General]
AudioFilename: KOTOKO - Teller of World.mp3
AudioLeadIn: 1500
PreviewTime: 73708
Countdown: 0
SampleSet: Soft
StackLeniency: 0.7
Mode: 0
LetterboxInBreaks: 0

[Editor]
DistanceSpacing: 0.9
BeatDivisor: 4
GridSize: 32

[Metadata]
Title:Teller of World
TitleUnicode:Teller of World
Artist:KOTOKO
ArtistUnicode:KOTOKO
Creator:DarknessAngel
Version:D.N.Angel
Source:Yumeiro Alouette
Tags:visual novel Eroge opening Loneight l1106188 Gamu mana ゆめいろアルエット!
BeatmapID:257512
BeatmapSetID:95981

[Difficulty]
HPDrainRate:7
CircleSize:3
OverallDifficulty:7
ApproachRate:8
SliderMultiplier:1.8
SliderTickRate:2

[Events]
//Background and Video events
Video,0,"Video.flv"
0,0,"1.jpg",0,0
//Break Periods
2,103464,116736
2,117686,130958
//Storyboard Layer 0 (Background)
//Storyboard Layer 1 (Fail)
//Storyboard Layer 2 (Pass)
//Storyboard Layer 3 (Foreground)
//Storyboard Sound Samples
//Background Colour Transformations
3,100,163,162,255

[TimingPoints]
153,444.444444444444,4,2,1,40,1,0
153,-133.333333333333,4,2,1,40,0,0
2152,-133.333333333333,4,2,1,5,0,0
2264,-133.333333333333,4,2,1,40,0,0
6041,-133.333333333333,4,2,1,5,0,0
6152,-133.333333333333,4,2,1,40,0,0
7264,-133.333333333333,4,2,1,5,0,0
7375,-133.333333333333,4,2,1,40,0,0
7930,-133.333333333333,4,2,1,5,0,0
9041,-133.333333333333,4,2,1,40,0,0
11264,-133.333333333333,4,2,1,5,0,0
11930,-133.333333333333,4,2,1,40,0,0
17264,-133.333333333333,4,2,1,70,0,0
17930,-100,4,2,1,70,0,0
24597,-100,4,2,1,60,0,0
25152,-100,4,2,1,70,0,0
32152,-100,4,2,2,70,0,0
32597,-100,4,2,1,50,0,0
39041,-100,4,2,1,35,0,0
39708,-100,4,2,1,50,0,0
41486,-100,4,1,1,50,0,0
41597,-100,4,2,1,50,0,0
45486,-100,4,2,1,60,0,0
46375,-100,4,2,2,60,0,0
46486,-100,4,2,1,60,0,0
60597,-100,4,2,2,60,0,0
60708,-100,4,2,1,60,0,0
66819,-100,4,1,1,40,0,0
67486,-100,4,2,1,60,0,0
72375,-100,4,1,1,40,0,0
72597,-100,4,2,1,60,0,0
72819,-100,4,2,2,70,0,0
73708,-100,4,2,1,70,0,0
74819,-66.6666666666667,4,2,2,70,0,1
87930,-66.6666666666667,4,2,1,70,0,0
89041,-66.6666666666667,4,2,2,70,0,1
98375,-66.6666666666667,4,1,2,70,0,1
98486,-66.6666666666667,4,2,2,70,0,1
99708,-66.6666666666667,4,1,2,50,0,1
100152,-66.6666666666667,4,1,2,70,0,1
100375,-66.6666666666667,4,1,2,50,0,1
101041,-66.6666666666667,4,1,2,70,0,1
101264,-66.6666666666667,4,1,2,50,0,1
101486,-66.6666666666667,4,2,1,50,0,1
101708,-66.6666666666667,4,1,2,50,0,1
102152,-66.6666666666667,4,1,2,40,0,1
103264,-66.6666666666667,4,1,1,50,0,0
131819,-66.6666666666667,4,2,1,10,0,0
135264,-66.6666666666667,4,1,1,60,0,0
138819,-100,4,2,2,70,0,0
139041,-100,4,2,1,60,0,0
143486,-100,4,1,1,40,0,0
143708,-100,4,2,1,60,0,0
143930,-100,4,2,2,70,0,0
144819,-100,4,2,1,70,0,0
145930,-66.6666666666667,4,2,2,70,0,1
159041,-66.6666666666667,4,2,1,70,0,0
160152,-66.6666666666667,4,2,2,70,0,1
169486,-66.6666666666667,4,1,2,70,0,1
169597,-66.6666666666667,4,2,2,70,0,1
170819,-66.6666666666667,4,1,2,50,0,1
171264,-66.6666666666667,4,1,2,70,0,1
171486,-66.6666666666667,4,1,2,50,0,1
172152,-66.6666666666667,4,1,2,70,0,1
172375,-66.6666666666667,4,1,2,40,0,1
173486,-66.6666666666667,4,1,2,50,0,1
173930,-66.6666666666667,4,1,2,60,0,1
174375,-133.333333333333,4,1,1,60,0,0
175041,-133.333333333333,4,2,1,50,0,0
175930,-133.333333333333,4,2,1,5,0,0
176597,-133.333333333333,4,2,1,50,0,0
178152,-133.333333333333,4,2,1,5,0,0
178597,-133.333333333333,4,2,1,50,0,0
179708,-133.333333333333,4,2,1,5,0,0
180152,-133.333333333333,4,2,1,50,0,0
181708,-133.333333333333,4,2,1,5,0,0
182152,-133.333333333333,4,2,1,50,0,0
182375,-133.333333333333,4,2,1,5,0,0
182819,-133.333333333333,4,2,1,50,0,0
184152,-133.333333333333,4,2,1,5,0,0
184597,-133.333333333333,4,2,1,50,0,0
185264,-133.333333333333,4,2,1,5,0,0
185708,-133.333333333333,4,2,1,50,0,0
185819,-133.333333333333,4,2,1,30,0,0
186819,-133.333333333333,4,2,1,10,0,0
188597,-133.333333333333,4,2,1,5,0,0

[Colours]
Combo1 : 255,255,38
Combo2 : 223,223,223
Combo3 : 95,252,228
Combo4 : 191,128,255
Combo5 : 255,255,104
Combo6 : 232,0,0
Combo7 : 15,255,255
Combo8 : 138,21,255

[HitObjects]
161,118,819,6,0,L|117:126,2,33.7500012874604,2|0|0,0:0|0:0|0:0,0:0:0:0:
296,111,1264,1,2,0:0:0:0:
192,197,1486,1,2,0:0:0:0:
226,66,1708,1,0,0:0:0:0:
274,191,1930,2,0,P|311:231|357:253,1,101.250003862381,0|2,0:0|0:0,0:0:0:0:
128,324,2597,6,0,P|174:331|202:326,1,67.5000025749208,2|2,0:0|0:0,0:0:0:0:
66,263,3041,2,0,P|79:219|78:183,1,67.5000025749208,0|2,0:0|0:0,0:0:0:0:
33,123,3486,1,2,0:0:0:0:
174,191,3708,1,0,0:0:0:0:
33,123,3930,1,2,0:0:0:0:
256,86,4375,5,0,0:0:0:0:
256,86,4486,1,0,0:0:0:0:
256,86,4597,2,0,P|298:82|325:82,1,67.5000025749208,2|0,0:0|0:0,0:0:0:0:
472,94,5041,2,0,P|454:130|434:152,1,67.5000025749208,0|2,0:0|0:0,0:0:0:0:
271,200,5486,1,2,0:0:0:0:
324,81,5708,1,0,0:0:0:0:
324,81,5819,2,0,P|341:131|354:183,1,101.250003862381,2|0,0:0|0:0,0:0:0:0:
350,295,6375,5,2,0:0:0:0:
432,203,6597,1,0,0:0:0:0:
271,200,6819,1,2,0:0:0:0:
138,169,7041,2,0,P|163:107|218:67,1,135.000005149842,2|2,0:0|0:0,0:0:0:0:
271,200,7708,2,0,P|102:318|6:185,1,405.000015449525,2|0,0:0|0:0,0:0:0:0:
357,159,9708,69,2,0:0:0:0:
430,125,9930,2,0,P|434:80|429:43,1,67.5000025749208,2|0,0:0|0:0,0:0:0:0:
306,95,10375,1,2,0:0:0:0:
302,217,10597,1,2,0:0:0:0:
302,217,11041,2,0,P|411:300|536:282,1,270.000010299683,2|2,0:0|0:0,0:0:0:0:
436,203,12152,5,2,0:0:0:0:
281,335,12375,1,0,0:0:0:0:
256,192,12597,12,0,14152,0:0:0:0:
256,192,14264,12,2,17041,0:0:0:0:
256,192,17264,6,0,L|256:122,2,67.5000025749208,2|0|2,0:0|0:0|0:0,0:0:0:0:
356,293,17930,5,4,1:1:0:0:
422,208,18152,1,2,0:0:0:0:
422,208,18264,1,0,0:0:0:0:
422,208,18375,2,0,P|426:151|423:111,1,90,0|6,0:0|0:0,0:0:0:0:
331,62,18819,1,0,0:0:0:0:
231,102,19041,2,0,P|185:106|136:100,1,90,4|2,0:0|0:0,0:0:0:0:
56,33,19486,2,0,P|33:88|41:125,1,90,4|0,0:0|0:0,0:0:0:0:
163,262,19930,69,4,0:0:0:0:
194,230,20041,1,0,0:0:0:0:
201,185,20152,1,0,0:0:0:0:
92,182,20375,1,6,0:0:0:0:
306,178,20597,1,0,0:0:0:0:
92,182,20819,1,4,0:0:0:0:
230,345,21041,1,0,0:0:0:0:
358,311,21264,5,4,0:0:0:0:
358,311,21375,1,0,0:0:0:0:
358,311,21486,2,0,P|412:306|453:306,1,90,2|4,0:0|0:0,0:0:0:0:
486,205,21930,2,0,P|490:160|488:111,1,90,0|6,0:0|0:0,0:0:0:0:
399,53,22375,1,0,0:0:0:0:
292,70,22597,1,4,0:0:0:0:
292,70,22708,1,0,0:0:0:0:
292,70,22819,1,2,0:0:0:0:
297,177,23041,1,6,0:0:0:0:
404,161,23264,5,0,0:0:0:0:
204,126,23486,1,4,0:0:0:0:
273,316,23708,1,2,0:0:0:0:
405,313,23930,2,0,P|380:272|343:245,1,90,6|0,0:0|0:0,0:0:0:0:
151,273,24375,2,0,P|187:241|230:227,1,90,4|8,0:0|0:0,0:0:0:0:
68,329,24819,1,12,0:0:0:0:
48,222,25041,6,0,P|42:155|57:82,1,135,10|0,0:0|0:0,0:0:0:0:
106,71,25486,2,0,L|14:45,1,90,0|6,0:0|0:0,0:0:0:0:
143,166,25930,1,0,0:0:0:0:
240,119,26152,1,4,0:0:0:0:
284,110,26264,1,0,0:0:0:0:
327,119,26375,1,2,0:0:0:0:
433,136,26597,2,0,L|468:105,2,45,4|0|0,0:0|0:0|0:0,0:0:0:0:
328,268,27041,69,4,0:0:0:0:
328,268,27152,1,0,0:0:0:0:
328,268,27264,1,0,0:0:0:0:
143,166,27486,1,6,0:0:0:0:
69,314,27708,1,0,0:0:0:0:
250,192,27930,1,4,0:0:0:0:
429,311,28152,1,2,0:0:0:0:
494,163,28375,1,4,0:0:0:0:
256,65,28597,1,2,0:0:0:0:
103,192,28819,6,0,L|53:211,2,45,4|2|0,0:0|0:0|0:0,0:0:0:0:
256,319,29264,1,4,0:0:0:0:
256,319,29375,1,2,0:0:0:0:
256,319,29486,1,0,0:0:0:0:
409,192,29708,2,0,L|459:211,2,45,4|2|0,0:0|0:0|0:0,0:0:0:0:
256,65,30152,1,4,0:0:0:0:
256,65,30263,1,2,0:0:0:0:
256,65,30374,1,0,0:0:0:0:
123,297,30597,5,4,0:0:0:0:
123,297,30708,1,2,0:0:0:0:
123,297,30819,1,0,0:0:0:0:
389,87,31041,1,4,0:0:0:0:
389,87,31152,1,2,0:0:0:0:
389,87,31263,1,0,0:0:0:0:
123,87,31486,1,4,0:0:0:0:
123,87,31597,1,2,0:0:0:0:
123,87,31708,1,0,0:0:0:0:
389,297,31930,1,4,0:0:0:0:
389,297,32041,1,2,0:0:0:0:
389,297,32152,1,4,0:0:0:0:
56,288,32597,6,0,P|105:292|152:289,1,90,8|0,0:0|0:0,0:0:0:0:
212,205,33041,1,0,0:0:0:0:
146,118,33264,2,0,P|102:110|50:116,2,90,0|8|0,0:0|0:0|0:0,0:0:0:0:
212,205,33930,70,0,P|305:213|389:169,1,180,0|8,0:0|0:0,0:0:0:0:
202,54,34819,1,0,0:0:0:0:
113,115,35041,1,0,0:0:0:0:
88,220,35264,1,8,0:0:0:0:
120,322,35486,1,0,0:0:0:0:
194,244,35708,6,0,P|292:229|376:242,1,180,0|8,0:0|0:0,0:0:0:0:
304,326,36375,2,0,P|279:234|285:144,1,180
349,65,37041,1,8,0:0:0:0:
412,152,37264,2,0,P|416:235|391:327,1,180
282,332,37930,1,8,0:0:0:0:
412,152,38152,5,0,0:0:0:0:
210,247,38375,1,0,0:0:0:0:
412,152,38597,1,0,0:0:0:0:
191,137,38819,5,8,0:0:0:0:
282,332,39041,1,8,0:0:0:0:
412,152,39264,1,8,0:0:0:0:
54,289,39708,70,0,P|107:284|149:285,1,90,8|0,0:0|0:0,0:0:0:0:
240,237,40152,1,0,0:0:0:0:
300,146,40375,2,0,P|302:100|296:51,1,90,0|8,0:0|0:0,0:0:0:0:
189,45,40819,2,0,P|140:47|98:53,1,90
36,140,41264,2,0,P|125:163|208:137,1,180
271,224,41930,1,0,0:0:0:0:
164,329,42152,6,0,L|61:331,1,90,0|8,0:0|0:0,0:0:0:0:
271,224,42597,1,0,0:0:0:0:
417,335,42819,2,0,P|447:242|441:160,1,180,0|8,0:0|0:0,0:0:0:0:
271,224,43486,6,0,P|294:266|330:304,1,90
183,159,43930,2,0,P|169:204|168:257,1,90,0|8,0:0|0:0,0:0:0:0:
295,113,44375,2,0,P|213:65|120:54,2,180
411,232,45486,5,2,0:0:0:0:
190,171,45708,1,2,0:0:0:0:
100,319,45930,1,0,0:0:0:0:
304,182,46152,1,2,0:0:0:0:
480,332,46375,70,0,P|429:348|386:344,1,90,4|0,0:0|0:0,0:0:0:0:
204,291,46819,1,10,0:0:0:0:
288,358,47041,1,4,0:0:0:0:
305,251,47264,2,0,P|310:200|306:145,1,90,2|4,0:0|0:0,0:0:0:0:
218,65,47708,1,8,0:0:0:0:
397,108,47930,1,4,0:0:0:0:
142,152,48152,5,2,0:0:0:0:
114,47,48375,1,4,0:0:0:0:
218,65,48597,2,0,P|242:111|256:161,1,90,10|4,0:0|0:0,0:0:0:0:
185,262,49041,1,0,0:0:0:0:
397,108,49264,1,4,0:0:0:0:
484,306,49486,1,8,0:0:0:0:
376,294,49708,1,4,0:0:0:0:
441,208,49930,6,0,P|486:197|531:196,1,90,2|4,0:0|0:0,0:0:0:0:
376,294,50375,2,0,P|331:305|286:306,1,90,10|4,0:0|0:0,0:0:0:0:
188,211,50819,1,0,0:0:0:0:
351,49,51041,1,4,0:0:0:0:
164,107,51264,1,8,0:0:0:0:
400,144,51486,1,4,0:0:0:0:
257,294,51708,5,2,0:0:0:0:
188,210,51930,1,4,0:0:0:0:
294,190,52152,2,0,P|329:217|368:262,1,90,10|4,0:0|0:0,0:0:0:0:
151,311,52597,1,0,0:0:0:0:
294,190,52819,1,4,0:0:0:0:
151,311,53041,2,0,P|101:313|59:299,1,90,8|4,0:0|0:0,0:0:0:0:
55,92,53486,69,2,0:0:0:0:
160,116,53708,1,4,0:0:0:0:
86,195,53930,2,0,P|39:199|-10:179,1,90,10|4,0:0|0:0,0:0:0:0:
160,116,54375,1,0,0:0:0:0:
339,278,54597,1,4,0:0:0:0:
151,311,54819,2,0,P|106:320|53:321,1,90,8|4,0:0|0:0,0:0:0:0:
301,183,55264,5,2,0:0:0:0:
262,82,55486,1,4,0:0:0:0:
160,116,55708,2,0,P|148:165|148:206,1,90,10|4,0:0|0:0,0:0:0:0:
282,289,56152,1,0,0:0:0:0:
489,107,56375,1,4,0:0:0:0:
301,183,56597,1,8,0:0:0:0:
477,212,56819,1,4,0:0:0:0:
282,289,57041,5,2,0:0:0:0:
384,253,57264,1,4,0:0:0:0:
301,183,57486,2,0,P|256:188|211:208,1,90,10|4,0:0|0:0,0:0:0:0:
310,81,57930,1,0,0:0:0:0:
477,212,58152,1,4,0:0:0:0:
282,289,58375,2,0,P|231:300|192:294,1,90,8|4,0:0|0:0,0:0:0:0:
66,215,58819,6,0,P|41:268|39:308,1,90,2|0,0:0|0:0,0:0:0:0:
194,179,59264,2,0,P|179:134|148:94,1,90,10|0,0:0|0:0,0:0:0:0:
446,215,59708,2,0,P|471:268|473:308,1,90,2|0,0:0|0:0,0:0:0:0:
318,179,60152,2,0,P|333:134|364:94,1,90,10|0,0:0|0:0,0:0:0:0:
321,294,60597,70,0,P|254:308|185:293,2,135,4|2|2,0:0|0:0|0:0,0:0:0:0:
419,233,61486,1,0,0:0:0:0:
256,40,61819,1,2,0:0:0:0:
93,233,62152,1,2,0:0:0:0:
19,135,62375,5,0,0:0:0:0:
256,344,62708,1,2,0:0:0:0:
493,135,63041,1,2,0:0:0:0:
414,245,63264,1,0,0:0:0:0:
339,132,63486,1,2,0:0:0:0:
339,132,63597,1,2,0:0:0:0:
339,132,63708,1,0,0:0:0:0:
256,238,63930,1,8,0:0:0:0:
168,135,64152,6,0,P|110:128|39:165,1,135,8|2,0:0|0:0,0:0:0:0:
50,214,64597,2,0,L|-22:143,1,90,0|2,0:0|0:0,0:0:0:0:
88,46,65041,1,0,0:0:0:0:
424,46,65375,1,2,0:0:0:0:
256,311,65708,1,2,0:0:0:0:
195,221,65930,6,0,P|254:197|320:224,1,135,0|2,0:0|0:0,0:0:0:0:
358,258,66375,2,0,P|399:218|425:182,1,90,0|2,0:0|0:0,0:0:0:0:
370,95,66819,1,0,0:0:0:0:
332,69,66930,1,0,0:0:0:0:
290,51,67041,1,0,0:0:0:0:
245,53,67152,1,0,0:0:0:0:
201,67,67264,1,0,0:0:0:0:
138,154,67486,1,0,0:0:0:0:
94,55,67708,1,2,0:0:0:0:
266,218,67930,69,0,0:0:0:0:
187,292,68152,1,10,0:0:0:0:
87,248,68375,2,0,P|32:233|-9:235,1,90,2|0,0:0|0:0,0:0:0:0:
138,154,68819,1,2,0:0:0:0:
290,324,69041,2,0,P|341:326|381:318,1,90,8|2,0:0|0:0,0:0:0:0:
368,118,69486,5,2,0:0:0:0:
289,191,69708,1,0,0:0:0:0:
391,225,69930,2,0,P|439:232|490:218,1,90,10|2,0:0|0:0,0:0:0:0:
368,118,70375,1,0,0:0:0:0:
192,236,70597,1,2,0:0:0:0:
101,81,70819,1,8,0:0:0:0:
289,191,71041,1,2,0:0:0:0:
81,302,71264,5,2,0:0:0:0:
93,194,71486,1,0,0:0:0:0:
192,236,71708,2,0,P|202:283|204:329,1,90,10|0,0:0|0:0,0:0:0:0:
93,194,72152,1,0,0:0:0:0:
256,69,72375,2,0,L|256:31,3,30,0|0|0|8,0:0|0:0|0:0|0:0,0:0:0:0:
419,194,72819,1,4,0:0:0:0:
419,194,73264,5,4,0:0:0:0:
93,194,73708,5,0,0:0:0:0:
419,194,73930,1,8,0:0:0:0:
93,194,74152,1,0,0:0:0:0:
419,194,74375,1,8,0:0:0:0:
256,69,74597,1,8,0:0:0:0:
186,282,74819,6,0,P|114:292|39:262,1,135.000005149842,4|0,1:0|0:0,0:0:0:0:
93,194,75152,1,2,0:0:0:0:
93,194,75264,1,8,0:0:0:0:
318,327,75486,1,2,0:0:0:0:
419,194,75708,1,2,0:0:0:0:
186,282,75930,1,0,0:0:0:0:
36,92,76152,1,10,0:0:0:0:
256,168,76375,1,2,0:0:0:0:
57,309,76597,1,0,0:0:0:0:
186,282,76819,1,2,0:0:0:0:
452,79,77264,5,0,0:0:0:0:
393,62,77375,1,0,0:0:0:0:
332,65,77486,2,0,P|264:69|202:96,1,135.000005149842,2|2,0:0|0:0,0:0:0:0:
349,312,77930,2,0,P|417:308|479:281,1,135.000005149842,8|2,0:0|0:0,0:0:0:0:
163,312,78375,2,0,B|78:226|78:226|97:143|37:87,1,270.000010299683,2|8,0:0|0:0,0:0:0:0:
349,312,79041,2,0,B|434:226|434:226|415:143|475:87,1,270.000010299683,2|0,0:0|0:0,0:0:0:0:
256,98,79708,1,8,0:0:0:0:
92,241,79930,6,0,P|118:308|180:349,1,135.000005149842,2|0,0:0|0:0,0:0:0:0:
420,143,80375,2,0,P|394:76|332:35,1,135.000005149842,2|0,0:0|0:0,0:0:0:0:
341,361,80819,2,0,L|476:323,1,135.000005149842,2|0,0:0|0:0,0:0:0:0:
256,192,81264,1,2,0:0:0:0:
171,361,81486,2,0,L|36:323,1,135.000005149842,8|0,0:0|1:0,0:0:0:0:
25,204,81930,1,0,1:0:0:0:
88,100,82152,1,0,0:0:0:0:
144,75,82264,1,0,0:0:0:0:
204,71,82375,1,8,0:0:0:0:
368,121,82597,85,2,0:0:0:0:
469,259,82819,2,0,P|399:281|327:267,1,135.000005149842,2|0,0:0|0:0,0:0:0:0:
88,100,83264,1,8,0:0:0:0:
256,192,83486,1,2,0:0:0:0:
136,328,83708,2,0,P|74:358|7:355,1,135.000005149842,0|2,0:0|0:0,0:0:0:0:
167,114,84152,1,8,0:0:0:0:
374,245,84375,2,0,P|441:271|505:280,1,135.000005149842,2|0,0:0|0:0,0:0:0:0:
167,114,84819,2,0,P|100:88|36:79,1,135.000005149842,2|8,0:0|0:0,0:0:0:0:
394,165,85264,6,0,P|404:91|391:28,1,135.000005149842,4|0,0:0|0:0,0:0:0:0:
118,219,85708,2,0,P|108:293|121:356,1,135.000005149842,0|8,0:0|0:0,0:0:0:0:
321,85,86152,2,0,P|246:69|190:86,1,135.000005149842,4|0,0:0|0:0,0:0:0:0:
372,302,86597,1,0,0:0:0:0:
372,302,86708,1,0,0:0:0:0:
372,302,86819,1,8,0:0:0:0:
140,302,87041,2,0,B|68:237|68:237|76:126|6:77,1,270.000010299683,4|8,0:0|0:0,0:0:0:0:
172,62,87708,1,8,0:0:0:0:
256,192,87930,85,0,0:0:0:0:
256,192,88041,1,0,0:0:0:0:
256,192,88152,1,8,0:0:0:0:
372,82,88375,1,0,0:0:0:0:
140,302,88597,1,8,0:0:0:0:
372,82,88819,1,8,0:0:0:0:
140,302,89041,6,0,P|71:291|10:257,1,135.000005149842,4|0,1:0|0:0,0:0:0:0:
41,180,89375,1,2,0:0:0:0:
41,180,89486,1,8,0:0:0:0:
256,192,89708,2,0,P|341:208|398:234,1,135.000005149842,2|2,0:0|0:0,0:0:0:0:
233,52,90152,1,0,0:0:0:0:
41,180,90375,1,10,0:0:0:0:
256,192,90597,1,2,0:0:0:0:
61,317,90819,1,0,0:0:0:0:
194,322,91041,1,2,0:0:0:0:
411,69,91486,5,0,0:0:0:0:
397,128,91597,1,0,0:0:0:0:
405,188,91708,2,0,P|412:257|440:317,1,135.000005149842,2|0,0:0|0:0,0:0:0:0:
175,250,92152,2,0,P|99:217|42:203,1,135.000005149842,10|0,0:0|0:0,0:0:0:0:
187,49,92597,1,2,0:0:0:0:
349,209,92819,1,2,0:0:0:0:
349,209,92930,1,0,0:0:0:0:
349,209,93041,2,0,P|423:185|470:142,1,135.000005149842,8|0,0:0|0:0,0:0:0:0:
356,69,93486,5,2,0:0:0:0:
461,302,93708,1,2,0:0:0:0:
156,315,93930,1,8,0:0:0:0:
51,82,94152,2,0,P|185:35|316:57,1,270.000010299683,2|2,0:0|0:0,0:0:0:0:
461,302,94819,2,0,P|327:349|196:327,1,270.000010299683,10|0,0:0|0:0,0:0:0:0:
154,218,95486,85,0,0:0:0:0:
235,128,95708,1,8,0:0:0:0:
342,183,95930,1,0,1:0:0:0:
430,100,96152,1,0,1:0:0:0:
322,43,96375,1,0,0:0:0:0:
322,43,96486,1,0,0:0:0:0:
322,43,96597,1,8,0:0:0:0:
342,183,96819,6,0,P|419:220|469:217,1,135.000005149842,2|0,0:0|0:0,0:0:0:0:
270,349,97264,1,2,0:0:0:0:
95,260,97486,1,8,0:0:0:0:
195,84,97708,2,0,P|271:52|329:42,1,135.000005149842,2|0,0:0|0:0,0:0:0:0:
467,242,98152,2,0,B|351:275|351:275|266:266|201:208,1,270.000010299683,2|0,0:0|0:0,0:0:0:0:
215,220,98708,1,0,0:0:0:0:
215,220,98819,1,0,0:0:0:0:
303,142,99041,5,2,0:0:0:0:
394,351,99264,1,8,0:0:0:0:
215,220,99486,1,2,0:0:0:0:
413,166,99708,85,0,1:0:0:0:
256,324,99930,1,0,1:0:0:0:
256,324,100041,2,0,L|185:324,1,67.5000025749208,0|8,1:0|1:2,0:0:0:0:
256,60,100375,1,0,1:0:0:0:
256,60,100486,2,0,L|327:60,1,67.5000025749208,0|0,1:0|1:0,0:0:0:0:
84,192,100819,1,0,1:0:0:0:
84,192,100930,2,0,L|84:121,1,67.5000025749208,0|8,1:0|1:2,0:0:0:0:
428,192,101264,2,0,B|425:313|425:313|356:357|282:314,1,270.000010299683,0|0,0:0|1:0,0:0:0:0:
84,192,101930,5,0,1:0:0:0:
256,60,102152,2,0,L|221:25,3,45.0000017166138
428,192,102597,1,0,0:0:0:0:
412,250,102708,1,0,0:0:0:0:
377,299,102819,1,0,0:0:0:0:
326,334,102930,1,0,0:0:0:0:
266,345,103041,1,0,0:0:0:0:
206,331,103152,1,0,0:0:0:0:
156,294,103264,1,12,0:0:0:0:
256,192,117486,21,12,0:0:0:0:
256,192,131708,5,12,0:0:0:0:
256,192,131819,12,0,134819,0:0:0:0:
256,192,135264,5,6,0:0:0:0:
141,310,135930,5,6,0:0:0:0:
256,76,136819,69,6,0:0:0:0:
371,310,137708,5,6,0:0:0:0:
140,192,138264,5,0,0:0:0:0:
140,192,138375,1,0,0:0:0:0:
372,192,138597,1,0,0:0:0:0:
166,297,138819,5,4,0:0:0:0:
62,266,139041,1,0,0:0:0:0:
140,192,139264,2,0,P|141:142|128:100,1,90,10|0,0:0|0:0,0:0:0:0:
273,303,139708,1,0,0:0:0:0:
62,266,139930,1,2,0:0:0:0:
246,198,140152,2,0,P|294:196|337:215,1,90,8|0,0:0|0:0,0:0:0:0:
150,43,140597,69,2,0:0:0:0:
137,150,140819,1,0,0:0:0:0:
237,109,141041,2,0,P|294:103|339:118,1,90,10|0,0:0|0:0,0:0:0:0:
150,268,141486,2,0,P|93:274|48:259,1,90,0|2,0:0|0:0,0:0:0:0:
237,109,141930,1,8,0:0:0:0:
362,268,142152,5,0,0:0:0:0:
362,268,142264,1,0,0:0:0:0:
362,268,142375,2,0,L|404:362,1,90,2|0,0:0|0:0,0:0:0:0:
150,268,142819,2,0,L|108:362,1,90,10|0,0:0|0:0,0:0:0:0:
76,173,143264,1,0,0:0:0:0:
256,72,143486,2,0,L|256:27,3,30,0|0|0|8,0:0|0:0|0:0|0:0,0:0:0:0:
436,173,143930,1,4,0:0:0:0:
436,173,144375,5,4,0:0:0:0:
76,173,144819,21,0,0:0:0:0:
436,173,145041,1,8,0:0:0:0:
154,352,145264,1,0,0:0:0:0:
256,42,145486,1,8,0:0:0:0:
358,352,145708,1,8,0:0:0:0:
256,192,145930,6,0,P|312:149|377:116,1,135.000005149842,4|0,1:0|0:0,0:0:0:0:
436,173,146264,1,2,0:0:0:0:
436,173,146375,1,8,0:0:0:0:
256,42,146597,1,2,0:0:0:0:
72,284,146819,1,2,0:0:0:0:
256,192,147041,2,0,P|317:224|359:278,1,135.000005149842,0|10,0:0|0:0,0:0:0:0:
72,284,147486,1,2,0:0:0:0:
256,192,147708,1,0,0:0:0:0:
124,160,147930,1,2,0:0:0:0:
354,350,148375,5,0,0:0:0:0:
406,319,148486,1,0,0:0:0:0:
442,270,148597,2,0,P|463:199|459:138,1,135.000005149842,2|2,0:0|0:0,0:0:0:0:
256,192,149041,2,0,P|277:117|326:82,1,135.000005149842,8|2,0:0|0:0,0:0:0:0:
248,324,149486,2,0,P|112:349|1:270,1,270.000010299683,2|8,0:0|0:0,0:0:0:0:
264,60,150152,2,0,P|400:35|511:114,1,270.000010299683,2|2,0:0|0:0,0:0:0:0:
256,192,150819,1,8,0:0:0:0:
40,138,151041,6,0,P|73:80|127:39,1,135.000005149842,2|0,0:0|0:0,0:0:0:0:
472,246,151486,2,0,P|439:304|385:345,1,135.000005149842,2|8,0:0|0:0,0:0:0:0:
86,323,151930,1,2,0:0:0:0:
102,264,152041,1,0,0:0:0:0:
134,212,152152,1,0,0:0:0:0:
182,174,152264,1,0,0:0:0:0:
240,157,152375,1,2,0:0:0:0:
349,210,152597,1,10,0:0:0:0:
339,89,152819,1,0,1:0:0:0:
339,89,152930,1,0,0:0:0:0:
339,89,153041,2,0,P|272:49|194:39,1,135.000005149842,0|0,1:0|0:0,0:0:0:0:
349,210,153486,2,0,P|415:182|456:126,1,135.000005149842,8|0,0:0|0:0,0:0:0:0:
240,157,153930,86,0,P|165:133|108:126,1,135.000005149842,2|0,0:0|0:0,0:0:0:0:
44,175,154264,1,2,0:0:0:0:
44,175,154375,1,8,0:0:0:0:
135,308,154597,2,0,P|210:332|267:339,1,135.000005149842,2|0,0:0|0:0,0:0:0:0:
414,238,155041,1,2,0:0:0:0:
240,157,155264,1,8,0:0:0:0:
333,79,155486,2,0,P|405:63|477:79,1,135.000005149842,2|0,0:0|0:0,0:0:0:0:
414,238,155930,2,0,P|342:254|270:238,1,135.000005149842,2|8,0:0|0:0,0:0:0:0:
98,146,156375,6,0,P|123:72|162:16,1,135.000005149842,4|0,0:0|0:0,0:0:0:0:
414,238,156819,2,0,P|389:312|350:368,1,135.000005149842,0|8,0:0|0:0,0:0:0:0:
296,77,157264,1,4,0:0:0:0:
351,100,157375,1,0,0:0:0:0:
383,151,157486,1,0,0:0:0:0:
216,307,157708,1,0,0:0:0:0:
161,284,157819,1,0,0:0:0:0:
129,233,157930,1,8,0:0:0:0:
383,151,158152,2,0,L|530:145,1,135.000005149842,4|0,0:0|0:0,0:0:0:0:
129,233,158597,2,0,L|-18:239,1,135.000005149842,8|8,0:0|0:0,0:0:0:0:
119,84,159041,85,0,0:0:0:0:
119,84,159152,1,0,0:0:0:0:
119,84,159264,1,8,0:0:0:0:
393,300,159486,1,0,0:0:0:0:
119,300,159708,1,8,0:0:0:0:
393,84,159930,1,8,0:0:0:0:
236,240,160152,6,0,P|174:285|119:300,1,135.000005149842,4|0,1:0|0:0,0:0:0:0:
55,248,160486,1,2,0:0:0:0:
55,248,160597,1,8,0:0:0:0:
199,92,160819,1,2,0:0:0:0:
393,300,161041,1,2,0:0:0:0:
475,159,161264,1,0,0:0:0:0:
237,240,161486,1,10,0:0:0:0:
64,105,161708,1,2,0:0:0:0:
339,149,161930,1,0,0:0:0:0:
237,240,162152,1,2,0:0:0:0:
237,240,162597,5,0,0:0:0:0:
237,240,162708,1,0,0:0:0:0:
237,240,162819,2,0,P|173:275|87:281,1,135.000005149842,2|2,0:0|0:0,0:0:0:0:
216,103,163264,1,8,0:0:0:0:
374,304,163486,1,2,0:0:0:0:
496,136,163708,1,2,0:0:0:0:
237,240,163930,1,0,0:0:0:0:
237,240,164041,1,0,0:0:0:0:
237,240,164152,2,0,P|167:226|93:229,1,135.000005149842,8|0,0:0|0:0,0:0:0:0:
216,103,164597,5,0,0:0:0:0:
374,304,164819,1,2,0:0:0:0:
496,136,165041,1,8,0:0:0:0:
237,240,165264,2,0,P|108:285|8:211,1,270.000010299683,2|2,0:0|0:0,0:0:0:0:
312,195,165930,2,0,P|453:224|496:337,1,270.000010299683,10|0,0:0|0:0,0:0:0:0:
374,304,166597,85,0,0:0:0:0:
374,304,166708,1,0,0:0:0:0:
374,304,166819,2,0,L|452:179,1,135.000005149842,8|0,0:0|1:0,0:0:0:0:
381,85,167264,1,0,1:0:0:0:
261,66,167486,1,0,0:0:0:0:
161,134,167708,1,8,0:0:0:0:
251,347,167930,6,0,P|339:330|374:303,1,135.000005149842,2|2,0:0|0:0,0:0:0:0:
276,166,168375,1,0,0:0:0:0:
97,347,168597,1,10,0:0:0:0:
0,198,168819,1,2,0:0:0:0:
446,266,169264,2,0,P|308:285|178:277,1,270.000010299683,2|0,0:0|0:0,0:0:0:0:
178,277,169819,1,0,0:0:0:0:
178,277,169930,1,0,0:0:0:0:
244,133,170152,5,2,0:0:0:0:
447,288,170375,1,8,0:0:0:0:
506,93,170597,1,2,0:0:0:0:
360,61,170819,85,0,0:0:0:0:
105,192,171041,1,0,0:0:0:0:
105,192,171152,1,0,0:0:0:0:
105,192,171264,1,8,0:0:0:0:
407,192,171486,1,0,0:0:0:0:
407,192,171597,1,0,0:0:0:0:
407,192,171709,1,0,0:0:0:0:
256,65,171930,1,0,0:0:0:0:
256,65,172041,1,0,0:0:0:0:
256,65,172152,1,8,0:0:0:0:
256,319,172375,5,0,0:0:0:0:
256,319,172486,1,0,0:0:0:0:
256,319,172597,1,0,0:0:0:0:
256,319,172708,1,0,0:0:0:0:
256,319,172819,1,0,0:0:0:0:
256,319,172930,1,0,0:0:0:0:
256,319,173041,1,0,0:0:0:0:
256,319,173152,1,0,0:0:0:0:
256,319,173264,1,0,0:0:0:0:
256,319,173375,1,0,0:0:0:0:
256,319,173486,6,0,L|186:326,1,67.5000025749208
131,211,173708,2,0,L|61:204,1,67.5000025749208
256,149,173930,2,0,L|326:156,1,67.5000025749208
393,49,174152,2,0,L|463:42,1,67.5000025749208
506,211,174375,5,12,0:0:0:0:
490,228,175041,1,2,0:0:0:0:
256,314,175708,2,0,P|111:317|30:222,1,270.000010299683,2|0,0:0|0:0,0:0:0:0:
51,144,176819,1,2,0:0:0:0:
381,79,177930,6,0,P|427:176|405:270,1,202.500007724762,0|2,0:0|0:0,0:0:0:0:
94,184,179264,1,2,0:0:0:0:
150,117,179486,2,0,P|212:197|216:295,1,202.500007724762,2|2,0:0|0:0,0:0:0:0:
137,334,180375,1,2,0:0:0:0:
112,343,181041,5,0,0:0:0:0:
270,277,181486,2,0,P|345:261|480:272,2,202.500007724762,2|2|2,0:0|0:0|0:0,0:0:0:0:
88,210,183708,5,2,0:0:0:0:
88,210,183930,2,0,P|85:134|160:35,1,202.500007724762
424,174,185041,2,0,P|427:250|352:349,1,202.500007724762,2|2,0:0|0:0,0:0:0:0:
256,192,185819,12,0,188597,0:0:0:0:
