osu file format v4

[General]
AudioFilename: Suppuration -Core-.mp3
AudioLeadIn: 0
AudioHash: e60322e3005f68f3e3dad46ff6215dc0
PreviewTime: -1
SampleSet: Normal
EditorBookmarks: 2,16470,30692,45803,59888,73765,87222,116432,143999,159137,188470

[Metadata]
Title:Suppuration -core-
Artist:KOTOKO
Creator:James
Version:Normal

[Difficulty]
HPDrainRate:2
CircleSize:3
OverallDifficulty:3
SliderMultiplier: 1.4
SliderTickRate: 1

[Events]
//Background and Video events
0,-1,"20050220518783.jpg"
//Break Periods
2,67743,73659
2,81965,87437
2,131755,144337
//Storyboard Layer 0 (Background)
//Storyboard Layer 1 (Failing)
//Storyboard Layer 2 (Passing)
//Storyboard Layer 3 (Foreground)
//Storyboard Sound Samples
//Background Colour Transformations
3,100,0,0,0

[TimingPoints]
17766,444.444444444444,4,1,0
117333,444.444444444444,4,1,0

[Colours]
Combo1 : 255,255,0
Combo2 : 0,0,140
Combo3 : 255,0,255
Combo4 : 255,0,0

[HitObjects]
96,64,17765,6,0,L|96:64|112:64,1,140
224,112,18654,2,0,L|224:112|208:112,1,140
96,160,19543,2,0,L|96:160|112:160,1,140
224,208,20432,2,0,L|224:208|208:208,1,140
96,256,21321,2,0,L|96:256|112:256,1,140
224,304,22210,2,0,L|224:304|208:304,1,140
96,352,23099,6,0,L|96:352|120:352,1,140
280,352,23988,2,0,L|280:352|296:352,1,140
432,304,24876,6,0,L|432:304|416:304,1,140
280,256,25765,2,0,L|280:256|296:256,1,140
432,208,26654,2,0,L|432:208|416:208,1,140
280,160,27543,2,0,L|280:160|296:160,1,140
432,112,28432,2,0,L|432:112|416:112,1,140
272,64,29321,2,0,L|272:64|288:64,1,140
312,144,31988,5,0
224,144,32432,1,0
136,144,32876,2,0,L|136:144|64:144|64:216,1,140
64,296,33765,5,0
152,296,34210,1,0
240,296,34654,2,0,L|240:296|312:296|312:224,1,140
312,144,35543,5,0
312,56,35988,2,0,L|312:56|448:56,1,140
456,144,36876,1,0
456,232,37321,5,0
456,328,37765,2,0,L|456:328|312:328,2,140
456,232,39099,5,2
368,232,39543,1,2
280,232,39988,2,0,L|280:232|209:232|208:304,1,140
120,304,40876,5,2
40,304,41321,1,2
40,216,41765,2,0,L|40:216|40:72,1,140
128,80,42654,6,2,L|128:80|272:80,1,140
352,80,43543,1,0
440,80,43988,1,0
322,208,46210,6,0,L|322:208|282:208|280:144,1,70
282,72,47099,5,0
210,72,47432,1,0
136,72,47765,2,0,L|136:72|136:32|82:32,2,70
138,168,48876,5,0
210,168,49210,1,0
282,168,49543,2,0,L|282:168|322:168|322:222,2,70
186,168,50654,5,0
114,168,50988,1,0
42,168,51321,2,0,L|42:168|42:206|96:206,2,70
42,72,52432,5,0
114,72,52765,1,0
186,72,53099,2,0,L|186:72|186:32|132:32,2,70
186,168,54210,5,0
186,240,54543,1,0
186,312,54876,2,0,L|186:312|146:312|146:258,2,70
282,312,55988,5,0
354,312,56321,1,0
426,312,56654,2,0,L|426:312|466:312|466:258,2,70
336,312,57765,5,0
264,312,58099,1,0
192,312,58432,2,0,L|192:312|192:352|246:352,2,70
40,56,60432,5,0
96,112,60877,1,0
40,168,61321,1,0
96,224,61765,1,0
40,280,62210,5,0
96,336,62654,1,0
152,280,63099,1,0
208,336,63543,1,0
264,280,63988,5,0
320,336,64432,1,0
376,280,64877,1,0
432,336,65321,1,0
472,264,65765,5,0
416,208,66210,1,0
472,152,66654,1,0
416,96,67099,1,0
472,40,67543,1,4
48,48,75099,6,0,L|48:48|48:344|176:344,1,420
256,344,76877,2,0,L|256:344|464:344|464:120,1,420
464,48,78654,1,0
376,48,79099,2,0,L|376:48|168:48,1,140
152,48,79988,2,0,L|152:48|64:48|64:248|64:336|256:336,1,560
456,192,88877,6,0,B|456:192|388:239|325:150|280:248,1,140
320,288,89765,2,0,B|320:288|259:305|196:308|128:284|92:245|79:194|104:120|137:82|200:64,1,420
432,56,91988,6,0,B|432:56|408:80|456:160|424:184,1,140
344,232,92877,1,0
256,232,93321,1,0
168,232,93765,1,0
96,184,94210,2,0,B|96:184|72:160|120:80|88:56,1,140
256,192,95543,5,0
256,192,95765,1,0
256,192,95988,1,0
192,144,96432,2,0,B|192:144|148:128|96:168|64:144,1,140
56,56,97321,2,0,B|56:56|96:32|152:46|235:66|292:80|352:40,1,280
456,56,99099,6,0,B|456:56|448:184|384:264|256:320,1,280
248,320,100432,2,0,B|248:320|74:357|13:200|12:80|304:40,1,560
440,48,103099,6,0,B|440:48|416:72|464:168|432:192,3,140
392,256,104877,1,0
344,192,105321,1,0
296,256,105765,1,0
248,192,106210,1,0
200,256,106654,1,0
152,320,107099,2,0,B|152:320|12:242|13:115|60:20|416:48,1,560
456,48,110210,5,0
368,56,110654,1,0
280,72,111099,1,0
200,104,111543,1,0
120,152,111988,1,0
72,224,112432,1,0
48,328,113321,6,0,B|48:328|141:0|201:124|268:261|353:448|472:40,1,700
456,88,117321,6,0,L|456:88|356:101|176:309|112:264,1,420
136,280,118888,1,0
72,216,119333,1,0
128,144,119777,1,0
256,112,120666,2,0,L|256:112|256:48,2,70
320,168,121555,2,0,L|320:168|320:256,2,70
320,168,122221,1,0
320,168,122444,1,0
400,208,122888,1,0
472,256,123333,1,0
400,304,123777,1,0
256,192,124444,12,0,131555
464,48,145777,5,0
376,48,146221,1,0
288,48,146666,1,0
200,48,147110,1,0
112,48,147555,6,0,L|112:48|112:192,1,140
112,272,148444,2,0,L|112:272|264:272,1,140
320,336,149332,5,0
384,272,149777,1,0
312,216,150221,1,0
384,160,150666,1,0
312,104,151110,1,0
248,160,151555,1,0
184,104,151999,1,0
96,160,152444,5,0
96,160,152666,5,0
96,160,152888,5,0
168,224,153332,6,0,L|168:224|312:224,3,140
400,224,155110,2,0,L|400:224|400:80,1,140
312,88,155999,2,0,L|312:88|176:88,1,140
80,88,156888,2,0,L|80:88|80:232,2,140
168,88,158221,1,0
256,88,158666,1,0
344,88,159110,1,0
352,232,159999,5,0
264,232,160444,1,0
176,232,160888,1,0
104,288,161332,2,0,B|104:288|186:356|313:226|408:320,1,280
320,192,163110,6,0,B|320:192|168:192,2,140
384,256,164444,1,0
320,320,164888,1,0
256,256,165332,1,0
192,320,165777,1,0
128,256,166221,1,0
192,192,166666,5,0
192,192,166888,5,0
192,192,167110,5,0
280,152,167555,6,0,B|280:152|298:129|407:192|440:120,1,140
416,64,168444,2,0,B|416:64|398:41|289:104|256:32,1,140
200,56,169332,2,0,B|200:56|177:74|240:183|168:216,1,140
280,216,170221,2,0,B|280:216|298:193|407:256|440:184,4,140
208,272,172444,2,0,B|208:272|117:288|54:260|41:174|64:98|96:60|168:50|224:56,1,420
312,56,174221,5,0
368,120,174666,1,0
312,184,175110,1,0
376,240,175555,1,0
312,296,175999,2,0,B|312:296|294:319|185:256|152:328,1,140
96,336,176888,1,0
40,264,177332,6,0,B|40:264|40:190|112:168,1,140
208,144,178221,1,0
296,128,178666,2,0,B|296:128|327:106|401:152|432:120,1,140
464,40,179555,2,0,B|464:40|404:96|536:239|400:352,1,280
352,312,180888,1,0
352,312,181110,1,0
352,312,181332,1,0
264,312,181777,2,0,B|264:312|189:335|128:312,1,140
64,248,182666,2,0,B|64:248|59:151|125:115|187:129|241:151|272:216,1,280
256,192,184221,12,0,188444
