osu file format v4

[General]
AudioFilename: Suppuration -Core-.mp3
AudioLeadIn: 0
AudioHash: e60322e3005f68f3e3dad46ff6215dc0
PreviewTime: -1
SampleSet: Normal
EditorBookmarks: 2,16470,30692,45803,59888,87222,117333,130692,143999,159137,188470

[Metadata]
Title:Suppuration -core-
Artist:KOTOKO
Creator:James
Version:Hard

[Difficulty]
HPDrainRate:5
CircleSize:5
OverallDifficulty:5
SliderMultiplier: 1.4
SliderTickRate: 1

[Events]
//Background and Video events
0,-1,"20050220518783.jpg"
//Break Periods
2,117533,129688
//Storyboard Layer 0 (Background)
//Storyboard Layer 1 (Failing)
//Storyboard Layer 2 (Passing)
//Storyboard Layer 3 (Foreground)
//Storyboard Sound Samples
//Background Colour Transformations
3,100,0,0,0

[TimingPoints]
17766,444.444444444444,4,1,0
117333,444.444444444444,4,1,0

[Colours]
Combo1 : 255,255,0
Combo2 : 0,0,140
Combo3 : 255,0,255
Combo4 : 255,0,0

[HitObjects]
96,64,17765,6,0,L|96:64|112:64,1,140
224,112,18654,2,0,L|224:112|208:112,1,140
96,160,19543,2,0,L|96:160|112:160,1,140
224,208,20432,2,0,L|224:208|208:208,1,140
96,256,21321,2,0,L|96:256|112:256,1,140
224,304,22210,2,0,L|224:304|208:304,1,140
96,352,23099,6,0,L|96:352|120:352,1,140
280,352,23988,2,0,L|280:352|296:352,1,140
432,304,24876,6,0,L|432:304|416:304,1,140
280,256,25765,2,0,L|280:256|296:256,1,140
432,208,26654,2,0,L|432:208|416:208,1,140
280,160,27543,2,0,L|280:160|296:160,1,140
432,112,28432,2,0,L|432:112|416:112,1,140
272,64,29321,2,0,L|272:64|288:64,1,140
448,64,29988,5,0
464,112,30210,5,0
464,112,30321,5,0
464,112,30432,5,0
464,112,30543,5,0
320,112,31988,1,0
232,112,32432,1,0
144,112,32876,2,0,L|144:112|72:112|72:184,1,140
72,264,33765,5,0
160,264,34210,1,0
248,264,34654,2,0,L|248:264|320:264|320:192,1,140
320,112,35543,5,0
320,24,35988,2,0,L|320:24|456:24,1,140
464,112,36876,1,0
464,200,37321,5,0
464,296,37765,2,0,L|464:296|320:296,2,140
464,200,39099,5,2
376,200,39543,1,2
288,200,39988,2,0,L|288:200|217:200|216:272,1,140
128,272,40876,5,2
48,272,41321,1,2
48,184,41765,2,0,L|48:184|48:40,1,140
136,48,42654,6,2,L|136:48|280:48,1,140
360,48,43543,1,0
448,48,43988,1,0
448,88,44210,5,0
448,128,44432,5,0
448,176,44654,5,0
464,224,44876,5,0
464,224,44988,5,0
464,224,45099,5,0
464,224,45210,5,0
392,264,45654,5,0
322,208,46210,6,0,L|322:208|282:208|280:144,1,70
282,72,47099,5,0
210,72,47432,1,0
136,72,47765,2,0,L|136:72|136:32|82:32,2,70
138,168,48876,5,0
210,168,49210,1,0
282,168,49543,2,0,L|282:168|322:168|322:222,2,70
186,168,50654,5,0
114,168,50988,1,0
42,168,51321,2,0,L|42:168|42:206|96:206,2,70
42,72,52432,5,0
114,72,52765,1,0
186,72,53099,2,0,L|186:72|186:32|132:32,2,70
186,168,54210,5,0
186,240,54543,1,0
186,312,54876,2,0,L|186:312|146:312|146:258,2,70
282,312,55988,5,0
354,312,56321,1,0
426,312,56654,2,0,L|426:312|466:312|466:258,2,70
336,312,57765,5,0
264,312,58099,1,0
192,312,58432,2,0,L|192:312|192:352|246:352,2,70
200,280,59099,5,0
200,280,59210,5,0
200,280,59321,5,0
200,280,59432,5,0
192,184,59876,5,0
192,88,60432,1,6
96,88,60876,5,0
96,88,60988,1,0
64,136,61210,1,0
64,136,61321,1,0
96,184,61543,1,0
96,184,61654,1,0
64,232,61876,1,0
64,232,61988,1,2
160,232,62432,5,0
200,272,62654,1,0
200,272,62765,1,0
240,232,62988,1,0
240,232,63099,1,0
280,272,63321,1,0
280,272,63432,1,0
320,232,63654,1,0
320,232,63765,1,2
416,232,64210,5,0
448,192,64432,1,0
448,192,64543,1,0
408,152,64765,1,0
408,152,64876,1,0
448,112,65099,1,0
448,112,65210,1,0
408,72,65432,1,0
408,72,65543,1,2
312,72,65988,5,0
272,32,66210,1,0
272,32,66321,1,0
232,72,66543,1,0
232,72,66654,1,0
192,32,66876,1,0
192,32,66988,1,0
152,72,67210,1,0
152,72,67321,1,2
56,56,67988,6,0,B|56:56|41:88|72:120,1,70
96,160,68432,2,0,B|96:160|116:200|168:200,1,70
232,200,69099,1,2
320,200,69543,2,0,B|320:200|363:208|420:217|400:312,1,140
400,336,70210,2,0,B|400:336|320:336,1,70
256,336,70876,1,2
176,328,71321,2,0,B|176:328|112:321|76:278|45:207|61:142|92:90|144:50|200:33|304:48,1,490
368,80,73321,2,0,B|368:80|441:145|464:234|414:332|280:344,1,350
224,344,75099,5,0
224,344,75210,1,0
184,304,75432,1,0
184,304,75543,1,0
144,344,75765,1,0
144,344,75876,1,0
104,304,76099,1,0
104,304,76210,1,2
48,224,76654,5,0
88,184,76876,1,0
88,184,76988,1,0
48,144,77210,1,0
48,144,77321,1,0
88,104,77543,1,0
88,104,77654,1,0
48,64,77876,1,0
48,64,77988,1,2
144,64,78432,5,0
184,104,78654,1,0
184,104,78765,1,0
224,64,78988,1,0
224,64,79099,1,0
264,104,79321,1,0
264,104,79432,1,0
304,64,79654,1,0
304,64,79765,1,2
400,64,80210,5,0
440,104,80432,1,0
440,104,80543,1,0
400,144,80765,1,0
400,144,80876,1,0
440,184,81099,1,0
440,184,81210,1,0
400,224,81432,1,0
400,224,81543,1,2
320,280,82210,6,0,B|320:280|279:308|232:264,1,70
208,256,82654,2,0,B|208:256|161:240|168:176,1,70
160,128,83321,1,0
208,72,83765,1,0
280,56,84210,2,0,B|280:56|412:28|476:113|444:267|344:272,1,350
328,288,85543,2,0,B|328:288|206:359|100:305|59:238|48:168|128:24,1,490
208,32,87543,5,0
208,32,87654,5,0
208,32,87765,5,0
208,32,87876,5,0
280,32,88210,5,2
328,32,88432,2,0,B|328:32|360:28|392:64,1,70
392,112,88876,2,0,B|392:112|360:148|287:88|256:120,1,140
216,144,89543,1,0
160,192,89988,1,0
136,232,90210,2,0,B|136:232|174:287|245:268|363:237|408:296,1,280
472,336,91765,6,0,B|472:336|497:300|456:256,2,70
392,336,92876,1,2
320,336,93321,1,2
248,336,93765,1,2
200,336,93988,2,0,B|200:336|156:301|88:369|40:296,1,140
32,288,94654,1,0
48,192,95321,6,0,B|48:192|25:221|40:264,2,70
88,128,95988,1,2
144,80,96321,2,0,B|144:80|163:46|227:43|264:88,1,105
304,96,97099,1,0
344,120,97321,2,0,B|344:120|360:181|300:207|224:236|232:296,1,210
232,328,98210,1,2
320,312,98876,5,0
360,280,99099,2,0,B|360:280|405:266|392:208,1,70
384,184,99543,2,0,B|384:184|352:153|386:115|416:74|376:32,1,140
344,32,100210,2,0,B|344:32|264:16|204:32|139:35|84:76|60:124|72:192,1,350
72,240,101765,5,2
144,240,102210,5,0
144,240,102321,5,0
184,240,102543,5,0
184,240,102654,5,0
224,240,102876,5,0
224,240,102988,5,0
224,240,103099,5,2
256,304,103432,6,0,B|256:304|346:314|409:269|392:128,1,245
384,112,104432,2,0,B|384:112|355:53|307:25|256:19|204:44|160:112,1,280
112,184,105988,6,0,B|112:184|24:184,2,70
192,184,107099,2,0,B|192:184|215:211|255:193|298:175|328:216,1,140
384,248,107988,2,0,B|384:248|414:217|384:168,1,70
384,112,108654,2,0,B|384:112|373:65|320:64,1,80
240,40,109543,6,0,B|240:40|182:32|184:96,1,70
168,120,109988,1,2
152,168,110210,2,0,B|152:168|230:226|304:115|400:200,1,240
432,240,111321,1,2
416,288,111543,2,0,B|416:288|394:313|376:291|351:267|328:288,1,70
280,280,112210,2,0,B|280:280|270:295|222:264|208:296,1,70
144,320,113099,2,0,B|144:320|104:336|64:312,1,70
40,280,113543,1,2
40,232,113765,2,0,B|40:232|147:24|201:128|268:237|364:313|480:64,1,560
400,56,115988,5,2
328,56,116432,5,0
328,56,116543,5,0
288,56,116765,5,0
288,56,116876,5,0
248,56,117099,5,0
248,56,117210,5,0
248,56,117321,5,0
152,56,130888,5,0
112,80,131110,2,0,B|112:80|59:109|88:168,1,70
104,176,131555,2,0,B|104:176|180:216|224:180|266:139|352:176,1,245
408,200,132666,1,2
416,248,132888,2,0,B|416:248|305:342|257:227|128:304,1,280
56,264,134443,6,0,B|56:264|56:344,2,70
72,168,135555,1,0
96,104,135999,1,0
152,72,136443,1,0
200,72,136666,2,2,B|200:72|256:120|305:87|372:48|400:128,1,210
480,128,137999,6,0,B|480:128|480:40,2,70
480,176,138666,1,0
480,248,138999,2,0,B|480:248|431:279|401:259|345:240|292:206|242:217|205:238|168:264,1,315
144,288,140221,1,2
80,320,140666,2,0,B|80:320|43:302|56:240,1,70
48,160,141555,6,0,B|48:160|136:160,1,70
168,160,141999,1,0
216,160,142221,2,0,B|216:160|280:168|302:209|304:280,1,140
336,288,142888,2,0,B|336:288|423:285|464:181|461:104|378:53|296:40,1,350
216,40,144888,5,0
216,40,144999,5,0
176,40,145221,5,0
176,40,145332,5,0
136,40,145555,5,0
136,40,145666,5,0
136,40,145777,5,0
48,40,146221,6,0,B|48:40|48:200,1,140
48,272,147110,1,2
144,272,147555,1,0
240,272,147999,1,0
328,272,148443,2,2,L|328:272|400:272|400:168,1,140
400,112,149332,1,0
312,112,149777,1,0
224,112,150221,1,0
136,112,150666,2,2,L|136:112|72:112|72:200,1,140
72,280,151555,2,2,L|72:280|147:280|144:200,1,140
144,128,152443,5,0
144,128,152666,5,0
144,128,152888,5,0
152,32,153332,2,0,L|152:32|304:32,3,140
384,32,155110,2,0,L|384:32|456:31|456:104,1,140
456,192,155999,2,0,L|456:192|456:264|376:264,1,140
296,256,156888,2,2,L|296:256|296:168|296:112,2,140
296,352,158221,2,0,L|296:352|144:352,1,140
72,352,159110,5,0
72,352,159221,5,0
48,320,159443,5,0
48,320,159555,5,0
72,296,159777,5,0
72,296,159888,5,0
72,296,159999,5,0
72,224,160443,5,0
120,224,160666,2,0,B|120:224|161:189|186:255|256:208,1,140
296,192,161332,2,0,B|296:192|309:140|297:62|238:27|120:40,1,280
40,48,162888,6,0,B|40:48|15:84|56:128,2,70
120,48,163999,1,0
192,48,164443,1,0
264,48,164888,1,0
312,48,165110,2,0,B|312:48|356:83|424:15|472:88,1,140
480,96,165777,1,0
464,192,166443,6,0,B|464:192|487:163|472:120,2,70
424,256,167110,1,0
368,304,167443,2,0,B|368:304|349:338|285:341|248:296,1,105
208,288,168221,1,0
168,264,168443,2,0,B|168:264|152:203|212:177|288:148|280:88,1,210
280,56,169332,1,2
192,72,169999,5,0
160,104,170221,2,0,B|160:104|115:118|128:176,1,70
136,200,170666,2,0,B|136:200|168:231|134:269|104:310|144:352,1,140
168,352,171332,2,0,B|168:352|248:368|308:352|373:349|428:308|452:260|440:192,1,350
440,144,172888,5,2
368,144,173332,5,0
368,144,173443,5,0
328,144,173666,5,0
328,144,173777,5,0
288,144,173999,5,0
288,144,174110,5,0
288,144,174221,5,0
256,72,174555,6,0,B|256:72|174:70|111:115|128:256,1,240
128,272,175555,2,0,B|128:272|157:331|205:359|256:365|308:340|352:272,1,280
400,200,177110,6,0,B|400:200|488:200,2,70
323,199,178221,2,0,B|323:199|300:172|260:190|217:208|187:167,1,140
128,136,179110,2,0,B|128:136|98:167|120:216,1,70
128,272,179777,2,0,B|128:272|139:319|192:320,1,80
272,328,180666,6,0,B|272:328|330:336|328:272,1,70
352,256,181110,1,0
360,216,181332,2,0,B|360:216|282:158|208:269|128:192,1,210
88,144,182443,1,0
104,96,182666,2,0,B|104:96|126:71|144:93|169:117|192:96,1,70
240,104,183332,2,0,B|240:104|250:89|298:120|312:88,1,70
256,192,184221,12,0,188444
