osu file format v5

[General]
AudioFilename: Special Life.mp3
AudioLeadIn: 0
PreviewTime: -1
Countdown: 1
SampleSet: Normal

[Metadata]
Title:Special Life!
Artist:KOTOKO
Creator:James
Version:Hard

[Difficulty]
HPDrainRate:5
CircleSize:5
OverallDifficulty:5
SliderMultiplier:1.2
SliderTickRate:2

[Events]
//Background and Video events
0,0,"B.png"
//Break Periods
2,93405,100338
2,171071,188338
//Storyboard Layer 0 (Background)
//Storyboard Layer 1 (Failing)
//Storyboard Layer 2 (Passing)
//Storyboard Layer 3 (Foreground)
//Storyboard Sound Samples
//Background Colour Transformations
3,100,255,255,255

[TimingPoints]
2850,333.333333333333,4,1,0,100

[Colours]
Combo1 : 255,255,0
Combo2 : 5,240,5
Combo3 : 114,167,248
Combo4 : 240,5,5

[HitObjects]
184,40,26849,1,0
328,40,27516,1,2
256,160,28183,1,0
304,208,28516,1,2
256,256,28849,1,0
208,208,29183,1,2
136,208,29516,2,2,B|144:132|202:95|259:57|332:94|364:138|384:232,2,360
128,280,31849,1,2
184,328,32183,1,0
328,328,32850,1,2
256,200,33517,1,0
208,152,33850,1,2
256,104,34183,1,0
304,152,34517,1,2
384,128,34849,2,2,B|368:234|310:271|253:309|180:272|138:217|120:102,2,420
296,32,37516,5,2
224,32,37849,1,0
256,88,38183,1,2
256,88,38349,1,2
256,160,38683,1,0
256,160,38849,1,0
256,160,39016,1,0
256,232,39349,1,0
256,232,39516,1,2
224,296,39849,1,0
296,296,40183,1,2
400,296,40683,1,0
400,296,40849,2,2,B|392:208|370:124|257:96|169:117|125:188|120:304,1,480
24,192,42849,5,2
80,144,43183,1,0
128,192,43516,1,2
184,152,43849,1,2
184,152,44016,1,2
240,192,44349,1,2
296,152,44683,1,0
296,152,44849,1,2
344,200,45183,1,0
392,152,45516,1,2
488,200,46016,1,0
488,200,46183,2,2,B|268:344|8:184,1,480
64,56,48183,5,2
136,56,48516,1,0
208,56,48849,2,2,B|416:56,1,180
456,56,49683,1,0
456,128,50016,1,2
456,128,50183,1,2
384,128,50516,1,0
312,128,50849,1,2
200,128,51349,1,0
200,128,51516,2,2,B|72:128,5,120
80,200,53516,5,2
136,240,53849,1,0
192,200,54183,1,2
192,200,54349,1,2
248,240,54683,1,0
304,200,55016,1,2
360,240,55349,1,0
360,240,55516,1,2
416,200,55849,1,0
472,240,56183,1,2
472,128,56683,1,0
472,128,56849,2,2,B|416:300|288:277|241:184|278:96|147:55|60:92|24:240,1,600
24,296,58849,6,0,B|232:296,1,180
208,296,59516,1,0
320,208,60183,2,2,B|112:208,1,180
144,208,60849,1,2
216,128,61349,1,0
216,128,61516,2,0,B|424:128,1,180
400,128,62183,1,0
352,48,62683,1,0
352,48,62849,2,2,B|144:48,1,180
168,48,63516,1,2
176,192,64183,6,0,B|312:192,1,120
368,192,64849,1,0
368,264,65183,1,0
296,264,65516,2,0,B|152:264,1,120
176,336,66183,2,0,B|320:336,5,120
368,336,68183,2,2,B|448:336,3,60
464,216,69516,6,0,B|349:163|199:180|120:280,1,360
88,320,70849,2,0,B|205:340|294:304|315:203|256:104,1,360
224,48,72183,2,0,B|396:-26|521:121|472:264,2,420
152,48,74849,5,2
80,48,75183,1,2
32,104,75516,2,2,B|32:184,3,60
32,232,76349,1,0
32,304,76683,1,2
336,344,77516,2,0,B|480:344,1,120
456,272,78183,1,0
384,272,78516,2,0,B|240:272,3,120
184,240,79849,1,0
128,168,80183,6,0,B|194:124|264:120,1,120
240,120,80683,1,0
448,88,81516,2,2,B|382:55|320:56,1,120
336,56,82016,1,0
456,192,82849,2,0,B|380:136|280:136,1,180
216,136,83683,2,0,B|108:129|32:208,1,180
256,40,85516,2,2,B|151:52|66:131|68:235|128:304,1,360
256,352,86849,2,2,B|361:340|446:261|444:157|384:88,1,360
400,192,88183,6,0,B|72:192,2,300
256,192,90183,12,4,93183
144,88,101516,6,0,B|408:88,1,240
312,216,102849,2,2,B|184:216,3,120
216,352,104183,5,6
288,352,104516,1,0
256,296,104850,1,2
256,296,105016,1,2
256,224,105350,1,0
256,224,105516,1,0
256,224,105683,1,0
256,152,106016,1,0
256,152,106183,1,2
288,88,106516,1,0
216,88,106850,1,2
112,88,107350,1,0
112,88,107516,2,2,B|120:176|142:260|255:288|343:267|387:196|392:80,1,480
488,192,109516,5,2
432,240,109850,1,0
384,192,110183,1,2
328,232,110516,1,2
328,232,110683,1,2
272,192,111016,1,0
216,232,111350,1,0
216,232,111516,1,2
168,184,111850,1,0
120,232,112183,1,2
24,184,112683,1,0
24,184,112849,2,2,B|244:40|504:200,1,480
448,328,114850,5,2
376,328,115183,1,0
304,328,115516,2,2,B|96:328,1,180
56,328,116350,1,0
56,256,116683,1,2
56,256,116850,1,2
128,256,117183,1,0
200,256,117516,1,2
312,256,118016,1,0
312,256,118183,2,2,B|440:256,5,120
432,184,120183,5,2
376,144,120516,1,0
320,184,120850,1,2
320,184,121016,1,2
264,144,121350,1,0
208,184,121683,1,2
152,144,122016,1,0
152,144,122183,1,2
96,184,122516,1,0
40,144,122849,1,2
40,256,123350,1,0
40,256,123516,2,2,B|75:91|264:110|291:206|270:292|365:329|454:288|488:144,1,600
488,88,125516,6,0,B|280:88,1,180
304,88,126183,1,0
192,176,126850,2,2,B|400:176,1,180
368,176,127516,1,2
296,256,128016,1,0
296,256,128183,2,0,B|88:256,1,180
112,256,128850,1,0
160,336,129350,1,0
160,336,129516,2,2,B|368:336,1,180
344,336,130183,1,2
344,224,130683,5,0
344,224,130849,2,0,B|208:224,1,120
152,224,131515,1,0
152,152,131849,1,0
224,152,132182,2,0,B|368:152,1,120
344,80,132849,2,0,B|200:80,5,120
152,80,134850,2,2,B|72:80,3,60
48,168,136183,6,0,B|163:221|313:204|392:104,1,360
424,64,137516,2,0,B|307:44|218:80|197:181|256:280,1,360
288,336,138850,2,0,B|116:410|-9:263|40:120,2,420
360,336,141516,5,2
432,336,141850,1,0
480,280,142183,2,2,B|480:200,3,60
480,152,143016,1,0
480,80,143350,1,2
176,40,144183,2,0,B|32:40,1,120
56,112,144850,1,0
128,112,145183,2,0,B|272:112,3,120
336,144,146516,1,0
408,208,146849,6,0,B|357:252|272:248,1,120
296,248,147350,1,0
64,296,148183,2,2,B|130:329|192:328,1,120
176,328,148683,1,2
56,192,149516,2,0,B|132:248|232:248,1,180
296,248,150350,2,0,B|404:255|480:176,1,180
256,352,152183,2,2,B|361:340|446:261|444:157|384:88,1,360
256,40,153516,2,2,B|151:52|66:131|68:235|128:304,1,360
128,192,154849,2,0,B|392:192,2,240
256,192,156850,12,0,159850
256,192,160183,1,0
256,48,160849,1,2
400,48,161516,1,0
448,96,161849,1,2
392,144,162183,1,0
448,184,162516,1,2
440,256,162849,2,2,B|64:256,1,360
80,328,164183,2,2,B|456:328,1,360
440,256,165516,1,0
296,256,166183,1,2
152,256,166849,1,0
104,200,167183,1,2
152,144,167516,1,0
104,88,167849,1,2
160,40,168183,2,2,B|304:40,1,120
312,104,168849,2,2,B|168:104,2,120
256,192,169849,12,4,170849
256,192,189516,12,0,191849
96,216,192183,2,0,C|98:121|208:128,1,180
182,126,192849,1,0
248,144,193183,1,2
240,216,193516,2,0,C|242:311|352:304,1,180
326,306,194182,1,0
392,288,194516,1,2
400,216,194849,2,0,C|398:121|288:128,1,180
316,125,195515,1,0
248,136,195849,1,2
248,208,196183,2,0,C|246:303|136:296,1,180
166,298,196849,1,0
96,280,197183,1,2
88,208,197516,2,0,C|90:113|200:120,1,180
170,118,198182,1,0
240,120,198516,1,2
312,120,198849,2,0,C|407:122|400:232,1,180
402,202,199515,1,0
256,192,199849,12,0,202516
368,192,202849,2,0,B|352:112,1,60
344,88,203183,2,0,B|280:64,1,60
272,112,203516,2,0,B|256:192,1,60
248,216,203849,2,0,B|184:160,1,60
168,144,204183,2,0,B|120:97|40:120,3,120
32,208,205516,2,0,B|15:268|56:352,1,120
80,296,206016,2,0,B|152:216|273:186|392:256,2,330
56,48,208183,5,2
120,120,208516,1,0
200,72,208849,1,2
240,104,209016,1,0
280,72,209183,1,2
320,104,209349,1,0
400,48,209683,1,2
464,120,210016,1,0
480,336,210849,2,0,B|344:336,1,120
264,336,211516,1,2
216,336,211683,1,0
168,336,211849,1,2
120,336,212016,2,2,B|8:342|-33:295|104:200,1,240
256,104,213349,5,0
304,96,213516,2,0,B|376:80,1,60
408,80,213849,1,0
456,72,214016,2,0,B|505:262|304:296,1,300
272,296,215016,1,0
224,304,215183,1,0
176,312,215349,2,0,B|40:336|5:200|88:88,1,300
112,128,216349,1,0
152,112,216516,1,0
200,112,216683,2,0,B|264:114|312:168,1,120
344,192,217183,1,0
392,192,217349,1,0
440,176,217516,2,0,B|344:144|256:137|193:210|72:160,1,360
112,72,218849,5,0
160,80,219016,2,0,B|232:88,1,60
264,96,219349,2,0,B|156:173|188:303|328:296,1,300
368,296,220349,1,0
416,288,220516,1,0
464,272,220683,2,0,B|379:234|368:166|424:112,1,180
312,112,221516,2,0,B|246:132|184:96,1,120
152,80,222016,2,0,B|184:139|128:200,1,120
112,232,222516,2,0,B|168:264,1,60
208,280,222849,1,0
256,192,223516,12,0,226516
256,192,226849,1,4
