osu file format v5

[General]
AudioFilename: Special Life.mp3
AudioLeadIn: 0
PreviewTime: -1
Countdown: 1
SampleSet: Normal

[Metadata]
Title:Special Life!
Artist:KOTOKO
Creator:James
Version:EZ MODE

[Difficulty]
HPDrainRate:4
CircleSize:4
OverallDifficulty:4
SliderMultiplier:1.2
SliderTickRate:2

[Events]
//Background and Video events
0,0,"B.png"
//Break Periods
2,93383,102863
2,171049,190863
//Storyboard Layer 0 (Background)
//Storyboard Layer 1 (Failing)
//Storyboard Layer 2 (Passing)
//Storyboard Layer 3 (Foreground)
//Storyboard Sound Samples
//Background Colour Transformations
3,100,255,255,255

[TimingPoints]
2850,333.333333333333,4,1,0,100

[Colours]
Combo1 : 255,255,0
Combo2 : 5,240,5
Combo3 : 114,167,248
Combo4 : 240,5,5

[HitObjects]
72,56,37516,1,0
192,56,38183,1,0
312,56,38849,1,0
432,56,39516,1,2
432,56,39849,1,0
432,56,40183,1,2
432,176,40849,1,2
440,344,42849,5,0
320,344,43516,1,0
200,344,44183,1,0
80,344,44849,1,2
80,344,45183,1,0
80,344,45516,1,2
80,224,46183,1,2
200,192,48183,6,2,B|336:192,10,120
80,72,53516,6,0,B|448:72,1,360
440,128,54849,2,0,B|72:128,1,360
72,184,56183,2,0,B|464:184,1,360
416,320,58849,5,0
168,320,59516,1,0
168,168,60183,1,2
328,216,60849,1,2
40,336,61516,5,0
120,120,62183,1,0
360,88,62849,1,2
424,240,63516,1,2
112,240,64183,5,0
168,64,64849,1,0
440,128,65516,1,2
288,280,66183,1,2
256,224,66516,1,0
224,176,66849,1,2
464,72,68183,6,0,B|464:160,3,60
464,280,69516,5,2
424,328,69849,1,2
384,280,70183,1,2
344,328,70516,1,2
304,280,70849,1,2
264,328,71183,1,2
224,280,71516,1,2
184,328,71849,1,2
144,280,72183,1,2
104,328,72516,1,2
64,280,72849,1,2
24,40,74849,6,0,B|160:40,1,120
200,40,75516,2,0,B|328:40,1,120
376,40,76183,2,0,B|504:40,2,120
376,160,77516,2,0,B|376:288,1,120
312,280,78183,2,0,B|176:280,4,120
88,120,80183,5,0
344,144,81516,1,0
112,280,82849,1,0
376,296,84183,1,0
240,96,85516,1,0
440,168,86849,1,0
96,144,88183,1,0
320,280,89516,1,0
256,192,90183,12,0,93183
64,72,104183,6,0,B|208:72,1,120
184,128,104849,2,0,B|56:128,1,120
64,184,105516,2,0,B|208:184,1,120
184,240,106183,2,2,B|48:240,1,120
64,296,106849,2,2,B|208:296,2,120
448,312,109516,6,0,B|304:312,1,120
328,256,110182,2,0,B|456:256,1,120
448,200,110849,2,0,B|304:200,1,120
328,144,111516,2,2,B|464:144,1,120
448,88,112182,2,2,B|304:88,2,120
88,56,114849,5,0
88,176,115516,1,0
208,176,116183,1,0
208,296,116849,1,0
328,296,117516,1,0
448,296,118183,2,2,B|480:123|384:27|229:22|8:40,1,600
72,80,120183,5,2
120,112,120516,1,0
168,144,120849,1,2
216,176,121183,1,0
264,208,121516,1,2
312,240,121849,1,0
360,272,122183,1,2
408,304,122516,1,0
456,336,122849,2,2,B|312:336,7,120
272,336,125516,5,0
152,336,126183,1,0
64,248,126849,1,2
40,128,127516,1,2
112,32,128183,5,0
200,112,128849,1,0
296,40,129516,1,2
384,120,130183,1,2
472,40,130849,5,0
360,88,131516,1,0
304,192,132183,1,2
280,312,132849,1,2
400,312,133516,2,0,B|32:312,2,360
424,192,136183,5,2
376,152,136516,1,2
336,192,136849,1,2
296,232,137183,1,2
248,192,137516,1,2
208,152,137849,1,2
160,192,138183,1,2
120,232,138516,1,2
72,192,138849,1,2
32,144,139183,2,2,B|188:-148|332:405|512:48,1,600
384,40,141516,5,0
352,248,142183,1,0
120,272,142849,1,2
80,224,143183,1,0
40,176,143516,1,2
272,320,144183,1,0
216,128,144849,1,0
424,224,145516,2,2,B|152:224,1,240
88,152,146849,5,0
320,88,148183,1,0
424,304,149516,2,2,B|280:304,4,120
80,312,152183,1,0
152,176,153516,1,0
344,248,154849,2,2,B|480:248,4,120
224,360,156849,6,0,B|116:353|9:280|14:164|38:51|124:-12|246:-56|345:-9|432:39|484:121|502:192|459:312|392:344|256:360,1,1080
256,304,160183,5,0
256,184,160849,1,0
192,80,161516,2,2,B|328:80,3,120
368,80,162849,2,0,B|468:197|408:312|224:336,1,360
192,320,164183,2,0,B|92:203|152:88|336:64,1,360
368,64,165516,1,0
456,144,166183,1,0
368,224,166849,1,2
416,264,167183,1,2
368,304,167516,1,2
416,344,167849,1,2
464,304,168183,2,0,B|24:304,1,420
256,192,169849,12,0,170849
200,64,192183,2,0,B|56:64,2,120
200,184,193516,2,2,B|64:184,2,120
200,304,194849,2,0,B|56:304,2,120
320,304,196183,2,2,B|448:304,2,120
320,184,197516,2,0,B|464:184,2,120
320,64,198849,2,2,B|464:64,4,120
256,296,201516,2,0,B|256:216,3,60
144,56,202849,6,0,B|400:56,5,240
80,336,208183,5,2
136,336,208516,1,0
192,336,208849,1,2
248,336,209183,1,0
304,336,209516,1,2
360,336,209849,1,2
416,336,210183,1,2
416,216,210849,5,2
360,216,211182,1,0
304,216,211515,1,2
248,216,211849,1,0
192,216,212182,1,2
136,216,212515,1,0
80,216,212849,1,2
80,96,213516,6,2,B|80:176,3,60
80,304,214849,2,0,B|144:304,3,60
288,304,216183,2,2,B|360:304,8,60
432,112,218849,2,2,B|352:112,3,60
224,112,220183,2,0,B|136:112,3,60
24,208,221516,2,2,B|512:208,1,480
256,192,223516,12,0,226849
