osu file format v12

[General]
AudioFilename: Shana.mp3
AudioLeadIn: 3000
PreviewTime: 51105
Countdown: 0
SampleSet: Soft
StackLeniency: 0.4
Mode: 0
LetterboxInBreaks: 1
WidescreenStoryboard: 0

[Editor]
Bookmarks: 51211
DistanceSpacing: 1
BeatDivisor: 4
GridSize: 16

[Metadata]
Title:Sociometry (TV Size)
TitleUnicode:Sociometry (TV Size)
Artist:KOTOKO
ArtistUnicode:KOTOKO
Creator:mayosiiiiii
Version:Normal
Source:Shakugan no Shana II (second)
Tags:kioukiou ending
BeatmapID:160209
BeatmapSetID:52402

[Difficulty]
HPDrainRate:3
CircleSize:4
OverallDifficulty:4
ApproachRate:4
SliderMultiplier:1
SliderTickRate:2

[Events]
//Background and Video events
0,0,"bg.jpg",0,0
//Break Periods
//Storyboard Layer 0 (Background)
//Storyboard Layer 1 (Fail)
//Storyboard Layer 2 (Pass)
//Storyboard Layer 3 (Foreground)
//Storyboard Sound Samples
//Background Colour Transformations
3,100,53,154,255

[TimingPoints]
7267,422.535211267606,4,2,0,60,1,0
22478,-100,4,2,0,80,0,0
34309,-100,4,1,0,71,0,0
35999,-100,4,2,0,80,0,0
49521,-100,4,1,0,5,0,0
51211,-100,4,1,0,71,0,1
57971,-100,4,1,0,71,0,0
64732,-100,4,1,0,71,0,1
71914,-100,4,1,0,71,0,0

[Colours]
Combo1 : 255,255,255
Combo2 : 234,36,96
Combo3 : 255,255,106

[HitObjects]
88,200,7267,2,0,B|39:131|94:51|145:4|231:44|265:79,1,300
312,152,8957,1,0,0:0:0:0:
408,112,9380,1,0,0:0:0:0:
312,152,9802,1,0,0:0:0:0:
408,112,10225,1,0,0:0:0:0:
440,208,10647,6,0,B|432:360|352:360|256:352|224:304,1,300
235,316,12126,1,0,0:0:0:0:
235,316,12337,1,0,0:0:0:0:
136,288,12760,1,0,0:0:0:0:
200,208,13183,1,0,0:0:0:0:
104,176,13605,1,0,0:0:0:0:
160,88,14028,6,0,B|248:32|352:56|376:120|392:136,1,250
424,216,15507,1,0,0:0:0:0:
424,216,15718,2,0,B|344:224|320:272|328:320,1,150
326,307,16563,2,0,B|224:336,1,100
128,328,17408,6,0,B|40:312|24:232|64:152,1,200,0|0,0:0|0:0,0:0:0:0:
152,200,18676,1,0,0:0:0:0:
152,200,19098,2,0,B|312:80|264:280|432:136,1,300
256,192,20788,12,4,22478,0:0:0:0:
120,72,22901,5,2,0:0:0:0:
64,160,23323,1,0,0:0:0:0:
152,216,23746,1,2,0:0:0:0:
152,216,24168,2,0,B|168:320,2,100,0|2|0,0:0|0:0|0:0,0:0:0:0:
208,128,25436,1,2,0:0:0:0:
280,200,25859,6,0,B|394:279|488:224|480:96,1,300,0|2,0:0|0:0,0:0:0:0:
400,40,27549,1,0,0:0:0:0:
304,80,27971,1,2,0:0:0:0:
400,40,28394,1,0,0:0:0:0:
304,80,28816,1,2,0:0:0:0:
384,136,29239,6,0,B|448:208|416:320|328:336|256:304,1,300
184,240,30929,2,0,B|136:352,3,100,0|2|0|2,0:0|0:0|0:0|0:0,0:0:0:0:
64,272,32619,6,0,B|-3:206|4:116|39:52|128:32,1,300,0|2,0:0|0:0,0:0:0:0:
208,88,34309,1,0,0:0:0:0:
152,176,34732,1,0,0:0:0:0:
240,224,35154,2,0,B|264:312,2,75
240,224,35999,6,0,B|272:128|368:144,1,150,4|0,0:0|0:0,0:0:0:0:
350,141,36845,1,0,0:0:0:0:
432,200,37267,1,2,0:0:0:0:
488,112,37690,2,0,B|472:32|376:24,1,150
380,24,38535,1,0,0:0:0:0:
336,112,38957,1,2,0:0:0:0:
248,64,39380,6,0,B|340:72,2,75,0|0|0,0:0|0:0|0:0,0:0:0:0:
248,64,40225,2,0,B|266:146,2,75,0|0|0,0:0|0:0|0:0,0:0:0:0:
248,64,41070,2,0,B|170:116,2,75,0|0|0,0:0|0:0|0:0,0:0:0:0:
248,64,41915,1,0,0:0:0:0:
272,160,42337,5,2,0:0:0:0:
272,160,42760,2,0,B|240:256|144:240,1,150,4|0,0:0|0:0,0:0:0:0:
161,242,43605,1,0,0:0:0:0:
80,184,44028,1,2,0:0:0:0:
24,272,44451,2,0,B|40:352|136:360,1,150
132,360,45296,1,0,0:0:0:0:
176,272,45718,1,2,0:0:0:0:
264,320,46141,6,0,B|171:311,2,75,0|0|0,0:0|0:0|0:0,0:0:0:0:
264,320,46986,2,0,B|245:237,2,75,0|0|0,0:0|0:0|0:0,0:0:0:0:
264,320,47831,2,0,B|341:267,2,75,0|0|0,0:0|0:0|0:0,0:0:0:0:
264,320,48676,1,0,0:0:0:0:
240,224,49098,1,2,0:0:0:0:
256,192,49521,12,0,50788,0:0:0:0:
464,216,51211,6,0,B|457:306|406:361|326:364|248:288,1,300,4|0,0:0|0:0,0:0:0:0:
232,192,52901,2,0,B|192:112|104:128,1,150
109,127,53746,1,0,0:0:0:0:
16,168,54168,1,8,0:0:0:0:
64,256,54591,6,0,B|120:344|216:384|344:304,1,300
288,224,56281,2,0,B|201:272|142:194,2,150,0|0|8,0:0|0:0|0:0,0:0:0:0:
360,152,57971,6,0,B|384:248,1,100,4|0,0:0|0:0,0:0:0:0:
488,256,58816,2,0,B|368:232|312:352,1,200
240,272,60084,1,0,0:0:0:0:
240,272,60507,2,0,B|288:168|408:160,1,200
392,312,61985,5,0,0:0:0:0:
464,176,62619,1,0,0:0:0:0:
392,248,63042,1,0,0:0:0:0:
288,248,63464,1,0,0:0:0:0:
184,248,63887,1,0,0:0:0:0:
80,248,64309,1,0,0:0:0:0:
32,160,64732,6,0,B|48:64|99:14|159:8|256:48,1,300,4|0,0:0|0:0,0:0:0:0:
296,136,66422,2,0,B|336:216|440:200,1,150
419,202,67267,1,0,0:0:0:0:
496,136,67690,1,8,0:0:0:0:
440,48,68112,6,0,B|328:72,1,100
264,128,68957,2,0,B|376:104,1,100
448,160,69802,2,0,B|512:208|472:304,1,150
475,295,70647,2,0,B|352:264|288:368,1,200,0|4,0:0|0:0,0:0:0:0:
224,288,71915,5,0,0:0:0:0:
224,288,72337,2,0,B|286:197|396:193,1,200
424,96,73605,1,0,0:0:0:0:
424,96,74028,2,0,B|312:80|229:144,1,200,0|0,0:0|0:0,0:0:0:0:
136,256,75506,5,0,0:0:0:0:
40,224,75928,1,0,0:0:0:0:
104,144,76351,1,0,0:0:0:0:
104,144,76563,2,0,B|200:-16|424:32,1,350,0|0,0:0|0:0,0:0:0:0:
408,28,78253,1,0,0:0:0:0:
256,192,78359,8,4,81633,0:0:0:0:
