osu file format v14

[General]
AudioFilename: Shana.mp3
AudioLeadIn: 3000
PreviewTime: 51105
Countdown: 0
SampleSet: Soft
StackLeniency: 0.4
Mode: 0
LetterboxInBreaks: 1
WidescreenStoryboard: 0

[Editor]
Bookmarks: 51211
DistanceSpacing: 1
BeatDivisor: 4
GridSize: 16
TimelineZoom: 1

[Metadata]
Title:Sociometry (TV Size)
TitleUnicode:Sociometry (TV Size)
Artist:KOTOKO
ArtistUnicode:KOTOKO
Creator:mayosiiiiii
Version:Insane
Source:Shakugan no Shana II (second)
Tags:kioukiou ending
BeatmapID:160529
BeatmapSetID:52402

[Difficulty]
HPDrainRate:8
CircleSize:5
OverallDifficulty:8
ApproachRate:8
SliderMultiplier:2
SliderTickRate:2

[Events]
//Background and Video events
0,0,"bg.jpg",0,0
//Break Periods
//Storyboard Layer 0 (Background)
//Storyboard Layer 1 (Fail)
//Storyboard Layer 2 (Pass)
//Storyboard Layer 3 (Foreground)
//Storyboard Sound Samples

[TimingPoints]
7267,422.535211267606,4,2,0,70,1,0
19203,-100,4,2,0,5,0,0
20788,-100,4,1,0,60,0,0
22478,-100,4,2,0,80,0,0
34520,-100,4,1,0,71,0,0
35999,-100,4,2,0,80,0,0
36316,-100,4,1,0,71,0,0
37267,-100,4,2,0,80,0,0
37478,-100,4,1,0,71,0,0
39168,-100,4,2,0,80,0,0
39379,-100,4,1,0,71,0,0
42337,-100,4,2,0,80,0,0
42548,-100,4,1,0,71,0,0
42759,-100,4,2,0,80,0,0
43076,-100,4,1,0,71,0,0
44027,-100,4,2,0,80,0,0
44238,-100,4,1,0,71,0,0
45928,-100,4,2,0,80,0,0
46140,-100,4,1,0,71,0,0
48781,-100,4,2,0,5,0,0
49520,-100,4,1,0,50,0,0
51211,-83.3333333333333,4,1,0,80,0,1
57971,-83.3333333333333,4,1,0,80,0,0
64732,-83.3333333333333,4,1,0,80,0,1
71492,-83.3333333333333,4,1,0,80,0,0
76562,-200,4,1,0,80,0,0
76774,-200,4,1,0,5,0,0
76985,-200,4,1,0,80,0,0
77196,-200,4,1,0,5,0,0
77407,-200,4,1,0,80,0,0
77619,-200,4,1,0,5,0,0
77830,-200,4,1,0,80,0,0
81633,-100,4,2,0,80,0,0
81844,-100,4,1,0,70,0,0
82055,-100,4,2,0,80,0,0
82478,-100,4,1,0,70,0,0
82900,-100,4,2,0,80,0,0
83112,-100,4,1,0,70,0,0
83745,-100,4,2,0,80,0,0
84168,-100,4,1,0,70,0,0
84802,-100,4,2,0,80,0,0
85013,-100,4,1,0,70,0,0
85436,-100,4,2,0,80,0,0
85858,-100,4,1,0,70,0,0
86175,-100,4,2,0,80,0,0
86386,-100,4,1,0,70,0,0
87126,-100,4,2,0,80,0,0
87548,-100,4,1,0,70,0,0
87971,-100,4,2,0,80,0,0
88182,-100,4,1,0,70,0,0
88393,-100,4,2,0,80,0,0
88605,-100,4,1,0,70,0,0
88816,-100,4,2,0,80,0,0
89027,-100,4,1,0,70,0,0
89238,-100,4,2,0,80,0,0
89450,-100,4,1,0,70,0,0
89872,-100,4,2,0,80,0,0
90083,-100,4,1,0,70,0,0
90506,-100,4,2,0,80,0,0
90717,-100,4,1,0,70,0,0
90929,-100,4,2,0,80,0,0
91140,-100,4,1,0,70,0,0
91562,-100,4,2,0,80,0,0
91985,-100,4,1,0,70,0,0
92407,-100,4,2,0,80,0,0
92830,-100,4,1,0,70,0,0
93253,-100,4,2,0,80,0,0
93675,-100,4,1,0,60,0,0

[Colours]
Combo1 : 255,255,255
Combo2 : 234,36,96
Combo3 : 255,255,106

[HitObjects]
56,48,7267,5,0,0:0:0:0:
192,104,7690,1,0,0:0:0:0:
328,24,8112,1,0,0:0:0:0:
464,80,8535,1,0,0:0:0:0:
456,208,8957,1,0,0:0:0:0:
312,240,9380,1,0,0:0:0:0:
192,160,9802,1,0,0:0:0:0:
49,198,10225,1,0,0:0:0:0:
32,328,10647,5,0,0:0:0:0:
176,360,11070,1,0,0:0:0:0:
304,288,11492,1,0,0:0:0:0:
448,328,11915,1,0,0:0:0:0:
464,256,12126,1,0,0:0:0:0:
480,184,12337,1,0,0:0:0:0:
328,144,12760,1,0,0:0:0:0:
192,224,13183,1,0,0:0:0:0:
48,168,13605,1,0,0:0:0:0:
88,48,14028,6,0,B|304:72,3,200
432,176,15718,2,0,B|216:200,3,200
88,304,17408,2,0,B|304:328,3,200
376,336,18887,1,0,0:0:0:0:
376,336,19098,1,0,0:0:0:0:
256,192,19204,12,0,20366,0:0:0:0:
352,304,20788,5,0,0:0:0:0:
320,296,20894,1,0,0:0:0:0:
304,272,20999,1,0,0:0:0:0:
240,224,21211,1,0,0:0:0:0:
240,224,21316,2,0,B|192:232|192:232|168:288,1,100
136,312,21633,1,0,0:0:0:0:
100,304,21739,1,0,0:0:0:0:
76,276,21845,1,0,0:0:0:0:
64,240,21950,1,0,0:0:0:0:
68,208,22056,1,0,0:0:0:0:
68,208,22161,1,0,0:0:0:0:
132,128,22373,5,0,0:0:0:0:
132,128,22478,2,0,B|242:176|170:296,2,200,4|2|0,0:0|0:0|0:0,0:0:0:0:
68,208,23535,1,0,0:0:0:0:
168,256,23746,2,0,B|192:360,1,100,2|0,0:0|0:0,0:0:0:0:
296,328,24168,2,0,B|440:384|448:232,2,200,0|2|0,0:0|0:0|0:0,0:0:0:0:
204,268,25225,1,0,0:0:0:0:
304,224,25436,2,0,B|328:128,1,100,2|0,0:0|0:0,0:0:0:0:
408,48,25859,6,0,B|472:108|472:108|436:240,2,200,0|2|0,0:0|0:0|0:0,0:0:0:0:
320,132,26915,1,0,0:0:0:0:
224,60,27126,1,2,0:0:0:0:
156,160,27337,1,0,0:0:0:0:
156,160,27549,2,0,B|60:128|60:128|32:24,2,200,0|2|0,0:0|0:0|0:0,0:0:0:0:
252,108,28605,1,0,0:0:0:0:
252,108,28711,1,0,0:0:0:0:
252,108,28816,2,0,B|284:212,1,100,2|0,0:0|0:0,0:0:0:0:
400,208,29239,6,0,B|192:280,1,200,0|2,0:0|0:0,0:0:0:0:
40,184,29873,2,0,B|256:112,1,200
376,48,30507,1,2,0:0:0:0:
376,48,30718,1,0,0:0:0:0:
456,172,30929,2,0,B|248:116,1,200,0|2,0:0|0:0,0:0:0:0:
84,208,31563,1,0,0:0:0:0:
84,208,31774,2,0,B|292:264,1,200,0|2,0:0|0:0,0:0:0:0:
432,284,32408,5,0,0:0:0:0:
432,284,32514,1,0,0:0:0:0:
432,284,32619,2,0,B|536:164|440:44|367:46,1,300,0|2,0:0|0:0,0:0:0:0:
296,136,33464,2,0,B|272:232,1,100
168,256,33887,2,0,B|136:368,1,100,0|2,0:0|0:0,0:0:0:0:
44,284,34309,5,0,0:0:0:0:
68,188,34521,1,0,0:0:0:0:
92,92,34732,1,0,0:0:0:0:
224,176,35154,1,0,0:0:0:0:
224,176,35260,1,2,0:0:0:0:
312,224,35471,1,0,0:0:0:0:
352,136,35683,1,0,0:0:0:0:
352,136,35788,1,2,0:0:0:0:
448,192,35999,6,0,B|404:224|404:224|436:320,2,150,4|0|0,0:0|0:0|0:0,0:0:0:0:
352,136,36845,1,0,0:0:0:0:
312,224,37056,1,0,0:0:0:0:
224,176,37267,1,2,0:0:0:0:
264,88,37478,1,0,0:0:0:0:
352,136,37690,6,0,B|398:36|398:36|344:56,2,150,0|0|0,0:0|0:0|0:0,0:0:0:0:
264,88,38535,1,0,0:0:0:0:
264,88,38746,1,0,0:0:0:0:
176,152,38957,1,0,0:0:0:0:
176,152,39168,1,2,0:0:0:0:
72,112,39380,6,0,B|-8:256,2,150,0|0|0,0:0|0:0|0:0,0:0:0:0:
149,205,40225,2,0,B|197:381,2,150,0|0|0,0:0|0:0|0:0,0:0:0:0:
274,216,41070,2,0,B|410:304,2,150,0|0|0,0:0|0:0|0:0,0:0:0:0:
264,96,41915,1,0,0:0:0:0:
460,160,42126,1,0,0:0:0:0:
264,96,42337,1,2,0:0:0:0:
460,160,42548,1,0,0:0:0:0:
392,52,42760,6,0,B|360:112|360:112|404:212,2,150,4|0|0,0:0|0:0|0:0,0:0:0:0:
444,280,43605,2,0,B|324:308,1,100
248,256,44028,2,0,B|152:280,1,100,2|0,0:0|0:0,0:0:0:0:
44,304,44450,6,0,B|4:232|4:232|20:152,2,150
136,256,45295,2,0,B|248:280,1,100
316,336,45718,2,0,B|428:360,1,100,0|2,0:0|0:0,0:0:0:0:
488,272,46140,5,0,0:0:0:0:
320,116,46457,1,0,0:0:0:0:
308,336,46774,1,0,0:0:0:0:
376,232,46985,5,0,0:0:0:0:
144,352,47302,1,0,0:0:0:0:
192,128,47619,1,0,0:0:0:0:
224,276,47830,5,0,0:0:0:0:
16,172,48147,1,0,0:0:0:0:
248,32,48464,1,0,0:0:0:0:
248,32,48676,1,0,0:0:0:0:
256,192,48781,12,4,49521,0:0:0:0:
256,352,51211,5,4,0:0:0:0:
160,280,51422,1,0,0:0:0:0:
240,192,51633,1,8,0:0:0:0:
336,264,51845,1,0,0:0:0:0:
256,352,52056,2,0,B|144:264|229:129,1,240.000005722046,0|8,0:0|0:0,0:0:0:0:
356,148,52690,1,0,0:0:0:0:
424,48,52901,2,0,B|488:104|488:104|456:216,2,180.000004291535,0|0|0,0:0|0:0|0:0,0:0:0:0:
356,148,53746,5,0,0:0:0:0:
112,80,53957,1,0,0:0:0:0:
356,148,54168,1,8,0:0:0:0:
112,80,54379,1,0,0:0:0:0:
48,180,54591,5,0,0:0:0:0:
48,180,54802,1,0,0:0:0:0:
168,200,55014,1,8,0:0:0:0:
168,200,55225,1,0,0:0:0:0:
284,224,55436,2,0,B|460:256,1,180.000004291535
460,256,55859,2,0,B|476:208|476:208|428:144,1,120.000002861023,8|0,0:0|0:0,0:0:0:0:
352,48,56281,6,0,B|304:248,2,180.000004291535
236,112,57126,1,0,0:0:0:0:
236,112,57232,1,2,0:0:0:0:
130,52,57443,1,0,0:0:0:0:
130,52,57549,1,8,0:0:0:0:
65,159,57760,1,2,0:0:0:0:
172,224,57971,1,4,0:0:0:0:
352,336,58288,5,0,0:0:0:0:
360,312,58394,1,0,0:0:0:0:
472,280,58605,1,0,0:0:0:0:
472,280,58711,1,0,0:0:0:0:
472,280,58816,2,0,B|456:164|332:184,1,180.000004291535,0|0,0:0|0:0,0:0:0:0:
347,181,59239,1,8,0:0:0:0:
296,288,59450,1,0,0:0:0:0:
184,256,59661,5,0,0:0:0:0:
72,224,59873,1,0,0:0:0:0:
72,224,59978,1,0,0:0:0:0:
144,128,60190,1,0,0:0:0:0:
144,128,60295,1,0,0:0:0:0:
40,72,60507,2,0,B|160:128|216:8,1,180.000004291535
198,38,60929,1,8,0:0:0:0:
296,104,61140,1,0,0:0:0:0:
404,48,61352,6,0,B|510:107|514:212|469:308|391:377,1,360.000008583069,0|0,0:0|0:0,0:0:0:0:
216,272,62408,1,0,0:0:0:0:
136,272,62619,1,0,0:0:0:0:
56,272,62830,1,0,0:0:0:0:
16,184,63042,5,4,0:0:0:0:
96,184,63253,1,0,0:0:0:0:
176,184,63464,1,4,0:0:0:0:
256,184,63676,1,0,0:0:0:0:
336,184,63887,1,0,0:0:0:0:
336,184,63992,1,2,0:0:0:0:
416,184,64204,1,0,0:0:0:0:
416,184,64309,1,0,0:0:0:0:
496,184,64521,1,2,0:0:0:0:
432,80,64732,5,4,0:0:0:0:
320,136,64943,1,0,0:0:0:0:
384,248,65154,1,8,0:0:0:0:
496,184,65366,1,0,0:0:0:0:
432,80,65577,2,0,B|360:-32|200:40,1,240.000005722046,0|8,0:0|0:0,0:0:0:0:
156,136,66211,1,0,0:0:0:0:
48,84,66422,2,0,B|16:160|16:160|80:260,2,180.000004291535
156,136,67267,5,0,0:0:0:0:
416,164,67478,1,0,0:0:0:0:
156,136,67690,1,8,0:0:0:0:
416,164,67901,1,0,0:0:0:0:
440,280,68112,5,0,0:0:0:0:
344,352,68323,1,0,0:0:0:0:
224,360,68535,1,8,0:0:0:0:
128,288,68746,1,0,0:0:0:0:
96,176,68957,1,0,0:0:0:0:
144,64,69168,1,0,0:0:0:0:
248,8,69380,1,8,0:0:0:0:
368,32,69591,1,0,0:0:0:0:
440,128,69802,6,0,B|240:168,2,180.000004291535
424,232,70647,1,0,0:0:0:0:
424,232,70753,1,2,0:0:0:0:
320,248,70964,1,0,0:0:0:0:
320,248,71070,1,8,0:0:0:0:
216,264,71281,1,2,0:0:0:0:
216,264,71492,5,4,0:0:0:0:
416,352,71915,1,0,0:0:0:0:
488,152,72337,2,0,B|443:3|293:79,1,240.000005722046,0|8,0:0|0:0,0:0:0:0:
224,176,72971,2,0,B|200:112,2,60.0000014305115
448,96,73499,1,0,0:0:0:0:
448,328,73816,1,0,0:0:0:0:
448,328,74028,2,0,B|294:395|254:219,1,240.000005722046,0|8,0:0|0:0,0:0:0:0:
104,224,74661,5,0,0:0:0:0:
104,224,74767,1,0,0:0:0:0:
104,224,74873,2,0,B|344:192,1,240.000005722046,4|0,0:0|0:0,0:0:0:0:
456,32,75507,2,0,B|216:64,1,240.000005722046,0|0,0:0|0:0,0:0:0:0:
32,192,76140,2,0,B|168:168,1,120.000002861023,0|0,0:0|0:0,0:0:0:0:
256,32,76563,6,0,B|344:112|248:192|160:232|256:360,1,350,0|0,0:0|0:0,0:0:0:0:
247,348,78253,1,0,0:0:0:0:
256,192,78358,12,0,81210,0:0:0:0:
40,112,81633,5,4,0:0:0:0:
56,184,81844,1,0,0:0:0:0:
72,256,82055,1,2,0:0:0:0:
200,344,82478,1,0,0:0:0:0:
200,344,82583,1,0,0:0:0:0:
184,272,82795,1,0,0:0:0:0:
184,272,82900,1,2,0:0:0:0:
256,296,83112,1,0,0:0:0:0:
256,296,83323,5,0,0:0:0:0:
328,288,83534,1,0,0:0:0:0:
400,280,83745,1,2,0:0:0:0:
488,152,84168,1,0,0:0:0:0:
416,160,84379,1,0,0:0:0:0:
416,160,84485,1,0,0:0:0:0:
344,168,84696,1,0,0:0:0:0:
344,168,84802,1,2,0:0:0:0:
288,112,85013,5,0,0:0:0:0:
272,184,85224,1,0,0:0:0:0:
256,256,85436,1,2,0:0:0:0:
120,344,85858,1,0,0:0:0:0:
136,272,86069,1,0,0:0:0:0:
136,272,86175,1,2,0:0:0:0:
64,296,86386,1,0,0:0:0:0:
64,296,86492,1,0,0:0:0:0:
64,296,86703,5,0,0:0:0:0:
48,208,87126,1,2,0:0:0:0:
32,120,87548,1,0,0:0:0:0:
120,144,87971,1,2,0:0:0:0:
120,144,88182,1,0,0:0:0:0:
192,128,88393,5,4,0:0:0:0:
232,68,88605,1,0,0:0:0:0:
296,36,88816,1,2,0:0:0:0:
368,32,89027,1,0,0:0:0:0:
368,32,89133,1,0,0:0:0:0:
368,32,89238,1,2,0:0:0:0:
432,68,89450,1,0,0:0:0:0:
432,68,89555,1,0,0:0:0:0:
472,128,89767,1,0,0:0:0:0:
472,128,89872,1,2,0:0:0:0:
432,188,90083,5,0,0:0:0:0:
364,208,90295,1,0,0:0:0:0:
312,260,90506,1,2,0:0:0:0:
284,328,90717,1,0,0:0:0:0:
284,328,90823,1,0,0:0:0:0:
284,328,90929,1,2,0:0:0:0:
216,296,91140,1,0,0:0:0:0:
216,296,91245,1,0,0:0:0:0:
144,284,91457,1,0,0:0:0:0:
144,284,91562,1,2,0:0:0:0:
72,296,91774,5,4,0:0:0:0:
40,224,91985,1,0,0:0:0:0:
40,224,92091,1,0,0:0:0:0:
48,148,92302,1,0,0:0:0:0:
48,148,92407,1,2,0:0:0:0:
108,96,92619,1,4,0:0:0:0:
184,92,92830,1,0,0:0:0:0:
184,92,92936,1,0,0:0:0:0:
248,136,93147,1,0,0:0:0:0:
248,136,93253,1,2,0:0:0:0:
272,208,93464,5,4,0:0:0:0:
252,280,93675,1,0,0:0:0:0:
192,328,93886,1,0,0:0:0:0:
120,296,94098,5,0,0:0:0:0:
84,268,94203,1,0,0:0:0:0:
72,224,94309,1,0,0:0:0:0:
77,179,94414,1,0,0:0:0:0:
96,138,94520,1,0,0:0:0:0:
138,153,94626,1,0,0:0:0:0:
182,146,94731,1,0,0:0:0:0:
208,109,94837,1,0,0:0:0:0:
206,63,94943,1,0,0:0:0:0:
