osu file format v5

[General]
AudioFilename: Shoushiki! Butler Koushinkyoku.mp3
AudioLeadIn: 0
AudioHash: 6d66b577b6934a62cc697d76527f02bf
PreviewTime: -1
Countdown: 1
SampleSet: Normal
EditorBookmarks: 17115

[Metadata]
Title:Shoushiki! Butler Koushinkyoku
Artist:KOTOKO
Creator:James
Version:Normal

[Difficulty]
HPDrainRate:4
CircleSize:4
OverallDifficulty:4
SliderMultiplier:2
SliderTickRate:2

[Events]
//Background and Video events
//Break Periods
//Storyboard Layer 0 (Background)
//Storyboard Layer 1 (Failing)
//Storyboard Layer 2 (Passing)
//Storyboard Layer 3 (Foreground)
//Storyboard Sound Samples
//Background Colour Transformations
3,100,255,255,255

[TimingPoints]
3580,731.707317073171,4,1,0,100

[Colours]
Combo1 : 128,0,255
Combo2 : 255,0,128
Combo3 : 5,5,240
Combo4 : 255,255,0
Combo5 : 255,0,0

[HitObjects]
48,56,18214,2,0,B|48:56|272:56,1,200
344,56,19311,1,2
344,56,19494,1,2
464,328,21140,2,0,B|464:328|240:328,1,200
168,328,22237,1,2
168,328,22420,1,2
424,192,24067,6,2,B|424:192|480:192,4,50
320,192,25165,1,0
320,192,25348,1,0
264,112,25714,1,0
208,192,26080,1,0
152,112,26445,1,0
96,192,26811,1,0
56,320,29921,5,0
152,320,30287,1,0
248,320,30653,1,0
344,320,31019,1,2
344,320,31201,1,2
456,64,32848,1,0
360,64,33214,1,0
264,64,33580,1,0
168,64,33946,1,2
168,64,34128,1,2
336,192,35775,6,2,B|336:192|400:192,4,50
240,192,36872,1,0
240,192,37055,2,0,B|240:192|112:192,4,100
56,344,41628,6,0,B|56:344|104:248|232:168|312:128,1,300
240,328,43092,2,2,B|240:328|320:328,3,50
392,328,44006,2,0,B|392:328|432:240|425:88|328:31|213:24|48:40,1,550
70,37,46201,1,0
72,136,46567,1,0
72,136,46750,1,0
72,336,47482,6,0,B|72:336|200:328|288:280|320:216|336:168,1,300
323,199,48762,1,0
224,200,49128,1,0
120,200,49494,1,0
176,120,49860,1,0
176,120,50043,1,0
272,120,50409,6,2,B|272:120|324:130|364:180|354:242|256:264,2,200
256,192,53519,12,6,54799
256,112,55165,1,2
168,192,55531,1,2
256,272,55897,1,2
344,192,56262,1,2
256,192,56445,12,6,57726
256,112,58092,1,2
344,192,58458,1,2
256,272,58824,1,2
168,192,59189,1,2
256,192,59372,12,6,60653
440,64,61019,1,2
320,64,61384,1,2
200,64,61750,1,2
80,64,62116,1,2
80,312,63214,5,0
80,312,63397,1,0
80,312,63580,1,0
200,312,63945,1,0
320,312,64311,1,0
440,312,64677,1,0
320,312,65043,1,0
200,312,65409,1,0
80,312,65775,1,0
256,192,66689,12,6,67970
56,56,68336,1,2
168,152,68701,1,2
288,56,69067,1,2
400,152,69433,1,2
256,192,69616,12,6,70897
456,328,71262,1,2
344,232,71627,1,2
224,328,71993,1,2
112,232,72359,1,2
256,192,72543,12,6,73823
32,192,74189,1,4
184,192,74555,1,4
336,192,74921,1,4
488,192,75287,1,0
488,192,75470,1,0
488,192,75653,1,4
456,336,76384,5,2
456,336,76567,1,2
456,336,76750,1,2
360,320,77116,1,0
264,280,77482,1,0
176,224,77848,1,0
112,144,78214,1,0
56,56,78580,1,0
56,336,79311,5,2
56,336,79494,1,2
56,336,79677,1,2
152,320,80043,1,0
248,280,80409,1,0
336,224,80775,1,0
400,144,81141,1,0
256,192,81689,12,4,85531
