osu file format v5

[General]
AudioFilename: Shooting Star.mp3
AudioLeadIn: 0
PreviewTime: -1
Countdown: 0
SampleSet: Normal
StackLeniency: 0.7
Mode: 0
LetterboxInBreaks: 1
EditorBookmarks: 72660,112260,228180

[Metadata]
Title:Shooting Star
Artist:KOTOKO
Creator:tala
Version:Normal
Source:
Tags:

[Difficulty]
HPDrainRate:5
CircleSize:4
OverallDifficulty:5
SliderMultiplier:1.8
SliderTickRate:2

[Events]
//Background and Video events
0,0,"onegaiteacherv2xy7.jpg"
//Break Periods
2,96140,111210
2,182540,194730
2,213019,227130
//Storyboard Layer 0 (Background)
//Storyboard Layer 1 (Failing)
//Storyboard Layer 2 (Passing)
//Storyboard Layer 3 (Foreground)
//Storyboard Sound Samples
//Background Colour Transformations
3,100,163,162,255

[TimingPoints]
17220,480,4,1,0,100,1

[Colours]
Combo1 : 255,150,0
Combo2 : 128,0,0
Combo3 : 5,5,240
Combo4 : 255,0,128

[HitObjects]
96,272,17220,1,0
96,208,17460,1,0
160,208,17700,1,0
160,272,17940,2,0,B|256:272,1,90
256,208,18420,2,0,B|368:208,1,90
336,144,18900,2,0,B|432:144,1,90
416,80,19380,5,0
352,80,19620,1,0
288,80,19860,2,0,B|288:192,1,90
224,160,20340,2,0,B|224:256,1,90
160,240,20820,2,0,B|160:336,1,90
224,320,21300,5,0
272,272,21540,1,0
320,224,21780,2,0,B|224:160,1,90
208,128,22260,2,0,B|144:224,1,90
208,240,22740,6,0,B|272:272,2,45
96,240,23340,1,0
96,128,23700,1,0
224,80,24180,2,0,B|368:80,2,135
272,224,25860,6,0,B|290:303|176:320,2,135
256,160,26820,2,0,B|174:58|96:160,1,180
96,224,27540,2,0,B|208:224,1,90
336,80,28500,5,0
400,96,28740,2,0,B|354:226|224:128,1,180
256,80,29460,2,0,B|76:105|362:236|128:224,1,270
144,160,30420,5,0
112,80,30660,2,0,B|32:176,1,90
64,224,31140,2,0,B|144:304,1,90
288,320,31860,2,0,B|288:208,1,90
368,224,32340,2,0,B|368:352,1,90
208,112,33540,6,0,B|240:30|352:80,2,135,0|0|0
272,144,34500,2,0,B|368:208|288:304,2,180
128,144,35940,1,0
128,288,36420,6,0,B|264:298|256:160,1,180
112,144,37380,2,0,B|0:144,1,90
48,80,37860,2,0,B|176:80,1,90
208,112,38340,2,0,B|328:126|384:32,2,180
48,224,41220,6,0,B|128:224|128:224|128:144,1,135
128,64,41940,1,0
192,64,42180,2,0,B|400:64,1,180
384,128,42900,2,0,B|384:224,1,90
192,128,43860,6,0,B|288:128,2,90
192,192,44580,1,0
128,192,44820,2,0,B|128:288,2,90
256,240,45780,5,0
320,240,46020,2,0,B|432:240,1,90
432,176,46500,1,0
368,176,46740,2,0,B|256:176,1,90
272,240,47220,2,0,B|272:336,1,90
208,320,47700,1,0
208,256,47940,1,0
96,144,48900,6,0,B|288:144,1,180
240,80,49620,1,0
304,80,49860,2,0,B|432:112|384:256,2,180
160,80,51300,1,0
160,224,51780,6,0,B|101:330|272:304,3,180
256,240,53460,1,0
256,176,53700,2,0,B|254:93|412:106|400:288,1,270
336,272,54660,1,0
144,48,55620,6,0,B|144:240,1,180
208,192,56340,1,0
240,128,56580,2,0,B|315:129|315:129|320:224,2,135
176,128,57540,2,0,B|176:220|176:220|304:224,1,180
336,224,58260,1,0
336,160,58500,1,0
336,304,58980,5,0
192,304,59460,1,0
48,304,59940,1,0
192,304,60420,2,0,B|288:304,1,90
352,304,60900,2,0,B|352:208,1,90
288,240,61380,1,0
304,176,61620,2,0,B|208:176,1,90
224,240,62100,1,0
224,240,62220,1,0
96,96,63060,6,0,B|96:192,1,90,0|0
208,192,63660,1,0
208,80,64020,1,0
272,80,64260,2,0,B|337:143|272:208,1,135
208,128,64980,1,0
160,80,65220,2,0,B|81:128|160:208,2,135
224,160,66180,1,0
320,272,66900,6,0,B|320:176,1,90
224,176,67500,1,0
224,272,67860,1,0
160,272,68100,2,0,B|95:209|160:144,1,135
224,208,68820,1,0
288,192,69060,2,0,B|392:137|272:32,2,180
224,160,70260,5,0
224,96,70500,1,0
160,96,70740,1,0
160,160,70980,2,0,B|16:160,2,135
192,288,72660,6,0,B|123:248|112:192,2,90
256,272,73380,1,0
320,256,73620,1,0
384,240,73860,1,0
224,240,74580,6,0,B|272:222|304:176,2,90
160,208,75300,1,0
96,192,75540,1,0
32,176,75780,1,0
176,80,76500,6,0,B|128:80,2,45
272,96,77100,1,0
272,96,77220,1,0
336,96,77460,2,0,B|336:208,1,90
400,192,77940,2,0,B|400:288,1,90
336,272,78420,1,0
272,272,78660,6,0,B|217:287|192:224,1,90
192,176,79140,2,0,B|236:142|192:64,1,90
144,64,79620,2,0,B|65:74|96:160,1,90
96,256,80340,6,0,B|80:343|144:320,2,90
144,208,81060,1,0
192,256,81300,1,0
240,208,81540,1,0
368,288,82260,5,0
432,256,82500,2,0,B|432:368,2,90
368,224,83220,1,0
368,160,83460,1,0
416,48,84180,5,0
352,48,84420,2,0,B|192:48,2,135
352,112,85380,1,0
256,112,85740,1,0
160,112,86100,1,0
96,128,86340,6,0,B|208:240,1,135,0|0
208,288,86820,2,0,B|320:176,1,135
304,128,87300,2,0,B|416:224,2,135
256,80,88260,1,0
112,80,89940,6,0,B|112:192,1,90
112,224,90420,1,0
112,288,90660,1,0
176,288,90900,1,0
176,224,91140,2,0,B|272:224,1,90
320,240,91620,2,0,B|320:128,1,90
320,80,92100,2,0,B|144:160,3,180
256,192,93780,12,4,95940
