osu file format v13

[General]
AudioFilename: op2.mp3
AudioLeadIn: 0
PreviewTime: 60300
Countdown: 0
SampleSet: Soft
StackLeniency: 0.7
Mode: 3
LetterboxInBreaks: 0
SpecialStyle: 0
WidescreenStoryboard: 1

[Editor]
DistanceSpacing: 0.9
BeatDivisor: 4
GridSize: 16
TimelineZoom: 1.3

[Metadata]
Title:Shichitenhakki*Shijou Shugi!
TitleUnicode:七転八起☆至上主義!
Artist:KOTOKO
ArtistUnicode:KOTOKO
Creator:ShikiNoHollow
Version:NM
Source:Hayate no Gotoku!
Tags:op2 anime -Sora- opening
BeatmapID:421342
BeatmapSetID:174526

[Difficulty]
HPDrainRate:7
CircleSize:4
OverallDifficulty:8
ApproachRate:5
SliderMultiplier:1.4
SliderTickRate:1

[Events]
//Background and Video events
0,0,"bg.png",0,0
//Break Periods
//Storyboard Layer 0 (Background)
//Storyboard Layer 1 (Fail)
//Storyboard Layer 2 (Pass)
//Storyboard Layer 3 (Foreground)
//Storyboard Sound Samples
//Background Colour Transformations
3,100,163,162,255

[TimingPoints]
5755,340.909090909091,4,2,1,40,1,0
60300,-100,4,2,1,40,0,1
82118,-100,4,2,1,40,0,0

[HitObjects]
64,192,5755,5,0,0:0:0:40:cymbol.wav
448,192,5755,1,8,0:0:0:0:
192,192,5925,1,0,0:0:0:0:
448,192,6095,1,8,0:0:0:0:
320,192,6266,1,0,0:0:0:0:
64,192,6436,1,8,0:0:0:0:
320,192,6607,1,0,0:0:0:0:
448,192,6777,1,8,0:0:0:0:
192,192,6948,1,0,0:0:0:0:
64,192,7118,1,8,0:0:0:0:
192,192,7289,1,0,0:0:0:0:
448,192,7459,1,8,0:0:0:0:
320,192,7630,1,0,0:0:0:0:
64,192,7800,1,8,0:0:0:0:
320,192,7970,1,0,0:0:0:0:
192,192,8141,1,8,0:0:0:0:
320,192,8311,1,0,0:0:0:0:
448,192,8482,1,8,0:0:0:0:
320,192,8652,1,0,0:0:0:0:
192,192,8823,1,8,0:0:0:0:
320,192,8993,1,0,0:0:0:0:
448,192,9164,1,8,0:0:0:0:
64,192,9334,1,0,0:0:0:0:
192,192,9505,1,8,0:0:0:0:
448,192,9675,1,0,0:0:0:0:
320,192,9845,1,8,0:0:0:0:
64,192,10016,1,0,0:0:0:0:
448,192,10186,1,8,0:0:0:0:
320,192,10357,1,0,0:0:0:0:
64,192,10527,1,8,0:0:0:0:
192,192,10698,1,0,0:0:0:0:
320,192,10868,1,8,0:0:0:0:
320,192,11039,1,8,0:0:0:0:
448,192,11209,1,8,0:0:0:0:
192,192,11209,1,0,0:0:0:40:cymbol.wav
64,192,11380,1,0,0:0:0:0:
320,192,11550,1,8,0:0:0:0:
448,192,11720,1,0,0:0:0:0:
192,192,11891,1,8,0:0:0:0:
320,192,12061,1,0,0:0:0:0:
64,192,12232,1,8,0:0:0:0:
192,192,12402,1,0,0:0:0:0:
448,192,12573,1,8,0:0:0:0:
64,192,12743,1,0,0:0:0:0:
320,192,12914,1,8,0:0:0:0:
192,192,13084,1,0,0:0:0:0:
64,192,13255,1,8,0:0:0:0:
448,192,13425,1,0,0:0:0:0:
320,192,13595,1,8,0:0:0:0:
192,192,13766,1,0,0:0:0:0:
64,192,13936,1,0,0:0:0:40:cymbol.wav
448,192,13936,1,8,0:0:0:0:
192,192,14277,1,0,0:0:0:0:
448,192,14448,1,8,0:0:0:0:
448,192,14618,1,8,0:0:0:0:
192,192,14959,1,0,0:0:0:0:
448,192,15300,1,8,0:0:0:0:
448,192,15641,1,8,0:0:0:0:
448,192,16152,1,8,0:0:0:0:
448,192,16323,1,8,0:0:0:0:
192,192,16493,1,0,0:0:0:0:
64,192,16664,1,8,0:0:0:0:
448,192,16664,1,0,0:0:0:40:cymbol.wav
320,192,16834,1,0,0:0:0:0:
448,192,17005,1,8,0:0:0:0:
64,192,17175,1,0,0:0:0:0:
320,192,17345,1,8,0:0:0:0:
192,192,17516,1,0,0:0:0:0:
320,192,17686,1,8,0:0:0:0:
192,192,17857,1,0,0:0:0:0:
64,192,18027,1,8,0:0:0:0:
448,192,18198,1,0,0:0:0:0:
320,192,18368,1,8,0:0:0:0:
192,192,18539,1,0,0:0:0:0:
448,192,18709,1,8,0:0:0:0:
64,192,18880,1,0,0:0:0:0:
320,192,19050,1,8,0:0:0:0:
192,192,19220,1,0,0:0:0:0:
64,192,19391,1,8,0:0:0:0:
320,192,19561,1,0,0:0:0:0:
448,192,19732,1,8,0:0:0:0:
320,192,19902,1,0,0:0:0:0:
192,192,20073,1,8,0:0:0:0:
448,192,20243,1,0,0:0:0:0:
64,192,20414,1,8,0:0:0:0:
192,192,20584,1,0,0:0:0:0:
448,192,20755,1,8,0:0:0:0:
192,192,20925,1,0,0:0:0:0:
320,192,21095,1,8,0:0:0:0:
448,192,21266,1,0,0:0:0:0:
64,192,21436,1,8,0:0:0:0:
64,192,21607,1,8,0:0:0:0:
448,192,21777,1,8,0:0:0:0:
448,192,21948,1,8,0:0:0:0:
192,192,22118,1,8,0:0:0:0:
448,192,22289,1,0,0:0:0:0:
64,192,22460,1,8,0:0:0:0:
320,192,22630,1,0,0:0:0:0:
192,192,22800,1,8,0:0:0:0:
64,192,22971,1,0,0:0:0:0:
320,192,23141,1,8,0:0:0:0:
448,192,23312,1,0,0:0:0:0:
320,192,23482,1,8,0:0:0:0:
192,192,23653,1,0,0:0:0:0:
448,192,23823,1,8,0:0:0:0:
64,192,23994,1,0,0:0:0:0:
192,192,24164,1,8,0:0:0:0:
448,192,24335,1,0,0:0:0:0:
192,192,24505,1,8,0:0:0:0:
320,192,24675,1,0,0:0:0:0:
448,192,24846,1,8,0:0:0:0:
192,192,25016,1,0,0:0:0:0:
64,192,25187,1,8,0:0:0:0:
320,192,25357,1,0,0:0:0:0:
448,192,25528,1,8,0:0:0:0:
192,192,25698,1,0,0:0:0:0:
320,192,25868,1,8,0:0:0:0:
64,192,26039,1,0,0:0:0:0:
448,192,26209,1,8,0:0:0:0:
192,192,26379,1,0,0:0:0:0:
320,192,26550,1,8,0:0:0:0:
64,192,26720,1,0,0:0:0:0:
448,192,26891,1,8,0:0:0:0:
448,192,27061,1,8,0:0:0:0:
192,192,27232,1,8,0:0:0:0:
192,192,27402,1,8,0:0:0:0:
64,192,27573,1,8,0:0:0:0:
448,192,27573,1,0,0:0:0:40:cymbol.wav
192,192,27743,1,0,0:0:0:0:
448,192,27914,1,8,0:0:0:0:
192,192,28084,1,0,0:0:0:0:
320,192,28254,1,8,0:0:0:0:
448,192,28425,1,0,0:0:0:0:
192,192,28595,1,8,0:0:0:0:
64,192,28766,1,0,0:0:0:0:
320,192,28936,1,8,0:0:0:0:
448,192,29107,1,0,0:0:0:0:
192,192,29277,1,8,0:0:0:0:
448,192,29448,1,0,0:0:0:0:
320,192,29618,1,8,0:0:0:0:
192,192,29789,1,0,0:0:0:0:
448,192,29959,1,8,0:0:0:0:
64,192,30130,1,0,0:0:0:0:
320,192,30300,1,8,0:0:0:0:
192,192,30470,1,0,0:0:0:0:
64,192,30641,1,8,0:0:0:0:
320,192,30811,1,0,0:0:0:0:
448,192,30982,1,8,0:0:0:0:
320,192,31152,1,0,0:0:0:0:
192,192,31323,1,8,0:0:0:0:
448,192,31493,1,0,0:0:0:0:
64,192,31664,1,8,0:0:0:0:
192,192,31834,1,0,0:0:0:0:
448,192,32005,1,8,0:0:0:0:
192,192,32175,1,0,0:0:0:0:
320,192,32345,1,8,0:0:0:0:
448,192,32516,1,0,0:0:0:0:
64,192,32686,1,8,0:0:0:0:
64,192,32857,1,8,0:0:0:0:
448,192,33027,1,0,0:0:0:40:cymbol.wav
192,192,33027,1,8,0:0:0:0:
320,192,33198,1,0,0:0:0:0:
64,192,33368,1,8,0:0:0:0:
448,192,33539,1,0,0:0:0:0:
192,192,33709,1,8,0:0:0:0:
64,192,33880,1,0,0:0:0:0:
448,192,34050,1,8,0:0:0:0:
64,192,34221,1,0,0:0:0:0:
320,192,34391,1,8,0:0:0:0:
448,192,34562,1,0,0:0:0:0:
64,192,34732,1,8,0:0:0:0:
192,192,34903,1,0,0:0:0:0:
448,192,35073,1,8,0:0:0:0:
64,192,35244,1,0,0:0:0:0:
192,192,35414,1,8,0:0:0:0:
448,192,35585,1,0,0:0:0:0:
320,192,35755,1,8,0:0:0:0:
192,192,35925,1,0,0:0:0:0:
448,192,36096,1,8,0:0:0:0:
192,192,36266,1,0,0:0:0:0:
64,192,36437,1,8,0:0:0:0:
320,192,36607,1,0,0:0:0:0:
448,192,36778,1,8,0:0:0:0:
192,192,36948,1,0,0:0:0:0:
64,192,37118,1,8,0:0:0:0:
64,192,37459,1,8,0:0:0:0:
448,192,37800,1,8,0:0:0:0:
448,192,37970,1,8,0:0:0:0:
192,192,38141,1,8,0:0:0:0:
192,192,38311,1,8,0:0:0:0:
64,192,38482,1,8,0:0:0:40:cymbol.wav
448,192,38482,128,0,38652:0:0:0:50:F#6.wav
192,192,38823,1,8,0:0:0:0:
448,192,39164,128,0,39334:0:0:0:50:E6.wav
320,192,39164,1,8,0:0:0:0:
320,192,39505,128,0,39675:0:0:0:50:D6.wav
192,192,39505,1,8,0:0:0:0:
192,192,39845,128,0,40016:0:0:0:50:C#6.wav
64,192,39845,1,8,0:0:0:0:
320,192,40186,1,8,0:0:0:0:
320,192,40527,128,0,40698:0:0:0:50:B5.wav
448,192,40527,1,8,0:0:0:0:
192,192,40868,128,0,41039:0:0:0:50:A5.wav
320,192,40868,1,8,0:0:0:0:
64,192,41209,128,0,41380:0:0:0:50:G#5.wav
192,192,41209,1,8,0:0:0:0:
320,192,41550,1,8,0:0:0:0:
448,192,41891,128,0,42061:0:0:0:50:E5.wav
320,192,41891,1,8,0:0:0:0:
192,192,42232,1,8,0:0:0:0:
64,192,42573,128,0,42743:0:0:0:50:F#5.wav
192,192,42573,1,8,0:0:0:0:
320,192,42914,1,8,0:0:0:0:
192,192,43084,1,0,0:0:0:0:
448,192,43255,1,8,0:0:0:0:
320,192,43425,1,0,0:0:0:0:
64,192,43595,1,8,0:0:0:0:
64,192,43766,1,8,0:0:0:0:
448,192,43936,128,0,44107:0:0:0:50:F#6.wav
320,192,43936,1,8,0:0:0:0:
192,192,44277,1,8,0:0:0:0:
320,192,44618,128,0,44789:0:0:0:50:E6.wav
448,192,44618,1,8,0:0:0:0:
192,192,44959,128,0,45130:0:0:0:50:D6.wav
320,192,44959,1,8,0:0:0:0:
64,192,45300,128,0,45470:0:0:0:50:C#6.wav
192,192,45300,1,8,0:0:0:0:
320,192,45641,1,8,0:0:0:0:
448,192,45982,128,0,46152:0:0:0:50:B5.wav
320,192,45982,1,8,0:0:0:0:
320,192,46323,128,0,46493:0:0:0:50:A5.wav
192,192,46323,1,8,0:0:0:0:
192,192,46664,128,0,46834:0:0:0:50:G#5.wav
64,192,46664,1,8,0:0:0:0:
448,192,47005,1,8,0:0:0:0:
64,192,47345,1,8,0:0:0:0:
320,192,47345,128,0,47516:0:0:0:50:E5.wav
192,192,47686,1,8,0:0:0:0:
64,192,48027,128,0,48368:0:0:0:50:A5.wav
192,192,48027,1,8,0:0:0:0:
448,192,48368,1,8,0:0:0:0:
448,192,48709,1,8,0:0:0:0:
192,192,48880,1,0,0:0:0:0:
320,192,49050,1,8,0:0:0:0:
64,192,49220,1,0,0:0:0:0:
192,192,49391,1,8,0:0:0:40:cymbol.wav
448,192,49391,128,0,49561:0:0:0:50:F#6.wav
320,192,49732,1,8,0:0:0:0:
320,192,50073,128,0,50243:0:0:0:50:E6.wav
448,192,50073,1,8,0:0:0:0:
192,192,50414,128,0,50584:0:0:0:50:D6.wav
320,192,50414,1,8,0:0:0:0:
64,192,50755,128,0,50925:0:0:0:50:C#6.wav
192,192,50755,1,8,0:0:0:0:
192,192,51095,1,8,0:0:0:0:
448,192,51436,128,0,51607:0:0:0:50:B5.wav
320,192,51436,1,8,0:0:0:0:
320,192,51777,128,0,51948:0:0:0:50:A5.wav
192,192,51777,1,8,0:0:0:0:
192,192,52118,128,0,52289:0:0:0:50:G#5.wav
64,192,52118,1,8,0:0:0:0:
320,192,52459,1,8,0:0:0:0:
448,192,52800,128,0,52970:0:0:0:50:E5.wav
320,192,52800,1,8,0:0:0:0:
192,192,53141,1,8,0:0:0:0:
320,192,53482,128,0,53652:0:0:0:50:F#5.wav
448,192,53482,1,8,0:0:0:0:
64,192,53823,1,8,0:0:0:0:
192,192,53993,1,0,0:0:0:0:
320,192,54164,1,8,0:0:0:0:
64,192,54334,1,0,0:0:0:0:
320,192,54505,1,8,0:0:0:0:
192,192,54675,1,0,0:0:0:0:
448,192,54845,128,0,55016:0:0:0:50:F#6.wav
320,192,54845,1,8,0:0:0:0:
192,192,55186,1,8,0:0:0:0:
320,192,55527,128,0,55698:0:0:0:50:E6.wav
448,192,55527,1,8,0:0:0:0:
192,192,55868,128,0,56039:0:0:0:50:D6.wav
320,192,55868,1,8,0:0:0:0:
64,192,56209,128,0,56380:0:0:0:50:C#6.wav
192,192,56209,1,8,0:0:0:0:
320,192,56550,1,8,0:0:0:0:
448,192,56891,128,0,57061:0:0:0:50:B5.wav
320,192,56891,1,8,0:0:0:0:
320,192,57232,128,0,57402:0:0:0:50:A5.wav
192,192,57232,1,8,0:0:0:0:
192,192,57573,128,0,57743:0:0:0:50:G#5.wav
64,192,57573,1,8,0:0:0:0:
448,192,57914,1,0,0:0:0:40:cymbol.wav
64,192,57914,1,8,0:0:0:0:
192,192,58255,1,8,0:0:0:0:
192,192,58425,1,8,0:0:0:0:
320,192,58595,1,8,0:0:0:0:
448,192,58766,1,0,0:0:0:0:
64,192,58936,128,0,59618:0:0:0:50:B5.wav
192,192,58936,1,8,0:0:0:0:
448,192,59107,1,8,0:0:0:0:
320,192,59277,1,8,0:0:0:0:
448,192,59448,1,8,0:0:0:0:
192,192,59618,1,8,0:0:0:0:
320,192,59959,1,0,0:0:0:70:Bass.wav
64,192,60300,1,0,0:0:0:40:cymbol.wav
448,192,60300,1,8,0:0:0:0:
320,192,60470,1,0,0:0:0:0:
64,192,60641,1,8,0:0:0:0:
448,192,60811,1,0,0:0:0:0:
192,192,60982,1,8,0:0:0:0:
320,192,61152,1,0,0:0:0:0:
448,192,61323,1,8,0:0:0:0:
192,192,61493,1,0,0:0:0:0:
64,192,61664,1,8,0:0:0:0:
192,192,61834,1,0,0:0:0:0:
320,192,62005,1,8,0:0:0:0:
192,192,62175,1,0,0:0:0:0:
448,192,62345,1,8,0:0:0:0:
320,192,62516,1,0,0:0:0:0:
64,192,62686,1,8,0:0:0:0:
320,192,62857,1,0,0:0:0:0:
192,192,63027,1,8,0:0:0:0:
448,192,63198,1,0,0:0:0:0:
320,192,63368,1,8,0:0:0:0:
64,192,63539,1,0,0:0:0:0:
448,192,63709,1,8,0:0:0:0:
192,192,63880,1,0,0:0:0:0:
320,192,64050,1,8,0:0:0:0:
192,192,64220,1,0,0:0:0:0:
64,192,64391,1,8,0:0:0:0:
448,192,64561,1,0,0:0:0:0:
320,192,64732,1,8,0:0:0:0:
192,192,64902,1,0,0:0:0:0:
448,192,65073,1,8,0:0:0:0:
320,192,65243,1,0,0:0:0:0:
64,192,65414,1,8,0:0:0:0:
64,192,65584,1,8,0:0:0:0:
320,192,65755,1,8,0:0:0:0:
192,192,65925,1,0,0:0:0:0:
448,192,66095,1,8,0:0:0:0:
64,192,66266,1,0,0:0:0:0:
320,192,66436,1,8,0:0:0:0:
192,192,66607,1,0,0:0:0:0:
320,192,66777,1,8,0:0:0:0:
448,192,66948,1,0,0:0:0:0:
192,192,67118,1,8,0:0:0:0:
64,192,67289,1,0,0:0:0:0:
320,192,67459,1,8,0:0:0:0:
448,192,67630,1,0,0:0:0:0:
64,192,67800,1,8,0:0:0:0:
320,192,67970,1,0,0:0:0:0:
192,192,68141,1,8,0:0:0:0:
448,192,68311,1,0,0:0:0:0:
320,192,68482,1,0,0:0:0:50:B5.wav
64,192,68482,1,8,0:0:0:0:
192,192,68993,1,8,0:0:0:50:A5.wav
448,192,68993,1,8,0:0:0:0:
64,192,69505,1,8,0:0:0:0:
320,192,69505,1,8,0:0:0:50:B5.wav
64,192,69845,1,8,0:0:0:0:
448,192,69845,1,0,0:0:0:50:A5.wav
448,192,70186,1,8,0:0:0:0:
64,192,70527,1,8,0:0:0:0:
64,192,70698,1,8,0:0:0:0:
448,192,70868,1,8,0:0:0:0:
448,192,71039,1,8,0:0:0:0:
64,192,71209,1,0,0:0:0:40:cymbol.wav
320,192,71209,1,8,0:0:0:0:
448,192,71380,1,0,0:0:0:0:
192,192,71550,1,8,0:0:0:0:
448,192,71720,1,0,0:0:0:0:
64,192,71891,1,8,0:0:0:0:
320,192,72061,1,0,0:0:0:0:
448,192,72232,1,8,0:0:0:0:
192,192,72402,1,0,0:0:0:0:
64,192,72573,1,8,0:0:0:0:
192,192,72743,1,0,0:0:0:0:
320,192,72914,1,8,0:0:0:0:
192,192,73084,1,0,0:0:0:0:
448,192,73255,1,8,0:0:0:0:
320,192,73425,1,0,0:0:0:0:
64,192,73595,1,8,0:0:0:0:
320,192,73766,1,0,0:0:0:0:
192,192,73936,1,8,0:0:0:0:
448,192,74107,1,0,0:0:0:0:
320,192,74277,1,8,0:0:0:0:
64,192,74448,1,0,0:0:0:0:
448,192,74618,1,8,0:0:0:0:
192,192,74789,1,0,0:0:0:0:
320,192,74959,1,8,0:0:0:0:
192,192,75129,1,0,0:0:0:0:
64,192,75300,1,8,0:0:0:0:
448,192,75470,1,0,0:0:0:0:
320,192,75641,1,8,0:0:0:0:
192,192,75811,1,0,0:0:0:0:
448,192,75982,1,8,0:0:0:0:
320,192,76152,1,0,0:0:0:0:
64,192,76323,1,8,0:0:0:0:
64,192,76493,1,8,0:0:0:0:
192,192,76664,1,8,0:0:0:0:
448,192,76664,1,0,0:0:0:40:cymbol.wav
64,192,77005,1,8,0:0:0:0:
448,192,77175,1,0,0:0:0:0:
64,192,77345,1,8,0:0:0:0:
192,192,77516,1,0,0:0:0:0:
448,192,77686,1,8,0:0:0:0:
64,192,77857,1,0,0:0:0:0:
448,192,78027,1,8,0:0:0:0:
64,192,78368,1,8,0:0:0:0:
448,192,78539,1,0,0:0:0:0:
64,192,78709,1,8,0:0:0:0:
320,192,78879,1,0,0:0:0:0:
192,192,79050,1,8,0:0:0:0:
448,192,79220,1,0,0:0:0:0:
320,192,79391,1,8,0:0:0:0:
64,192,79391,1,0,0:0:0:40:cymbol.wav
448,192,79732,1,8,0:0:0:0:
448,192,80073,1,8,0:0:0:0:
64,192,80414,1,8,0:0:0:0:
64,192,80755,1,8,0:0:0:0:
320,192,81095,1,8,0:0:0:0:
320,192,81266,1,8,0:0:0:0:
192,192,81436,1,8,0:0:0:0:
192,192,81607,1,8,0:0:0:0:
64,192,81777,1,8,0:0:0:0:
448,192,81948,1,0,0:0:0:0:
64,192,82118,1,0,0:0:0:40:cymbol.wav
320,192,82118,1,8,0:0:0:0:
64,192,82459,1,10,0:0:0:0:
448,192,82800,1,10,0:0:0:0:
448,192,83141,1,10,0:0:0:0:
320,192,83311,1,2,0:0:0:0:
448,192,83482,1,10,0:0:0:0:
192,192,83823,1,10,0:0:0:0:
192,192,84164,1,10,0:0:0:0:
448,192,84505,1,10,0:0:0:0:
64,192,84675,1,2,0:0:0:0:
448,192,84845,1,10,0:0:0:0:
320,192,85186,1,10,0:0:0:0:
320,192,85527,1,10,0:0:0:0:
192,192,85698,1,2,0:0:0:0:
64,192,85868,1,10,0:0:0:0:
192,192,86039,1,2,0:0:0:0:
320,192,86209,1,10,0:0:0:0:
320,192,86550,1,10,0:0:0:0:
448,192,86891,1,10,0:0:0:0:
448,192,87232,1,8,0:0:0:0:
448,192,87402,1,8,0:0:0:0:
64,192,87573,1,10,0:0:0:0:
320,192,87573,1,0,0:0:0:40:cymbol.wav
192,192,87743,1,2,0:0:0:0:
320,192,87914,1,10,0:0:0:0:
448,192,88084,1,2,0:0:0:0:
64,192,88255,1,10,0:0:0:0:
192,192,88425,1,2,0:0:0:0:
320,192,88595,1,10,0:0:0:0:
448,192,88766,1,2,0:0:0:0:
64,192,88936,1,10,0:0:0:0:
192,192,89107,1,2,0:0:0:0:
320,192,89277,1,10,0:0:0:0:
448,192,89448,1,2,0:0:0:0:
64,192,89618,1,10,0:0:0:0:
192,192,89789,1,2,0:0:0:0:
320,192,89959,1,10,0:0:0:0:
448,192,90130,1,2,0:0:0:0:
64,192,90300,1,10,0:0:0:0:
320,192,90470,1,2,0:0:0:0:
64,192,90641,1,10,0:0:0:0:
448,192,90811,128,2,91834:0:0:0:0:
192,192,90811,1,8,0:0:0:0:
64,192,91834,1,10,0:0:0:0:
320,192,91834,1,0,0:0:0:0:
64,192,92175,1,10,0:0:0:0:
320,192,92345,1,10,0:0:0:0:
192,192,92516,1,10,0:0:0:0:
448,192,92686,1,10,0:0:0:0:
448,192,92857,128,2,93027:0:0:0:0:
