osu file format v8

[General]
AudioFilename: KOTOKO - Shichiten Hakki, Shijou Shugi! (TV-Size).mp3
AudioLeadIn: 0
PreviewTime: 84361
Countdown: 0
SampleSet: Normal
StackLeniency: 0.7
Mode: 0
LetterboxInBreaks: 1

[Editor]
Bookmarks: 41105,84741,106559
DistanceSpacing: 0.699999988079071
BeatDivisor: 2
GridSize: 8

[Metadata]
Title:Shichiten Hakki, Shijou Shugi! (TV Size)
Artist:KOTOKO
Creator:Nekoo[]
Version:Normal
Source:Hayate no Gotoku!
Tags:

[Difficulty]
HPDrainRate:3
CircleSize:3
OverallDifficulty:4
ApproachRate:4
SliderMultiplier:1.2
SliderTickRate:1

[Events]
//Background and Video events
0,0,"BGks.jpg"
Video,1099,"VideoSSHSSK.avi"
//Break Periods
2,39259,39785
//Storyboard Layer 0 (Background)
//Storyboard Layer 1 (Fail)
//Storyboard Layer 2 (Pass)
//Storyboard Layer 3 (Foreground)
//Storyboard Sound Samples
//Background Colour Transformations
3,100,163,162,255

[TimingPoints]
30196,340.909090909091,4,1,0,70,1,0
84741,-100,4,1,0,80,0,1
95309,-100,4,1,0,80,0,0
95650,-100,4,1,0,80,0,1
106559,-100,4,1,0,80,0,0

[Colours]
Combo1 : 247,202,111
Combo2 : 74,165,255
Combo3 : 45,88,228

[HitObjects]
24,192,30195,2,2,B|24:40|264:8|496:56|488:200,1,600,2|2
488,192,32923,6,2,B|488:344|248:376|16:328|24:184,1,600
256,88,35650,6,0,B|256:232,1,120,2|2
256,296,36332,2,0,B|320:296,1,60,2|0
400,296,36843,2,0,B|400:168,1,120,2|2
320,72,37695,5,2
256,128,38036,1,0
192,72,38377,1,2
256,224,39059,1,4
96,192,41105,5,2
144,264,41445,1,0
216,312,41786,2,0,B|304:312,1,60,2|0
360,312,42298,6,0,B|408:320|440:264|408:208,1,120,2|2
296,192,43150,1,2
256,32,43832,1,0
96,88,44514,2,2,B|8:152|48:344|208:400|352:312,1,480
256,176,46559,5,2
256,344,47241,2,0,B|256:272,1,60,2|0
340,284,47752,6,0,B|388:324|444:308|452:260,1,120,2|2
392,168,48605,1,2
256,264,49286,1,0
129,162,49968,2,2,B|129:10|233:2|233:330|281:330|281:2|393:2|393:194,1,480
352,320,52014,5,2
256,184,52695,1,2
160,320,53377,5,0
56,184,54059,1,2
160,48,54741,1,0
328,48,55423,2,2,B|488:72|528:232|448:376|280:344,1,480
376,192,57468,5,0
256,72,58150,1,0
136,192,58832,2,0,B|200:192,1,60,2|0
256,248,59343,2,2,B|280:312|368:328|408:264,1,180
336,216,60195,5,0
256,120,60707,2,2,B|72:120,1,180,2|0
76,204,61559,2,2,B|68:292|132:372|252:388|356:300,1,360
336,230,62923,5,2
256,198,63264,1,0
256,110,63605,1,2
88,104,64286,5,2
88,192,64627,1,0
8,224,64968,1,2
144,328,65650,6,0,B|400:328,2,240,2|2|0
40,40,68377,6,0,B|128:128,2,120,2|0|2
208,40,69741,2,0,B|296:128,2,120,2|0|2
256,200,71105,5,2
256,280,71445,1,0
344,280,71786,2,0,B|416:280,1,60,2|0
404,195,72298,1,0
56,328,73832,5,2
136,296,74173,1,0
192,232,74514,2,0,B|192:168,1,60,2|0
128,120,75025,6,2,B|192:32|320:32|400:136,1,300
387,205,76218,1,0
384,288,76559,6,2,B|360:360|272:344,1,120
304,264,77241,2,0,B|264:216,1,60,2|0
181,217,77752,1,0
200,120,79286,6,0,B|224:88|288:88|312:128,2,120,2|0|2
256,232,80480,2,0,B|256:304|336:344|408:304,1,180,0|2
344,240,81332,1,0
392,168,81673,1,2
256,192,82014,12,4,84059
304,152,84741,5,2
256,80,85082,1,0
208,152,85423,1,2
192,280,85934,2,2,B|208:216|312:208|328:296,1,180
136,120,87468,6,0,B|32:24,2,120,2|0|2
136,204,88491,2,0,B|216:204,1,60,2|0
280,204,89002,2,0,B|360:204,1,60,2|2
112,320,90195,5,2
160,248,90536,1,0
112,176,90877,1,2
160,104,91218,2,0,B|200:56,1,60,2|2
264,112,91730,2,0,B|328:112,1,60,0|2
328,192,92241,6,0,B|264:240|320:312,1,120,2|0
392,288,92923,2,2,B|392:368|328:400|256:368,1,180
176,288,93945,1,0
104,240,94286,2,2,B|48:144|88:40|192:0|312:80,1,360
352,120,95650,6,0,B|376:56|464:72,2,120,2|0|2
352,208,96673,2,0,B|376:272|464:256,2,120,2|0|2
168,72,98377,6,0,B|120:56|80:96|104:152,1,120,2|0
184,152,99059,1,2
268,152,99400,2,0,B|310:200,1,60,2|0
248,256,99911,2,0,B|168:256,1,60,2|2
336,56,101105,5,2
256,88,101445,1,0
176,56,101786,1,2
256,152,102298,2,2,B|256:288,1,120
360,192,103150,6,2,B|488:192,1,120
448,272,103832,1,0
256,192,104343,12,4,106559
