osu file format v8

[General]
AudioFilename: KOTOKO - Shichiten Hakki, Shijou Shugi! (TV-Size).mp3
AudioLeadIn: 0
PreviewTime: 84361
Countdown: 0
SampleSet: Normal
StackLeniency: 0.7
Mode: 0
LetterboxInBreaks: 1

[Editor]
Bookmarks: 41105,84741,106559
DistanceSpacing: 1
BeatDivisor: 4
GridSize: 8

[Metadata]
Title:Shichiten Hakki, Shijou Shugi! (TV Size)
Artist:KOTOKO
Creator:Nekoo[]
Version:Insane
Source:Hayate no Gotoku!
Tags:

[Difficulty]
HPDrainRate:7
CircleSize:4
OverallDifficulty:8
ApproachRate:8
SliderMultiplier:2
SliderTickRate:1

[Events]
//Background and Video events
0,0,"BGks.jpg"
Video,1099,"VideoSSHSSK.avi"
//Break Periods
//Storyboard Layer 0 (Background)
//Storyboard Layer 1 (Fail)
//Storyboard Layer 2 (Pass)
//Storyboard Layer 3 (Foreground)
//Storyboard Sound Samples
//Background Colour Transformations
3,100,163,162,255

[TimingPoints]
30196,340.909090909091,4,1,0,70,1,0
83164,-50,4,1,0,70,0,0
83931,-100,4,1,0,70,0,0
84741,-100,4,1,0,80,0,1
95309,-100,4,1,0,80,0,0
95650,-100,4,1,0,80,0,1
106559,-100,4,1,0,80,0,0

[Colours]
Combo1 : 247,202,111
Combo2 : 74,165,255
Combo3 : 45,88,228

[HitObjects]
88,112,30195,1,2
160,56,30366,1,0
208,128,30536,1,10
288,88,30707,1,2
368,128,30877,1,0
456,136,31048,1,0
488,224,31218,1,10
488,312,31389,2,2,B|280:312,1,200
200,312,31900,2,0,B|80:240,1,100,10|0
104,168,32241,2,0,B|72:40,1,100,2|2
168,72,32582,2,0,B|264:16,1,100,10|8
336,112,32923,6,2,B|424:104|472:152|448:248,1,200,2|10
336,112,33605,2,0,B|248:104|200:152|224:248,1,200,0|10
220,310,34116,1,2
56,312,34457,1,2
112,256,34627,1,10
80,184,34798,1,0
152,152,34968,1,2
168,72,35139,1,2
240,104,35309,1,10
296,48,35480,1,8
376,104,35650,5,2
440,168,35820,1,0
440,256,35991,1,10
248,256,36332,1,2
344,256,36502,1,0
152,256,36843,2,2,B|96:264|24:224|48:120,1,200
200,32,37525,5,2
168,112,37695,1,0
256,96,37866,1,2
256,184,38036,2,0,B|336:256,1,100,10|0
392,184,38377,1,2
256,304,38718,1,8
168,304,38889,1,0
104,240,39059,1,2
160,72,39400,5,8
344,72,39741,1,0
400,144,39911,1,0
320,184,40082,1,8
360,264,40252,1,0
280,312,40423,1,0
192,312,40593,1,0
112,264,40764,1,8
152,184,40934,1,8
72,144,41105,5,2
224,48,41445,1,10
376,144,41786,2,0,B|456:208,1,100,2|0
376,368,42298,2,2,B|136:368,1,200
96,320,42809,1,8
176,272,42980,1,2
176,184,43150,5,2
96,232,43320,1,0
96,144,43491,1,10
176,96,43661,1,0
264,96,43832,2,2,B|320:64|376:72|424:112|416:176,1,200,2|10
328,168,44343,1,0
384,240,44514,5,2
344,320,44684,1,0
264,280,44855,1,8
176,256,45025,1,0
112,320,45195,1,0
32,280,45366,1,0
96,216,45536,1,8
32,152,45707,1,8
96,96,45877,1,0
264,152,46218,1,8
432,96,46559,6,0,B|432:184|520:184|520:288,1,200,2|10
338,270,47241,1,2
427,270,47411,1,0
246,270,47752,2,2,B|254:190|150:150|86:222,1,200
240,96,48434,1,2
320,144,48605,5,2
400,96,48775,1,0
488,72,48945,1,10
488,160,49116,1,0
488,248,49286,2,2,B|488:328|424:368|336:312,1,200,2|10
408,256,49798,1,0
320,232,49968,6,0,B|192:232,1,100,2|0
216,144,50309,2,0,B|112:64,1,100,8|0
80,152,50650,2,0,B|16:240,1,100
96,280,50991,2,0,B|176:344,1,100,8|8
256,312,51332,1,0
392,192,51673,1,8
256,72,52014,5,2
120,192,52355,1,10
256,312,52695,1,2
256,224,52866,1,0
400,112,53207,2,2,B|472:128|496:232|408:272,1,200
320,112,53889,5,2
232,112,54059,1,2
128,256,54400,1,10
192,320,54570,1,0
280,352,54741,2,0,B|368:392|440:336|408:248,1,200,2|10
323,270,55252,1,0
384,192,55423,5,2
464,152,55593,1,0
464,64,55764,1,8
384,104,55934,1,0
464,152,56105,1,0
464,240,56275,1,0
384,272,56445,1,8
384,360,56616,1,8
464,328,56786,1,0
280,328,57127,1,8
256,152,57468,5,2
104,56,57809,1,10
32,224,58150,1,0
184,320,58491,1,8
480,352,58832,5,0
512,240,59002,1,0
480,120,59173,1,8
376,56,59343,1,0
256,32,59514,1,0
136,56,59684,1,0
32,120,59855,1,8
0,240,60025,1,8
32,352,60195,1,0
256,192,60707,5,2
211,366,61048,1,2
299,366,61218,1,8
400,224,61559,5,0
432,192,61644,1,0
464,160,61730,1,0
320,152,61900,5,8
336,112,61985,1,0
352,72,62070,1,0
192,152,62241,5,0
176,112,62326,1,0
160,72,62411,1,0
112,224,62582,5,8
80,192,62667,1,0
48,160,62753,1,8
40,320,62923,6,0,B|256:320,1,200,2|10
424,320,63605,2,0,B|288:320,1,100,2|0
160,248,64116,2,2,B|368:248,1,200
448,248,64627,2,0,B|448:144,1,100,10|0
360,144,64968,2,0,B|152:144,1,200,2|10
320,64,65650,6,0,B|112:64,1,200,2|10
280,144,66332,2,0,B|176:144,1,100,2|2
232,216,66673,1,8
304,272,66843,1,2
384,320,67014,5,0
464,272,67184,1,0
464,168,67355,2,0,B|360:168,2,100,8|0|0
408,80,67866,1,8
312,80,68036,1,8
40,192,68377,5,2
128,352,68718,1,10
312,352,69059,1,2
384,296,69230,1,0
384,120,69570,1,2
200,120,69911,1,2
112,96,70082,1,10
112,184,70252,1,0
200,216,70423,1,2
376,224,70764,1,10
376,312,70934,6,0,B|272:360,1,100,8|2
112,312,71445,1,10
256,200,71786,2,0,B|256:88,1,100,2|2
256,280,72298,1,2
336,240,72468,5,0
408,184,72639,1,0
408,96,72809,1,8
336,40,72980,1,8
264,96,73150,1,0
96,40,73491,1,8
96,224,73832,5,2
168,280,74002,1,0
224,208,74173,1,10
304,256,74343,1,0
392,280,74514,1,2
464,232,74684,1,0
392,64,75025,2,2,B|456:120|400:224|288:168,1,200
304,88,75536,2,0,B|208:40,1,100,10|0
176,128,75877,2,0,B|136:48|8:80|48:200,1,200,2|10
176,304,76559,5,2
360,304,76900,1,10
360,120,77241,1,2
432,168,77411,1,2
312,40,77752,1,2
272,120,77923,5,0
192,80,78093,1,0
176,168,78264,1,8
88,176,78434,1,8
40,248,78605,1,0
176,368,78945,1,8
360,368,79286,6,0,B|360:304|456:304|456:192,1,200,2|10
275,200,79968,2,0,B|395:200,1,100,2|0
192,200,80480,2,2,B|104:232|48:136|128:80,1,200,2|2
200,112,80991,2,0,B|280:48,1,100,2|8
336,120,81332,2,0,B|424:112|464:200|400:264,1,200,2|10
256,344,82014,1,2
256,160,82355,1,8
256,344,82695,2,0,B|128:344,1,100,2|0
219,247,83207,5,0
339,119,83378,1,0
163,143,83548,1,0
331,215,83719,1,0
243,63,83889,1,0
256,161,84059,5,4
256,161,84400,1,4
384,64,84741,5,2
472,216,85082,1,10
328,328,85423,1,2
248,288,85593,1,2
200,360,85764,1,8
128,312,85934,1,2
72,136,86275,1,2
72,224,86446,5,10
160,224,86616,1,0
248,208,86786,1,0
224,120,86957,1,0
304,80,87127,1,8
320,168,87298,1,0
400,120,87468,5,2
456,192,87639,1,0
392,256,87809,1,10
408,344,87980,1,0
320,312,88150,1,2
232,328,88320,1,2
152,280,88491,1,8
64,312,88661,1,2
64,128,89002,5,2
152,128,89173,2,0,B|240:64,1,100,10|0
296,136,89514,2,0,B|400:136,1,100,0|0
368,224,89855,1,8
488,368,90195,5,2
256,24,90536,1,10
24,368,90877,1,2
104,320,91048,5,2
48,248,91218,1,8
136,224,91389,1,2
184,144,91559,1,0
256,192,91730,1,2
320,128,91900,1,10
424,272,92241,5,2
256,336,92582,1,8
88,272,92923,1,2
256,64,93434,1,0
256,336,93945,1,10
256,152,94286,1,2
120,160,94457,5,0
136,192,94542,1,0
160,216,94627,1,8
192,240,94713,1,0
224,256,94798,1,0
256,264,94883,1,0
288,256,94968,1,8
320,240,95053,1,0
352,216,95139,1,0
376,192,95224,1,0
392,160,95309,1,8
256,152,95650,5,2
288,72,95820,1,0
368,112,95991,1,10
456,96,96161,1,0
464,184,96332,2,0,B|368:368,1,200,2|8
288,320,96843,1,2
200,336,97014,1,0
144,264,97184,1,2
72,208,97355,5,10
160,176,97525,1,0
160,88,97695,1,0
240,136,97866,1,0
320,88,98036,2,0,B|424:48,1,100,8|0
440,136,98377,6,0,B|440:216|528:216|528:328,1,200,2|10
353,311,99059,2,0,B|351:217|439:217|441:119,1,200,2|8
352,112,99570,2,0,B|392:40|496:40|528:120,1,200,2|2
504,192,100082,5,10
488,280,100252,1,0
432,352,100423,1,0
344,384,100593,1,0
256,352,100764,1,8
200,280,100934,1,0
168,192,101105,5,2
88,152,101275,1,0
160,104,101445,1,10
334,149,101786,1,2
424,149,101957,1,0
384,328,102298,5,2
296,344,102468,1,0
264,264,102639,1,2
176,264,102809,1,8
104,208,102980,5,2
176,152,103150,1,0
264,152,103320,1,2
296,72,103491,1,10
384,88,103661,1,8
352,168,103832,1,2
256,192,104343,12,4,106559
