osu file format v9

[General]
AudioFilename: KOTOKO - Seishun Rocket.mp3
AudioLeadIn: 0
PreviewTime: 65398
Countdown: 0
SampleSet: Normal
StackLeniency: 0.7
Mode: 0
LetterboxInBreaks: 1

[Editor]
Bookmarks: 26078,182194,204330
DistanceSpacing: 1.2
BeatDivisor: 4
GridSize: 8

[Metadata]
Title:Seishun Rocket
Artist:KOTOKO
Creator:biwako
Version:Hard
Source:
Tags:

[Difficulty]
HPDrainRate:5
CircleSize:4
OverallDifficulty:5
ApproachRate:7
SliderMultiplier:1.25
SliderTickRate:1

[Events]
//Background and Video events
0,0,"2.jpg"
//Break Periods
//Storyboard Layer 0 (Background)
//Storyboard Layer 1 (Fail)
//Storyboard Layer 2 (Pass)
//Storyboard Layer 3 (Foreground)
//Storyboard Sound Samples
//Background Colour Transformations
3,100,163,162,255

[TimingPoints]
2777.40285436609,291.26213592233,4,1,0,100,1,0

[HitObjects]
256,64,26078,1,0
384,144,26369,1,0
360,296,26660,2,0,B|392:304|424:304,2,62.5
288,312,27097,2,0,B|232:280|168:272,1,125
96,264,27534,1,0
112,112,27825,2,0,B|80:112|48:120,2,62.5
176,80,28262,2,0,B|240:88|304:64,1,125
376,80,28699,1,0
472,192,28990,2,0,B|480:160|480:128,2,62.5
448,264,29427,2,0,B|392:288|320:280,1,125
288,136,30010,2,0,B|344:112|416:120,1,125
272,64,30592,1,0
200,56,30738,2,0,B|136:56|88:104,1,125
128,248,31321,2,0,B|192:248|240:200,1,125
376,264,31903,2,0,B|408:264|440:272,2,62.5
400,192,32340,2,0,B|400:128|352:80,1,125
352,80,32777,1,0
280,56,32923,2,0,B|216:40|152:56,1,125
88,80,33359,1,0
144,224,33651,2,0,B|208:240|272:224,1,125
264,304,34088,2,0,B|328:288|392:304,1,125
456,280,34524,1,0
472,208,34670,2,0,B|480:176|480:144,2,62.5
456,280,35107,1,0
320,344,35398,2,0,B|256:352|192:320,1,125
64,256,35981,2,0,B|48:224|40:192,2,62.5
120,200,36418,2,0,B|200:160|304:184,1,187.5
456,176,37146,1,0
456,176,37291,2,0,B|456:144|448:112,1,62.5
408,48,37583,2,0,B|320:16|224:40,1,187.5
80,80,38311,2,0,B|72:112|72:144,1,62.5
88,216,38602,1,0
112,288,38748,2,0,B|176:304|240:288,1,125
264,144,39330,2,0,B|200:128|136:144,1,125
112,288,39913,1,0
40,272,40058,2,0,B|16:216|24:144,2,125
112,288,40787,1,0
184,256,40932,1,0
256,288,41078,2,0,B|352:288|424:216,1,187.5
376,160,41660,2,0,B|360:96|360:32,1,125
288,24,42097,1,0
224,56,42243,2,0,B|160:72|120:120,1,125
120,192,42680,1,0
32,312,42971,2,0,B|88:336|160:328,1,125
232,328,43408,1,0
296,288,43554,2,0,B|328:296|360:312,2,62.5
272,216,43990,1,0
256,144,44136,2,0,B|272:80|336:56,1,125
408,64,44573,2,0,B|456:56,2,31.25
424,216,45010,1,0
288,152,45301,1,0
296,228,45447,1,0
304,304,45592,1,0
152,320,45885,1,0
136,168,46176,1,0
272,232,46467,1,0
264,156,46613,1,0
256,80,46757,2,0,B|288:64|320:56,1,62.5
392,64,47049,2,0,B|440:104|456:176,1,125
344,272,47631,1,0
272,232,47777,1,0
200,264,47923,1,0
64,192,48214,1,0
64,192,48505,1,0
192,112,48796,1,0
264,152,48942,1,0
336,120,49088,1,0
472,192,49379,2,0,B|464:256|400:288,1,125
256,256,49961,2,0,B|224:256|192:264,2,62.5
336,120,50544,2,0,B|328:56|264:24,1,125
128,80,51126,2,0,B|96:80|64:72,2,62.5
144,232,51709,1,0
144,232,52000,2,0,B|208:216|272:224,1,125
336,200,52437,2,0,B|344:168|344:136,2,62.5
272,152,52874,2,0,B|264:88|192:64,1,125
112,56,53311,2,0,B|120:120|192:144,1,125
272,152,53748,1,0
416,104,54039,2,0,B|456:152|464:224,1,125
392,352,54622,2,0,B|424:352|456:360,2,62.5
256,296,55204,2,0,B|190:288|142:248,1,125
64,120,55787,1,0
88,48,55932,1,0
160,24,56078,1,0
288,96,56369,2,0,B|296:64|296:32,2,62.5
408,192,56952,1,0
392,264,57097,1,0
392,264,57389,1,0
328,296,57534,2,0,B|272:320|200:312,1,125
144,256,57971,2,0,B|200:232|272:240,1,125
336,224,58408,1,0
384,80,58699,2,0,B|328:48|264:48,1,125
192,56,59136,1,0
120,72,59282,2,0,B|88:128|88:192,1,125
160,184,59719,2,0,B|192:240|192:304,1,125
144,360,60156,1,0
80,328,60301,1,0
96,256,60447,2,0,B|64:248|32:248,2,62.5
80,184,60884,2,0,B|144:200|208:192,1,125
256,144,61321,1,0
408,160,61612,2,0,B|415:189|415:221,1,62.5
376,288,61903,1,0
304,256,62049,2,0,B|224:216|120:240,1,187.5
56,104,62777,2,0,B|120:104|184:88,1,125
256,96,63214,1,0
328,80,63359,2,0,B|392:96,1,62.5
344,160,63651,2,0,B|391:205,1,62.5
320,240,63942,2,0,B|338:303,1,62.5
264,304,64233,2,0,B|248:368,1,62.5
256,192,64524,12,0,65398
384,96,65690,6,0,B|416:152|408:216,1,125
336,192,66126,2,0,B|240:184|152:240,1,187.5
72,112,66855,2,0,B|168:120|256:64,2,187.5
24,256,68020,2,0,B|16:320|40:384,1,125
104,344,68457,2,0,B|192:312|288:328,1,187.5
424,264,69185,2,0,B|448:208|440:136,1,125
456,72,69622,1,0
312,72,69913,1,0
328,144,70058,2,0,B|272:176|200:160,1,125
128,288,70641,1,0
200,320,70787,2,0,B|280:272|384:296,1,187.5
488,192,71515,2,0,B|464:96|376:48,1,187.5
224,64,72243,1,0
152,40,72389,1,0
80,64,72534,1,0
48,128,72680,2,0,B|40:160|40:192,2,62.5
112,168,73117,2,0,B|208:192|296:160,1,187.5
368,160,73699,1,0
432,200,73845,2,0,B|440:168|440:136,1,62.5
392,24,74136,2,0,B|384:56|384:88,1,62.5
432,200,74427,1,0
368,232,74573,1,0
301,196,74719,1,0
256,56,75010,2,0,B|192:48|128:72,1,125
64,104,75447,2,0,B|48:200|88:288,1,187.5
232,256,76175,2,0,B|328:240|416:272,2,187.5
96,192,77340,1,0
112,344,77631,1,0
40,320,77777,2,0,B|0:232|32:136,1,187.5
168,72,78505,2,0,B|232:64|296:88,1,125
352,128,78942,2,0,B|360:192|336:256,1,125
272,288,79379,2,0,B|208:296|144:272,1,125
208,136,79961,1,0
208,136,80107,2,0,B|144:112|80:120,1,125
88,192,80544,1,0
64,48,80835,2,0,B|128:40|192:56,1,125
256,80,81272,1,0
256,80,81563,1,0
328,88,81709,1,0
400,64,81855,1,0
456,112,82000,2,0,B|448:144|448:176,1,62.5
368,248,82291,2,0,B|376:216|376:184,1,62.5
304,160,82583,2,0,B|240:144|176:152,1,125
168,304,83165,2,0,B|232:320|296:312,2,125
48,208,84039,1,0
56,136,84185,2,0,B|88:80|144:48,1,125
216,72,84622,2,0,B|248:80|280:80,1,62.5
352,64,84913,2,0,B|408:96|440:152,1,125
376,288,85495,2,0,B|344:288|312:296,2,62.5
272,176,86078,2,0,B|216:200|144:192,2,125
288,104,86806,1,0
256,40,86952,1,0
256,40,87243,2,0,B|224:40|192:48,1,62.5
120,64,87534,1,0
104,136,87680,1,0
184,264,87971,1,0
256,136,88262,1,0
104,136,88554,1,0
104,136,88699,1,0
