osu file format v12

[General]
AudioFilename: Sakuranbo Kiss.mp3
AudioLeadIn: 0
PreviewTime: 66839
Countdown: 0
SampleSet: Normal
StackLeniency: 0.7
Mode: 0
LetterboxInBreaks: 0
WidescreenStoryboard: 0

[Editor]
Bookmarks: 27515,101229
DistanceSpacing: 1
BeatDivisor: 4
GridSize: 4

[Metadata]
Title:Sakuranbo Kiss ~Bakuhatsu Damo~n~
TitleUnicode:さくらんぼキッス ~爆発だも~ん~
Artist:KOTOKO
ArtistUnicode:KOTOKO
Creator:banvi
Version:Normal
Source:Colorful Kiss ~12 ko no Mune Kyun!~
Tags:SHORT CIRCUIT カラフルキッス ~12コの胸キュン!~ giga opening eroge visual novel
BeatmapID:158622
BeatmapSetID:51802

[Difficulty]
HPDrainRate:3
CircleSize:3
OverallDifficulty:4
ApproachRate:5
SliderMultiplier:1.2
SliderTickRate:1

[Events]
//Background and Video events
0,0,"bg1.jpg",0,0
//Break Periods
2,20860,26317
2,94574,100031
2,168288,172031
//Storyboard Layer 0 (Background)
//Storyboard Layer 1 (Fail)
//Storyboard Layer 2 (Pass)
//Storyboard Layer 3 (Foreground)
//Storyboard Sound Samples
//Background Colour Transformations
3,100,163,162,255

[TimingPoints]
89,428.571428571429,4,1,1,60,1,0
6946,-100,4,1,1,65,0,1
17178,-100,4,1,1,75,0,1
17285,-100,4,1,1,65,0,1
17821,-100,4,1,1,75,0,1
17928,-100,4,1,1,65,0,1
20660,-100,4,1,1,65,0,0
27089,-100,4,1,1,55,0,0
27678,-100,4,2,0,55,0,0
27785,-100,4,1,1,55,0,0
28106,-100,4,2,0,55,0,0
28214,-100,4,1,1,55,0,0
28535,-100,4,2,0,55,0,0
28642,-100,4,1,1,55,0,0
29392,-100,4,2,0,55,0,0
29499,-100,4,1,1,55,0,0
29821,-100,4,2,0,55,0,0
29928,-100,4,1,1,55,0,0
30249,-100,4,2,0,55,0,0
30356,-100,4,1,1,55,0,0
31106,-100,4,2,0,55,0,0
31214,-100,4,1,1,55,0,0
31535,-100,4,2,0,55,0,0
31642,-100,4,1,1,55,0,0
31964,-100,4,2,0,55,0,0
32071,-100,4,1,1,55,0,0
32821,-100,4,2,0,55,0,0
32928,-100,4,1,1,55,0,0
33249,-100,4,2,0,55,0,0
33356,-100,4,1,1,55,0,0
34160,-100,4,1,1,50,0,0
39624,-100,4,2,0,10,0,0
39839,-100,4,1,1,50,0,0
43053,-100,4,2,0,10,0,0
43267,-100,4,1,1,50,0,0
47981,-100,4,1,1,55,0,0
66089,-100,4,1,1,60,0,0
66946,-100,4,1,1,65,0,1
77178,-100,4,1,1,75,0,1
77285,-100,4,1,1,65,0,1
77821,-100,4,1,1,75,0,1
77928,-100,4,1,1,65,0,1
80231,-100,4,1,1,65,0,0
80660,-100,4,1,1,65,0,1
90892,-100,4,1,1,70,0,1
90999,-100,4,1,1,65,0,1
91535,-100,4,1,1,70,0,1
91642,-100,4,1,1,65,0,1
94374,-100,4,1,1,65,0,0
100803,-100,4,1,1,55,0,0
101392,-100,4,2,0,55,0,0
101499,-100,4,1,1,55,0,0
101821,-100,4,2,0,55,0,0
101928,-100,4,1,1,55,0,0
102249,-100,4,2,0,55,0,0
102356,-100,4,1,1,55,0,0
103106,-100,4,2,0,55,0,0
103214,-100,4,1,1,55,0,0
103535,-100,4,2,0,55,0,0
103642,-100,4,1,1,55,0,0
103964,-100,4,2,0,55,0,0
104071,-100,4,1,1,55,0,0
104821,-100,4,2,0,55,0,0
104928,-100,4,1,1,55,0,0
105249,-100,4,2,0,55,0,0
105356,-100,4,1,1,55,0,0
105678,-100,4,2,0,55,0,0
105785,-100,4,1,1,55,0,0
106535,-100,4,2,0,55,0,0
106642,-100,4,1,1,55,0,0
106964,-100,4,2,0,55,0,0
107071,-100,4,1,1,55,0,0
107874,-100,4,1,1,50,0,0
109910,-100,4,2,0,10,0,0
110124,-100,4,1,1,50,0,0
113339,-100,4,2,0,10,0,0
113553,-100,4,1,1,50,0,0
116767,-100,4,2,0,10,0,0
116981,-100,4,1,1,50,0,0
121696,-100,4,1,1,55,0,0
140660,-100,4,1,1,65,0,1
150892,-100,4,1,1,75,0,1
150999,-100,4,1,1,65,0,1
151535,-100,4,1,1,75,0,1
151642,-100,4,1,1,65,0,1
153946,-100,4,1,1,65,0,0
154374,-100,4,1,1,65,0,1
164606,-100,4,1,1,75,0,1
164714,-100,4,1,1,65,0,1
165249,-100,4,1,1,75,0,1
165356,-100,4,1,1,65,0,1
168089,-100,4,1,1,65,0,0
172803,-100,4,1,1,55,0,0
174946,-100,4,1,1,70,0,1
175053,-100,4,1,1,55,0,0

[Colours]
Combo1 : 128,255,255
Combo2 : 255,119,187
Combo3 : 255,255,40
Combo4 : 139,255,23

[HitObjects]
256,192,6517,5,0,0:0:0:0:
304,84,6946,6,0,B|299:68|336:29|386:31|401:47,1,120,4|8,0:0|0:0,0:0:0:0:
444,88,7589,1,0,0:0:0:0:
440,148,7803,2,0,B|444:163|407:202|357:200|342:184,1,120,0|8,0:0|0:0,0:0:0:0:
256,268,8660,2,0,B|240:272|201:235|203:185|219:170,2,120,0|8|0,0:0|0:0|0:0,0:0:0:0:
368,308,9946,1,8,0:0:0:0:
432,208,10374,6,0,B|448:193|449:142|411:106|395:110,2,120,0|8|0,0:0|0:0|0:0,0:0:0:0:
312,196,11660,1,8,0:0:0:0:
256,176,11874,1,0,0:0:0:0:
200,196,12089,2,0,B|182:208|132:200|104:156|111:141,1,120,0|8,0:0|0:0,0:0:0:0:
212,80,12946,2,0,B|229:67|279:75|307:119|300:134,1,120,0|8,0:0|0:0,0:0:0:0:
420,124,13803,6,0,B|436:138|437:189|399:225|383:221,1,120,4|8,0:0|0:0,0:0:0:0:
332,252,14446,1,0,0:0:0:0:
272,252,14660,2,0,L|132:252,1,120,0|8,0:0|0:0,0:0:0:0:
32,232,15517,2,0,B|15:246|14:297|52:333|68:329,2,120,0|8|0,0:0|0:0|0:0,0:0:0:0:
108,140,16803,1,8,0:0:0:0:
228,140,17231,6,0,B|241:131|289:154|303:202|292:221,1,120,4|8,0:0|0:0,0:0:0:0:
256,268,17874,2,0,B|245:287|259:335|306:358|320:349,1,120,4|0,0:0|0:0,0:0:0:0:
380,348,18517,1,8,0:0:0:0:
428,312,18731,1,0,0:0:0:0:
428,252,18946,6,0,B|438:232|424:184|377:161|363:170,1,120,4|8,0:0|0:0,0:0:0:0:
304,168,19589,1,0,0:0:0:0:
244,168,19803,2,0,B|192:168|192:168|176:156|176:156|124:156,2,120,8|8|4,0:0|0:0|0:0,0:0:0:0:
208,340,27517,6,0,L|172:284,1,60,0|2,0:0|0:0,0:0:0:0:
116,276,27946,2,0,L|130:210,1,60,8|2,0:0|0:0,0:0:0:0:
88,172,28374,2,0,L|143:135,1,60,0|2,0:0|0:0,0:0:0:0:
208,40,29017,6,0,B|222:33|265:62|272:112|259:130,1,120,0|2,0:0|0:0,0:0:0:0:
232,184,29660,2,0,L|256:244,1,60,8|2,0:0|0:0,0:0:0:0:
220,288,30089,2,0,L|279:313,1,60,0|2,0:0|0:0,0:0:0:0:
388,352,30731,6,0,B|402:358|445:329|452:279|439:261,1,120,0|2,0:0|0:0,0:0:0:0:
420,204,31374,2,0,L|396:144,1,60,8|2,0:0|0:0,0:0:0:0:
428,96,31803,2,0,L|368:70,1,60,0|2,0:0|0:0,0:0:0:0:
260,36,32446,6,0,B|238:40|208:81|219:132|234:137,1,120,0|2,0:0|0:0,0:0:0:0:
280,176,33089,2,0,L|268:248,1,60,8|2,0:0|0:0,0:0:0:0:
312,276,33517,2,0,L|300:348,2,60,0|8|8,0:0|0:0|0:0,0:0:0:0:
428,308,34374,6,0,B|443:304|458:254|432:211|410:205,1,120,4|8,0:0|0:0,0:0:0:0:
488,112,35231,2,0,B|492:96|457:58|406:59|390:75,1,120,0|8,0:0|0:0,0:0:0:0:
352,120,35874,2,0,B|356:135|321:173|270:172|254:156,1,120,0|0,0:0|0:0,0:0:0:0:
208,120,36517,1,8,0:0:0:0:
152,96,36731,2,0,B|136:80|85:79|49:117|54:132,1,120,0|0,0:0|0:0,0:0:0:0:
36,312,37803,5,0,0:0:0:0:
152,340,38231,1,8,0:0:0:0:
168,220,38660,2,0,B|177:207|229:212|259:253|256:275,1,120,0|8,0:0|0:0,0:0:0:0:
256,336,39303,2,0,B|308:308|308:308|328:336|392:352|420:328,1,180,0|8,0:0|0:0,0:0:0:0:
384,216,40374,2,0,B|406:219|447:189|452:137|439:128,1,120,0|8,0:0|0:0,0:0:0:0:
317,116,41231,6,0,B|304:107|309:55|350:25|372:28,2,120,0|8|0,0:0|0:0|0:0,0:0:0:0:
384,216,42517,1,8,0:0:0:0:
384,216,42731,2,0,B|410:234|389:312|335:360|301:345,1,180,0|8,0:0|0:0,0:0:0:0:
268,232,43803,2,0,B|267:254|230:289|178:285|171:270,1,120,0|8,0:0|0:0,0:0:0:0:
80,192,44660,5,0,0:0:0:0:
85,71,45089,1,8,0:0:0:0:
188,136,45517,1,0,0:0:0:0:
188,136,45731,1,0,0:0:0:0:
256,192,46160,12,8,47660,0:0:0:0:
216,312,48089,6,0,B|195:319|148:299|131:250|142:238,1,120,4|8,0:0|0:0,0:0:0:0:
160,120,48946,1,8,0:0:0:0:
256,48,49374,1,8,0:0:0:0:
352,120,49803,2,0,B|363:129|389:132|411:122|436:108|460:116|474:124,2,120,8|8|8,0:0|0:0|0:0,0:0:0:0:
256,192,51089,1,8,0:0:0:0:
160,264,51517,6,0,B|149:255|123:252|101:262|76:276|52:268|38:260,2,120,8|8|8,0:0|0:0|0:0,0:0:0:0:
256,336,52803,1,8,0:0:0:0:
376,324,53231,2,0,B|397:331|444:311|461:262|450:250,1,120,8|8,0:0|0:0,0:0:0:0:
464,192,53874,1,0,0:0:0:0:
450,133,54089,2,0,B|461:122|444:73|397:53|376:60,1,120,8|8,0:0|0:0,0:0:0:0:
340,176,54946,6,0,B|344:191|309:229|258:228|242:212,1,120,4|8,0:0|0:0,0:0:0:0:
188,104,55803,2,0,L|224:44,2,60,8|0|8,0:0|0:0|0:0,0:0:0:0:
77,63,56660,1,8,0:0:0:0:
36,175,57089,1,8,0:0:0:0:
148,215,57517,1,8,0:0:0:0:
107,327,57946,1,8,0:0:0:0:
224,308,58374,6,0,B|276:308|276:308|292:320|292:320|340:320,1,120,8|8,0:0|0:0,0:0:0:0:
324,200,59231,2,0,L|392:200,2,60,8|0|8,0:0|0:0|0:0,0:0:0:0:
208,164,60089,2,0,B|198:157|204:118|236:97|252:99,2,90,4|0|0,0:0|0:0|0:0,0:0:0:0:
164,208,60946,2,0,B|161:219|123:228|91:207|87:190,2,90
256,192,61803,12,0,65231,0:0:0:0:
256,192,66517,5,0,0:0:0:0:
208,300,66946,6,0,B|213:316|176:355|126:353|111:337,2,120,4|8|0,0:0|0:0|0:0,0:0:0:0:
120,216,68231,1,8,0:0:0:0:
32,132,68660,2,0,B|27:116|64:77|114:79|129:95,1,120,0|8,0:0|0:0,0:0:0:0:
236,44,69517,2,0,B|231:60|268:99|318:97|333:81,1,120,0|8,0:0|0:0,0:0:0:0:
388,56,70160,1,0,0:0:0:0:
448,64,70374,6,0,B|462:60|500:96|499:147|483:162,1,120,0|8,0:0|0:0,0:0:0:0:
384,232,71231,2,0,B|394:242|381:293|336:317|315:310,1,120,0|8,0:0|0:0,0:0:0:0:
256,320,71874,1,0,0:0:0:0:
196,310,72089,2,0,B|175:317|130:293|117:242|128:232,1,120,0|8,0:0|0:0,0:0:0:0:
28,162,72946,2,0,B|12:147|11:96|49:60|64:64,1,120,0|8,0:0|0:0,0:0:0:0:
152,148,73803,6,0,L|196:100,2,60,4|0|8,0:0|0:0|0:0,0:0:0:0:
28,162,74660,2,0,B|15:171|19:223|59:254|81:251,1,120,0|8,0:0|0:0,0:0:0:0:
140,252,75303,1,0,0:0:0:0:
200,252,75517,2,0,L|336:252,2,120,0|8|0,0:0|0:0|0:0,0:0:0:0:
168,136,76803,1,8,0:0:0:0:
88,48,77231,6,0,B|72:43|34:80|35:130|52:144,1,120,4|8,0:0|0:0,0:0:0:0:
68,204,77874,2,0,B|60:217|89:262|138:270|156:257,1,120,4|0,0:0|0:0,0:0:0:0:
216,244,78517,1,8,0:0:0:0:
256,200,78731,1,0,0:0:0:0:
232,144,78946,6,0,B|222:131|244:82|291:67|311:78,1,120,4|8,0:0|0:0,0:0:0:0:
364,108,79589,1,0,0:0:0:0:
387,164,79803,2,0,B|395:175|373:224|325:239|306:228,1,120,8|8,0:0|0:0,0:0:0:0:
236,332,80660,6,0,B|223:339|178:310|170:261|183:243,1,120,4|8,0:0|0:0,0:0:0:0:
180,184,81303,1,0,0:0:0:0:
208,132,81517,2,0,B|201:119|230:74|279:66|297:79,1,120,0|8,0:0|0:0,0:0:0:0:
400,140,82374,2,0,B|407:153|378:198|329:206|311:193,1,120,0|8,0:0|0:0,0:0:0:0:
224,276,83231,2,0,B|231:263|202:218|153:210|135:223,1,120,0|8,0:0|0:0,0:0:0:0:
76,240,83874,1,0,0:0:0:0:
24,208,84089,6,0,B|7:193|4:143|41:105|55:109,2,120,0|8|0,0:0|0:0|0:0,0:0:0:0:
144,196,85374,1,8,0:0:0:0:
204,212,85589,1,0,0:0:0:0:
264,228,85803,2,0,B|278:231|315:193|312:143|295:129,1,120,0|8,0:0|0:0,0:0:0:0:
212,44,86660,2,0,B|197:40|160:78|163:128|180:142,1,120,0|8,0:0|0:0,0:0:0:0:
108,240,87517,6,0,L|44:220,2,60,4|0|8,0:0|0:0|0:0,0:0:0:0:
184,332,88374,2,0,B|193:345|245:341|276:301|273:279,1,120,0|8,0:0|0:0,0:0:0:0:
256,220,89017,1,0,0:0:0:0:
260,160,89231,2,0,B|257:138|288:98|340:94|349:107,1,120,0|8,0:0|0:0,0:0:0:0:
440,28,90089,2,0,B|462:30|494:69|486:120|471:126,1,120,0|8,0:0|0:0,0:0:0:0:
460,184,90731,1,0,0:0:0:0:
420,228,90946,6,0,B|417:250|378:282|327:274|321:259,1,120,4|8,0:0|0:0,0:0:0:0:
300,204,91589,2,0,B|297:181|258:149|207:157|201:172,1,120,4|0,0:0|0:0,0:0:0:0:
156,212,92231,1,8,0:0:0:0:
172,268,92446,1,0,0:0:0:0:
132,312,92660,6,0,B|126:326|74:334|35:302|33:280,1,120,4|8,0:0|0:0,0:0:0:0:
24,220,93303,1,0,0:0:0:0:
40,164,93517,2,0,B|59:158|76:117|68:79|58:72|58:72|78:56,2,120,8|8|4,0:0|0:0|0:0,0:0:0:0:
304,340,101231,6,0,L|340:284,1,60,0|2,0:0|0:0,0:0:0:0:
396,276,101660,2,0,L|382:210,1,60,8|2,0:0|0:0,0:0:0:0:
424,172,102088,2,0,L|369:135,1,60,0|2,0:0|0:0,0:0:0:0:
304,40,102731,6,0,B|290:33|247:62|240:112|253:130,1,120,0|2,0:0|0:0,0:0:0:0:
280,184,103374,2,0,L|256:244,1,60,8|2,0:0|0:0,0:0:0:0:
292,288,103803,2,0,L|233:313,1,60,0|2,0:0|0:0,0:0:0:0:
124,352,104445,6,0,B|110:358|67:329|60:279|73:261,1,120,0|2,0:0|0:0,0:0:0:0:
92,204,105088,2,0,L|116:144,1,60,8|2,0:0|0:0,0:0:0:0:
84,96,105517,2,0,L|144:76,1,60,0|2,0:0|0:0,0:0:0:0:
252,36,106160,6,0,B|274:35|311:70|310:122|296:130,1,120,0|2,0:0|0:0,0:0:0:0:
256,176,106803,2,0,L|312:216,2,60,8|2|0,0:0|0:0|0:0,0:0:0:0:
200,156,107446,1,8,0:0:0:0:
144,176,107660,1,8,0:0:0:0:
84,72,108089,6,0,B|62:69|21:99|16:151|29:160,2,120,4|8|0,0:0|0:0|0:0,0:0:0:0:
144,176,109375,1,8,0:0:0:0:
144,176,109589,2,0,B|130:205|178:259|256:280|274:254,1,180,0|8,0:0|0:0,0:0:0:0:
360,340,110660,2,0,B|382:338|416:301|411:249|397:243,1,120,0|8,0:0|0:0,0:0:0:0:
468,144,111517,5,0,0:0:0:0:
396,48,111945,1,8,0:0:0:0:
284,92,112374,2,0,L|232:56,2,60,0|0|8,0:0|0:0|0:0,0:0:0:0:
332,128,113017,2,0,B|363:130|392:200|364:276|332:279,1,180,0|8,0:0|0:0,0:0:0:0:
292,324,113874,1,0,0:0:0:0:
236,348,114089,2,0,B|229:362|177:367|140:332|139:310,1,120,0|8,0:0|0:0,0:0:0:0:
20,320,114946,6,0,B|5:313|0:261|35:224|57:223,1,120,0|8,0:0|0:0,0:0:0:0:
44,104,115803,2,0,B|51:89|103:84|140:119|141:141,1,120,0|8,0:0|0:0,0:0:0:0:
168,192,116446,2,0,B|178:222|256:228|320:186|315:155,1,180,0|8,0:0|0:0,0:0:0:0:
344,40,117517,2,0,B|363:30|412:46|432:95|422:108,1,120,0|8,0:0|0:0,0:0:0:0:
436,232,118374,5,0,0:0:0:0:
334,297,118803,1,8,0:0:0:0:
325,176,119231,1,0,0:0:0:0:
325,176,119445,1,0,0:0:0:0:
256,192,119874,12,8,121374,0:0:0:0:
296,308,121803,6,0,B|317:315|364:295|381:246|370:234,2,120,4|8|8,0:0|0:0|0:0,0:0:0:0:
256,192,123089,1,8,0:0:0:0:
216,76,123517,2,0,B|195:69|148:89|131:138|142:150,1,120,8|8,0:0|0:0,0:0:0:0:
24,124,124374,2,0,B|7:138|1:189|35:228|51:225,1,120,8|8,0:0|0:0,0:0:0:0:
24,344,125231,6,0,B|35:353|61:356|83:346|108:332|132:340|146:348,1,120,8|8,0:0|0:0,0:0:0:0:
256,304,126089,1,8,0:0:0:0:
212,192,126517,1,8,0:0:0:0:
96,228,126946,2,0,B|80:225|63:177|87:131|107:124,1,120,8|8,0:0|0:0,0:0:0:0:
152,84,127589,1,0,0:0:0:0:
208,64,127803,2,0,B|214:50|266:48|302:85|303:107,1,120,8|8,0:0|0:0,0:0:0:0:
424,108,128660,6,0,B|437:114|439:166|402:202|380:203,1,120,4|8,0:0|0:0,0:0:0:0:
300,292,129517,2,0,L|328:356,2,60,8|0|8,0:0|0:0|0:0,0:0:0:0:
260,181,130374,1,8,0:0:0:0:
148,221,130802,1,8,0:0:0:0:
64,136,131231,2,0,B|59:121|95:84|146:85|162:101,1,120,8|8,0:0|0:0,0:0:0:0:
148,220,132089,6,0,B|200:220|200:220|216:232|216:232|264:232,1,120,8|8,0:0|0:0,0:0:0:0:
256,112,132946,2,0,L|256:48,2,60,8|0|8,0:0|0:0|0:0,0:0:0:0:
364,164,133803,2,0,B|373:157|407:181|417:213|409:228,2,90,4|0|0,0:0|0:0|0:0,0:0:0:0:
316,200,134660,2,0,B|307:215|317:247|351:271|361:264,2,90
256,192,135517,12,0,138945,0:0:0:0:
256,192,140231,5,0,0:0:0:0:
140,156,140660,6,0,B|128:147|135:95|177:65|198:70,1,120,4|8,0:0|0:0,0:0:0:0:
256,56,141303,1,0,0:0:0:0:
313,70,141517,2,0,B|334:65|376:95|383:147|372:156,1,120,0|8,0:0|0:0,0:0:0:0:
356,276,142374,2,0,B|369:293|420:298|459:263|456:249,2,120,0|8|0,0:0|0:0|0:0,0:0:0:0:
256,208,143660,1,8,0:0:0:0:
156,276,144089,6,0,B|142:293|91:298|52:263|55:249,2,120,0|8|0,0:0|0:0|0:0,0:0:0:0:
256,208,145374,1,8,0:0:0:0:
228,156,145589,1,0,0:0:0:0:
256,104,145803,2,0,B|253:90|292:55|343:60|356:77,1,120,0|8,0:0|0:0,0:0:0:0:
436,168,146660,2,0,B|438:181|399:216|348:211|335:194,1,120,0|8,0:0|0:0,0:0:0:0:
280,300,147517,6,0,B|267:283|216:278|177:313|180:327,2,120,4|8|0,0:0|0:0|0:0,0:0:0:0:
334,193,148803,1,8,0:0:0:0:
272,88,149231,2,0,B|259:80|214:107|203:157|215:174,2,120,0|8|0,0:0|0:0|0:0,0:0:0:0:
334,193,150517,1,8,0:0:0:0:
452,216,150946,6,0,B|464:233|453:283|407:309|395:302,1,120,4|8,0:0|0:0,0:0:0:0:
336,316,151589,2,0,B|320:330|269:327|236:287|241:273,1,120,4|0,0:0|0:0,0:0:0:0:
220,216,152231,1,8,0:0:0:0:
240,160,152446,1,0,0:0:0:0:
220,104,152660,6,4,B|225:90|192:49|140:46|125:61,1,120,4|8,0:0|0:0,0:0:0:0:
84,108,153303,1,0,0:0:0:0:
84,168,153517,2,0,B|78:181|111:222|163:225|178:210,1,120,8|8,0:0|0:0,0:0:0:0:
232,316,154374,6,0,B|226:303|259:262|311:259|326:274,1,120,4|8,0:0|0:0,0:0:0:0:
380,304,155017,1,0,0:0:0:0:
440,296,155231,2,0,B|461:294|492:252|482:200|468:196,1,120,0|8,0:0|0:0,0:0:0:0:
476,76,156089,2,0,B|472:89|420:100|378:68|376:47,1,120,0|8,0:0|0:0,0:0:0:0:
272,108,156946,2,0,B|270:86|228:55|176:65|172:79,1,120,0|8,0:0|0:0,0:0:0:0:
132,128,157589,1,0,0:0:0:0:
144,188,157803,6,0,B|142:209|100:240|48:230|44:216,2,120,0|8|0,0:0|0:0|0:0,0:0:0:0:
224,96,159089,1,8,0:0:0:0:
256,148,159303,1,0,0:0:0:0:
316,132,159517,2,0,B|319:118|371:107|413:139|415:160,2,120,0|8|0,0:0|0:0|0:0,0:0:0:0:
256,236,160803,1,8,0:0:0:0:
144,192,161231,6,0,L|76:192,2,60,4|0|8,0:0|0:0|0:0,0:0:0:0:
184,148,161874,1,0,0:0:0:0:
168,92,162089,2,0,B|168:70|207:36|260:43|264:56,1,120,0|8,0:0|0:0,0:0:0:0:
260,176,162946,2,0,B|264:190|317:197|356:163|356:141,2,120,0|8|0,0:0|0:0|0:0,0:0:0:0:
168,92,164231,1,8,0:0:0:0:
48,112,164660,6,0,B|26:115|-6:154|2:205|17:211,1,120,4|8,0:0|0:0,0:0:0:0:
40,264,165303,2,0,B|43:287|76:320|133:311|139:296,1,120,4|0,0:0|0:0,0:0:0:0:
188,264,165945,1,8,0:0:0:0:
212,208,166160,1,0,0:0:0:0:
188,152,166374,6,0,B|190:130|229:98|281:106|287:120,1,120,4|8,0:0|0:0,0:0:0:0:
340,148,167017,1,0,0:0:0:0:
380,192,167231,2,0,B|432:192|432:192|452:180|452:180|500:180,2,120,8|8|4,0:0|0:0|0:0,0:0:0:0:
192,212,173231,6,0,B|180:229|191:279|237:305|249:298,1,120,8|8,0:0|0:0,0:0:0:0:
308,192,174089,2,0,L|388:192,2,60,8|8|8,0:0|0:0|0:0,0:0:0:0:
256,84,174946,5,4,0:0:0:0:
