osu file format v13

[General]
AudioFilename: BGMSkAMgY.mp3
AudioLeadIn: 0
PreviewTime: 214175
Countdown: 0
SampleSet: Soft
StackLeniency: 0.3
Mode: 0
LetterboxInBreaks: 1
WidescreenStoryboard: 1

[Editor]
Bookmarks: 26053,27018,27154,32248,44769,54267,55505,62384,64313,76560,79998,84402,93209,93349,102017,119220,119631,137386,151009,155963,167936,174817,218578,224771,233991,247202,257110,289313
DistanceSpacing: 1.3
BeatDivisor: 4
GridSize: 4
TimelineZoom: 2

[Metadata]
Title:Sakura no Ame Moegi no yo
TitleUnicode:サクラノアメモエギノヨ
Artist:KOTOKO
ArtistUnicode:KOTOKO
Creator:Urushi38
Version:Insane
Source:空中パズル
Tags:Accel world →unfinished→
BeatmapID:328748
BeatmapSetID:130308

[Difficulty]
HPDrainRate:6
CircleSize:4
OverallDifficulty:7
ApproachRate:8.8
SliderMultiplier:2.8
SliderTickRate:1

[Events]
//Background and Video events
0,0,"BGSAM.jpg",0,0
//Break Periods
2,93549,101252
2,186026,194004
//Storyboard Layer 0 (Background)
//Storyboard Layer 1 (Fail)
//Storyboard Layer 2 (Pass)
//Storyboard Layer 3 (Foreground)
//Storyboard Sound Samples
//Background Colour Transformations
3,100,163,162,255

[TimingPoints]
3074,550.45871559633,4,2,1,70,1,0
8991,-100,4,3,1,5,0,0
9266,-200,4,2,2,60,0,0
27294,-133.333333333333,4,2,2,60,0,0
44771,-100,4,2,2,60,0,0
44909,-100,4,2,1,70,0,1
62523,-83.3333333333333,4,2,1,80,0,1
80138,-100,4,2,1,70,0,0
80275,-100,4,2,2,70,0,0
82340,-200,4,2,2,70,0,0
83991,-100,4,2,2,70,0,0
101881,-133.333333333333,4,2,2,60,0,0
117982,-133.333333333333,4,2,1,60,0,0
119358,-133.333333333333,4,2,2,60,0,0
137386,-100,4,2,1,70,0,1
155000,-83.3333333333333,4,2,1,80,0,1
172615,-100,4,2,1,70,0,0
174817,-200,4,2,2,70,0,0
176468,-100,4,2,2,70,0,0
177019,-100,4,2,2,70,0,0
194633,-200,4,2,2,70,0,0
198211,-200,4,2,1,70,0,0
198486,-200,4,2,2,70,0,0
202340,-200,4,2,1,70,0,0
203028,-200,4,2,2,70,0,0
203303,-133.333333333333,4,2,2,60,0,0
207018,-133.333333333333,4,2,1,60,0,0
207294,-133.333333333333,4,2,2,60,0,0
214450,-200,4,2,2,70,0,0
215551,-100,4,2,2,70,0,0
216652,-83.3333333333333,4,2,1,80,0,1
249679,-100,4,2,1,70,0,0
251881,-133.333333333333,4,2,2,70,0,0
253395,-100,4,2,2,70,0,0
260688,-133.333333333333,4,2,2,70,0,0
262890,-100,4,2,2,70,0,0
293578,-100,4,3,2,5,0,0

[Colours]
Combo1 : 255,255,255
Combo2 : 5,5,240
Combo3 : 0,255,255

[HitObjects]
256,192,3074,12,0,9129,0:0:0:0:
256,192,9404,5,0,0:0:0:0:
348,136,9679,2,0,L|432:140,1,70,2|0,0:0|0:0,0:0:0:0:
444,160,10092,2,0,P|460:200|448:288,1,105
256,280,10780,2,0,L|172:284,1,70,2|0,0:0|0:0,0:0:0:0:
160,300,11193,2,0,P|144:260|156:172,1,105
192,40,11881,6,0,P|208:80|196:168,2,105,2|2|2,0:0|0:0|0:0,0:0:0:0:
120,104,12982,1,2,0:0:0:0:
120,104,13807,6,0,L|128:168,1,35
84,200,14083,2,0,P|128:192|160:204,1,70,2|0,0:0|0:0,0:0:0:0:
180,212,14496,2,0,P|220:224|292:204,1,105
496,116,15184,2,0,P|452:108|420:120,1,70,2|0,0:0|0:0,0:0:0:0:
400,128,15597,2,0,P|360:140|288:120,1,105
104,80,16285,6,0,P|154:66|204:79,2,105,2|2|2,0:0|0:0|0:0,0:0:0:0:
24,128,17385,1,2,0:0:0:0:
24,128,18211,5,0,0:0:0:0:
72,212,18486,2,0,L|64:296,1,70,2|0,0:0|0:0,0:0:0:0:
80,304,18899,2,0,P|112:316|200:296,1,105
420,248,19587,2,0,P|372:240|316:260,1,105,2|0,0:0|0:0,0:0:0:0:
256,352,20413,1,0,0:0:0:0:
216,232,20688,6,0,B|212:196|212:196|224:164|224:164|220:124,2,105,2|2|2,0:0|0:0|0:0,0:0:0:0:
292,208,21789,1,2,0:0:0:0:
292,208,22340,5,0,0:0:0:0:
176,192,22615,1,0,0:0:0:0:
72,248,22890,2,0,L|80:332,1,70,2|0,0:0|0:0,0:0:0:0:
96,340,23303,2,0,P|144:348|200:312,1,105
320,256,23991,2,0,P|371:248|412:272,1,70,2|0,0:0|0:0,0:0:0:0:
408,272,24404,2,0,L|397:383,1,105
240,316,25092,6,0,P|228:280|232:220,1,70,2|0,0:0|0:0,0:0:0:0:
236,216,25505,1,0,0:0:0:0:
256,192,25642,12,0,27018,0:0:0:0:
152,60,27294,6,0,L|160:180,1,105.000004005432,8|0,0:0|0:0,0:0:0:0:
88,200,27707,2,0,L|81:95,1,105.000004005432,8|0,0:0|0:0,0:0:0:0:
60,72,28119,1,8,0:0:0:0:
32,308,28395,2,0,P|96:324|152:304,1,105.000004005432,8|0,0:0|0:0,0:0:0:0:
192,272,28807,2,0,P|243:263|292:279,1,105.000004005432,8|0,0:0|0:0,0:0:0:0:
308,296,29220,1,10,0:0:0:0:
432,352,29496,6,0,L|440:188,2,157.500006008148,10|8|8,0:0|0:0|0:0,0:0:0:0:
360,236,30596,2,0,L|364:136,2,52.5000020027161,10|0|0,0:0|0:0|0:0,0:0:0:0:
256,192,31147,1,2,0:0:0:0:
152,236,31422,6,0,L|147:136,1,52.5000020027161,8|0,0:0|0:0,0:0:0:0:
146,131,31697,2,0,P|113:147|23:128,1,105.000004005432,8|0,0:0|0:0,0:0:0:0:
88,64,32110,2,0,P|121:48|211:67,1,105.000004005432,8|0,0:0|0:0,0:0:0:0:
208,68,32523,1,8,0:0:0:0:
366,131,32798,2,0,P|399:147|489:128,1,105.000004005432,8|0,0:0|0:0,0:0:0:0:
424,64,33211,2,0,P|391:48|301:67,1,105.000004005432,8|0,0:0|0:0,0:0:0:0:
304,68,33624,1,10,0:0:0:0:
292,192,33899,6,0,P|344:224|440:192,2,157.500006008148,10|8|8,0:0|0:0|0:0,0:0:0:0:
208,68,35000,2,0,L|124:60,1,52.5000020027161,8|0,0:0|0:0,0:0:0:0:
96,136,35275,2,0,L|148:140,1,52.5000020027161
212,192,35551,1,2,0:0:0:0:
44,300,35826,5,8,0:0:0:0:
136,268,36101,2,0,P|164:268|244:316,1,105.000004005432,8|0,0:0|0:0,0:0:0:0:
296,352,36514,2,8,P|347:346|391:318,1,105.000004005432,0|0,0:0|0:0,0:0:0:0:
408,296,36927,1,8,0:0:0:0:
448,152,37202,2,0,L|312:168,1,105.000004005432,8|0,0:0|0:0,0:0:0:0:
280,100,37615,2,0,L|384:87,1,105.000004005432,8|0,0:0|0:0,0:0:0:0:
408,68,38028,1,10,0:0:0:0:
324,184,38303,6,0,P|264:192|200:140,1,105.000004005432,10|0,0:0|0:0,0:0:0:0:
200,156,38716,2,0,P|184:112|248:8,1,157.500006008148,8|8,0:0|0:0,0:0:0:0:
252,224,39404,2,0,P|208:240|120:176,1,157.500006008148,8|0,0:0|0:0,0:0:0:0:
120,152,39954,5,2,0:0:0:0:
80,272,40229,1,8,0:0:0:0:
24,184,40505,2,0,L|40:68,1,105.000004005432,8|0,0:0|0:0,0:0:0:0:
120,24,40918,2,0,L|105:128,1,105.000004005432,8|0,0:0|0:0,0:0:0:0:
120,152,41330,1,8,0:0:0:0:
180,328,41606,2,0,L|296:312,1,105.000004005432,8|0,0:0|0:0,0:0:0:0:
340,232,42019,2,0,L|235:246,1,105.000004005432,8|0,0:0|0:0,0:0:0:0:
212,232,42431,1,8,0:0:0:0:
296,40,42707,5,10,0:0:0:0:
444,128,42982,1,2,0:0:0:0:
300,200,43257,2,0,P|308:164|328:128,1,52.5000020027161,2|2,0:0|0:0,0:0:0:0:
368,104,43532,1,2,0:0:0:0:
416,304,43807,5,2,0:0:0:0:
256,340,44083,1,2,0:0:0:0:
416,304,44358,1,2,0:0:0:0:
256,340,44633,2,0,P|228:344|176:344,1,52.5000020027161
132,320,44908,5,12,0:0:0:0:
96,88,45184,1,0,0:0:0:0:
232,184,45459,1,0,0:0:0:0:
0,220,45735,1,0,0:0:0:0:
96,88,46009,5,8,0:0:0:0:
128,168,46147,2,0,L|116:244,1,70
132,320,46422,2,0,P|172:328|216:320,1,70,0|0,0:0|0:0,0:0:0:0:
416,144,46835,5,0,0:0:0:0:
460,208,46973,1,0,0:0:0:0:
436,280,47110,2,0,P|408:304|360:304,1,70,8|0,0:0|0:0,0:0:0:0:
312,180,47385,2,0,P|346:192|370:233,1,70
317,386,47661,2,0,P|281:327|292:260,1,140,0|0,0:0|0:0,0:0:0:0:
312,180,48073,2,0,P|322:112|286:53,1,140,10|0,0:0|0:0,0:0:0:0:
196,40,48486,2,0,L|116:48,2,70,0|0|0,0:0|0:0|0:0,0:0:0:0:
464,80,49037,6,0,L|456:160,1,70
392,208,49312,1,8,0:0:0:0:
312,180,49450,2,0,L|300:80,1,70
232,160,49725,2,0,L|240:229,1,70,0|0,0:0|0:0,0:0:0:0:
44,340,50138,6,0,P|36:316|44:256,1,70
84,208,50413,1,8,0:0:0:0:
152,256,50551,2,0,L|140:328,1,70
212,360,50826,2,0,L|223:290,1,70,0|0,0:0|0:0,0:0:0:0:
288,93,51239,5,0,0:0:0:0:
388,184,51514,2,0,P|320:228|184:180,2,210,8|0|0,0:0|0:0|0:0,0:0:0:0:
288,93,52615,5,8,0:0:0:0:
248,168,52752,2,0,B|276:236|276:236|248:328,1,140
228,372,53165,2,0,P|267:285|185:232,1,210,0|0,0:0|0:0,0:0:0:0:
200,304,53716,5,12,0:0:0:0:
312,256,53991,1,0,0:0:0:0:
92,252,54266,1,0,0:0:0:0:
420,308,54541,1,0,0:0:0:0:
200,304,54817,1,8,0:0:0:0:
180,220,54954,2,0,P|176:180|184:128,1,70
208,72,55229,2,0,P|228:40|272:16,1,70,0|0,0:0|0:0,0:0:0:0:
468,136,55642,5,0,0:0:0:0:
456,216,55780,2,0,P|440:232|376:252,1,70,0|8,0:0|0:0,0:0:0:0:
304,176,56055,2,0,P|320:160|384:140,1,70
312,268,56330,1,0,0:0:0:0:
312,268,56468,2,0,P|280:264|212:168,1,140,0|0,0:0|0:0,0:0:0:0:
212,148,56881,2,0,L|184:296,2,140,10|0|0,0:0|0:0|0:0,0:0:0:0:
212,148,57844,5,0,0:0:0:0:
32,68,58119,2,0,P|56:112|152:152,1,140,8|0,0:0|0:0,0:0:0:0:
212,148,58532,2,0,P|152:168|104:264,1,140
120,368,58945,2,0,P|128:344|128:292,1,70
60,324,59220,2,0,L|256:312,1,140,8|0,0:0|0:0,0:0:0:0:
432,192,59771,1,8,0:0:0:0:
328,348,60046,5,0,0:0:0:0:
292,184,60321,2,0,L|316:32,1,140,8|0,0:0|0:0,0:0:0:0:
380,120,60734,2,0,L|358:258,1,140
240,312,61147,2,0,P|248:292|308:260,1,70
328,348,61422,5,8,0:0:0:0:
264,320,61560,1,0,0:0:0:0:
196,312,61697,1,0,0:0:0:0:
128,328,61835,1,0,0:0:0:0:
72,368,61973,1,8,0:0:0:0:
184,72,62248,1,0,0:0:0:0:
40,192,62523,6,0,P|88:208|136:200,1,83.9999974365235,14|0,0:0|0:0,0:0:0:0:
284,184,62798,2,0,P|236:168|184:168,1,83.9999974365235,0|0,0:0|0:0,0:0:0:0:
332,256,63073,2,0,P|380:268|472:252,1,125.999996154785,2|0,0:0|0:0,0:0:0:0:
484,240,63349,2,0,L|476:152,1,83.9999974365235
412,64,63624,1,10,0:0:0:0:
372,160,63762,2,0,L|388:336,1,167.999994873047,2|2,0:0|0:0,0:0:0:0:
396,344,64174,1,0,0:0:0:0:
124,248,64450,5,2,0:0:0:0:
132,352,64587,1,2,0:0:0:0:
208,296,64725,1,10,0:0:0:0:
200,192,64862,2,0,L|192:96,1,83.9999974365235
252,32,65138,1,2,0:0:0:0:
284,116,65275,2,0,L|88:100,1,167.999994873047,2|2,0:0|0:0,0:0:0:0:
45,141,65688,2,0,P|85:130|116:102,1,83.9999974365235,10|0,0:0|0:0,0:0:0:0:
179,272,65963,2,0,P|195:233|200:192,1,83.9999974365235,2|0,0:0|0:0,0:0:0:0:
392,232,66239,2,0,P|379:192|352:160,1,83.9999974365235,2|0,0:0|0:0,0:0:0:0:
200,156,66651,5,2,0:0:0:0:
256,232,66789,1,0,0:0:0:0:
312,156,66927,1,14,0:0:0:0:
247,71,67064,2,0,B|264:124|264:124|244:176|244:176|256:232,1,167.999994873047,2|2,0:0|0:0,0:0:0:0:
256,232,67477,2,0,P|268:276|256:340,1,83.9999974365235
184,284,67752,5,0,0:0:0:0:
256,232,67890,1,0,0:0:0:0:
184,284,68028,1,10,0:0:0:0:
256,232,68165,2,0,B|344:208|336:264|420:232,1,167.999994873047,2|2,0:0|0:0,0:0:0:0:
419,232,68578,2,0,L|420:128,1,83.9999974365235
372,72,68853,5,2,0:0:0:0:
372,72,69129,2,0,P|344:120|400:216,1,167.999994873047,10|0,0:0|0:0,0:0:0:0:
359,361,69541,2,0,P|433:330|452:252,1,167.999994873047,2|0,0:0|0:0,0:0:0:0:
288,220,69954,2,0,P|280:252|296:316,1,83.9999974365235,2|0,0:0|0:0,0:0:0:0:
184,332,70229,1,10,0:0:0:0:
208,240,70367,2,0,B|128:232|124:284|40:260,1,167.999994873047
127,102,70780,2,0,P|187:159|208:240,1,167.999994873047,0|2,0:0|0:0,0:0:0:0:
184,332,71193,1,0,0:0:0:0:
88,348,71330,6,0,P|76:304|80:248,1,83.9999974365235,14|0,0:0|0:0,0:0:0:0:
128,103,71606,2,0,P|140:147|136:203,1,83.9999974365235,0|0,0:0|0:0,0:0:0:0:
16,160,71881,2,0,P|11:108|22:26,1,125.999996154785,2|0,0:0|0:0,0:0:0:0:
42,15,72156,2,0,L|140:21,1,83.9999974365235,0|0,0:0|0:0,0:0:0:0:
256,104,72431,1,10,0:0:0:0:
168,80,72569,2,0,P|172:148|236:192,1,125.999996154785,2|0,0:0|0:0,0:0:0:0:
240,188,72844,2,0,L|336:184,1,83.9999974365235,2|0,0:0|0:0,0:0:0:0:
496,288,73257,5,2,0:0:0:0:
424,344,73395,1,0,0:0:0:0:
408,256,73532,2,0,L|416:160,1,83.9999974365235,10|0,0:0|0:0,0:0:0:0:
416,80,73807,1,0,0:0:0:0:
328,60,73945,1,0,0:0:0:0:
264,124,74083,2,0,P|282:140|342:147,2,83.9999974365235,2|0|0,0:0|0:0|0:0,0:0:0:0:
174,98,74496,5,0,0:0:0:0:
240,39,74633,1,10,0:0:0:0:
328,60,74771,2,0,L|320:200,1,125.999996154785,2|0,0:0|0:0,0:0:0:0:
308,208,75046,2,0,L|312:312,1,83.9999974365235,2|0,0:0|0:0,0:0:0:0:
40,316,75459,6,0,L|36:232,1,83.9999974365235,2|0,0:0|0:0,0:0:0:0:
88,140,75734,2,0,P|164:128|220:200,1,167.999994873047,10|0,0:0|0:0,0:0:0:0:
204,347,76147,2,0,P|181:313|176:272,1,83.9999974365235,2|0,0:0|0:0,0:0:0:0:
296,168,76422,1,0,0:0:0:0:
296,168,76560,2,0,L|404:172,1,83.9999974365235,2|0,0:0|0:0,0:0:0:0:
468,312,76835,2,0,L|252:320,1,167.999994873047,10|0,0:0|0:0,0:0:0:0:
220,244,77248,1,0,0:0:0:0:
296,168,77385,2,0,P|308:128|308:72,1,83.9999974365235,2|0,0:0|0:0,0:0:0:0:
204,24,77661,5,2,0:0:0:0:
104,96,77798,1,0,0:0:0:0:
208,144,77936,2,0,L|400:136,1,167.999994873047,10|0,0:0|0:0,0:0:0:0:
480,248,78349,2,0,P|424:288|296:264,1,167.999994873047,10|0,0:0|0:0,0:0:0:0:
213,325,78762,2,0,P|207:283|220:244,1,83.9999974365235,10|0,0:0|0:0,0:0:0:0:
274,24,79037,6,0,P|290:106|272:188,1,167.999994873047,10|0,0:0|0:0,0:0:0:0:
104,176,79450,2,0,P|128:160|212:164,1,83.9999974365235,10|0,0:0|0:0,0:0:0:0:
352,260,79725,1,0,0:0:0:0:
352,260,79862,2,0,P|365:285|352:368,1,83.9999974365235,10|0,0:0|0:0,0:0:0:0:
213,325,80138,1,14,0:0:0:0:
256,192,80275,12,0,81789,0:0:0:0:
256,192,82064,5,0,0:0:0:0:
440,64,82340,2,0,P|448:112|444:172,1,105
256,192,82890,2,0,P|293:161|347:134,1,105
460,288,83440,2,0,P|414:270|364:237,1,105
156,144,83991,2,0,P|124:144|72:160,1,70,4|0,0:0|0:0,0:0:0:0:
44,344,84266,2,0,P|76:344|128:328,1,70
256,192,84541,12,0,93349,0:0:0:0:
256,192,101881,5,2,0:0:0:0:
172,276,102156,2,0,P|116:304|56:296,1,105.000004005432,8|0,0:0|0:0,0:0:0:0:
24,240,102569,2,0,L|32:128,1,105.000004005432,8|0,0:0|0:0,0:0:0:0:
0,64,102982,1,8,0:0:0:0:
188,148,103257,2,0,L|312:144,1,105.000004005432,8|0,0:0|0:0,0:0:0:0:
352,88,103670,2,0,P|372:140|356:196,1,105.000004005432,8|0,0:0|0:0,0:0:0:0:
304,248,104083,1,0,0:0:0:0:
144,304,104358,6,0,B|92:296|92:296|52:260|52:260|0:252,2,157.500006008148,8|8|8,0:0|0:0|0:0,0:0:0:0:
304,248,105459,2,0,L|368:240,2,52.5000020027161,8|0|0,0:0|0:0|0:0,0:0:0:0:
168,216,106009,1,2,0:0:0:0:
212,356,106285,6,0,L|228:276,1,52.5000020027161,8|0,0:0|0:0,0:0:0:0:
292,344,106560,2,0,L|420:340,1,105.000004005432,8|0,0:0|0:0,0:0:0:0:
460,288,106973,2,0,P|472:248|452:176,1,105.000004005432,8|0,0:0|0:0,0:0:0:0:
400,136,107385,1,8,0:0:0:0:
236,40,107661,2,0,L|240:160,1,105.000004005432,8|0,0:0|0:0,0:0:0:0:
164,180,108073,2,0,L|160:75,1,105.000004005432,8|0,0:0|0:0,0:0:0:0:
96,24,108486,1,8,0:0:0:0:
94,239,108762,6,0,P|142:267|246:219,2,157.500006008148,8|8|8,0:0|0:0|0:0,0:0:0:0:
8,104,109862,2,0,L|80:96,1,52.5000020027161,8|0,0:0|0:0,0:0:0:0:
136,116,110137,2,0,L|208:108,1,52.5000020027161
256,68,110413,1,2,0:0:0:0:
412,192,110688,5,8,0:0:0:0:
256,316,110963,2,0,P|248:288|264:208,1,105.000004005432,8|0,0:0|0:0,0:0:0:0:
348,164,111376,2,0,P|357:215|343:265,1,105.000004005432,8|0,0:0|0:0,0:0:0:0:
284,320,111789,1,8,0:0:0:0:
164,200,112064,2,0,P|148:192|56:204,1,105.000004005432,8|0,0:0|0:0,0:0:0:0:
8,264,112477,2,0,P|4:320|32:368,1,105.000004005432,8|0,0:0|0:0,0:0:0:0:
108,372,112890,1,8,0:0:0:0:
164,200,113165,6,0,L|168:24,2,157.500006008148,8|8|8,0:0|0:0|0:0,0:0:0:0:
256,328,114266,2,0,L|324:324,1,52.5000020027161,8|0,0:0|0:0,0:0:0:0:
384,356,114541,2,0,P|392:288|380:224,1,105.000004005432,8|2,0:0|0:0,0:0:0:0:
308,96,115092,1,8,0:0:0:0:
200,204,115367,6,0,P|224:228|304:252,1,105.000004005432,8|0,0:0|0:0,0:0:0:0:
364,248,115780,2,0,L|472:228,1,105.000004005432,8|0,0:0|0:0,0:0:0:0:
496,156,116193,6,0,L|500:96,1,52.5000020027161,8|0,0:0|0:0,0:0:0:0:
420,76,116468,2,0,L|413:180,1,105.000004005432,8|0,0:0|0:0,0:0:0:0:
364,248,116881,2,0,P|372:308|464:356,1,157.500006008148,8|8,0:0|0:0,0:0:0:0:
296,184,117569,6,0,P|277:237|210:283,1,105.000004005432,8|0,0:0|0:0,0:0:0:0:
169,290,117982,2,0,P|97:286|261:134,1,577.500022029878,0|0,0:0|0:0,0:0:0:0:
169,290,119771,6,0,L|164:176,1,105.000004005432,8|0,0:0|0:0,0:0:0:0:
236,128,120184,2,0,L|240:232,1,105.000004005432,8|0,0:0|0:0,0:0:0:0:
284,304,120596,1,8,0:0:0:0:
436,344,120872,2,0,P|468:292|464:216,1,105.000004005432,8|0,0:0|0:0,0:0:0:0:
424,184,121285,2,0,P|412:120|428:68,1,105.000004005432,8|0,0:0|0:0,0:0:0:0:
472,24,121697,1,8,0:0:0:0:
332,156,121973,6,0,P|292:172|176:120,2,157.500006008148,8|8|8,0:0|0:0|0:0,0:0:0:0:
244,32,123073,2,0,L|236:100,1,52.5000020027161,8|0,0:0|0:0,0:0:0:0:
188,136,123349,2,0,P|208:196|208:248,1,105.000004005432,8|2,0:0|0:0,0:0:0:0:
52,348,123899,5,8,0:0:0:0:
48,268,124037,1,0,0:0:0:0:
120,304,124174,2,0,P|156:312|248:300,1,105.000004005432,8|0,0:0|0:0,0:0:0:0:
288,260,124587,2,0,P|340:254|391:263,1,105.000004005432,8|0,0:0|0:0,0:0:0:0:
448,312,125000,1,8,0:0:0:0:
332,184,125275,2,0,B|320:160|320:160|316:116|336:68,1,105.000004005432,8|0,0:0|0:0,0:0:0:0:
404,16,125688,2,8,P|428:72|412:136,1,105.000004005432
368,188,126101,1,8,0:0:0:0:
216,40,126376,6,0,B|112:48|112:48|68:88,2,157.500006008148,8|8|8,0:0|0:0|0:0,0:0:0:0:
80,204,127477,2,0,P|60:176|60:144,1,52.5000020027161,8|0,0:0|0:0,0:0:0:0:
140,144,127752,2,0,P|160:172|160:204,1,52.5000020027161
136,260,128028,1,2,0:0:0:0:
0,344,128303,5,8,0:0:0:0:
136,260,128578,2,0,L|264:264,1,105.000004005432,8|0,0:0|0:0,0:0:0:0:
312,324,128991,2,0,P|332:276|280:180,1,157.500006008148,8|8,0:0|0:0,0:0:0:0:
108,100,129679,2,0,L|216:108,1,105.000004005432,8|0,0:0|0:0,0:0:0:0:
296,72,130092,2,0,L|400:64,1,105.000004005432,8|0,0:0|0:0,0:0:0:0:
472,112,130505,1,8,0:0:0:0:
448,320,130780,6,0,B|392:332|392:332|344:324|344:324|284:336,2,157.500006008148,8|8|8,0:0|0:0|0:0,0:0:0:0:
472,112,131881,2,0,P|416:152|412:264,1,157.500006008148,8|0,0:0|0:0,0:0:0:0:
448,320,132431,1,2,0:0:0:0:
472,112,132707,1,8,0:0:0:0:
292,48,132982,6,0,L|184:60,1,105.000004005432,8|0,0:0|0:0,0:0:0:0:
120,116,133395,2,0,P|104:176|120:236,1,105.000004005432,8|0,0:0|0:0,0:0:0:0:
164,280,133807,1,8,0:0:0:0:
264,152,134083,2,0,L|388:144,1,105.000004005432,8|0,0:0|0:0,0:0:0:0:
440,184,134496,2,0,P|464:236|444:304,1,105.000004005432,8|0,0:0|0:0,0:0:0:0:
420,344,134908,1,8,0:0:0:0:
244,308,135184,5,10,0:0:0:0:
268,76,135459,1,2,0:0:0:0:
172,176,135734,1,2,0:0:0:0:
256,192,135872,1,2,0:0:0:0:
340,208,136009,1,2,0:0:0:0:
132,296,136285,2,0,L|124:228,1,52.5000020027161,2|0,0:0|0:0,0:0:0:0:
172,176,136560,1,2,0:0:0:0:
368,312,136835,1,2,0:0:0:0:
386,140,137110,2,0,L|380:88,1,52.5000020027161,2|2,0:0|0:0,0:0:0:0:
424,24,137385,5,8,0:0:0:0:
368,228,137661,1,0,0:0:0:0:
288,96,137936,1,0,0:0:0:0:
503,155,138212,1,0,0:0:0:0:
368,228,138486,1,8,0:0:0:0:
296,176,138624,2,0,P|260:172|208:184,1,70
156,232,138899,2,0,P|120:236|68:224,1,70
52,52,139312,5,0,0:0:0:0:
120,24,139450,1,0,0:0:0:0:
188,40,139587,1,8,0:0:0:0:
220,104,139725,2,0,L|208:184,1,70
156,232,140000,1,0,0:0:0:0:
208,292,140138,2,0,P|248:316|344:292,1,140
372,232,140551,2,0,L|360:136,1,70,0|8,0:0|0:0,0:0:0:0:
456,128,140826,2,0,L|447:197,1,70
444,276,141101,2,0,L|456:360,1,70
400,64,141514,5,0,0:0:0:0:
400,64,141651,1,0,0:0:0:0:
400,64,141789,1,8,0:0:0:0:
400,64,141927,2,0,P|372:76|316:80,1,70
256,56,142202,2,0,P|216:56|176:64,1,70
76,192,142615,6,0,P|76:232|80:280,1,70
132,316,142890,1,8,0:0:0:0:
208,344,143028,2,0,L|292:340,1,70
304,264,143303,2,0,L|234:267,1,70
112,116,143716,5,0,0:0:0:0:
300,40,143991,2,0,P|332:84|328:196,1,140,8|0,0:0|0:0,0:0:0:0:
304,264,144404,2,0,P|392:256|440:208,1,140
464,136,144817,2,0,P|460:100|428:64,1,70
380,132,145092,5,8,0:0:0:0:
368,212,145229,2,0,B|384:240|384:240|364:324|364:324|392:368,1,140
444,312,145642,2,0,L|292:340,1,140
48,244,146193,5,8,0:0:0:0:
256,288,146468,1,0,0:0:0:0:
4,320,146743,1,0,0:0:0:0:
300,212,147018,1,0,0:0:0:0:
144,192,147294,1,8,0:0:0:0:
88,136,147431,2,0,P|80:112|88:56,1,70
152,24,147707,2,0,L|236:36,1,70
448,152,148119,6,0,P|456:120|448:72,1,70
400,20,148395,1,8,0:0:0:0:
329,50,148532,1,0,0:0:0:0:
316,128,148670,2,0,L|328:204,1,70
280,276,148945,2,0,P|248:296|144:256,1,140
120,192,149358,1,0,0:0:0:0:
168,124,149496,1,8,0:0:0:0:
204,200,149633,2,0,L|196:272,1,70
168,124,149908,2,0,L|175:54,1,70
4,88,150321,5,0,0:0:0:0:
48,272,150596,2,0,B|76:264|104:240|104:240|68:160|96:72,2,210,8|0|0,0:0|0:0|0:0,0:0:0:0:
256,112,151697,1,8,0:0:0:0:
404,235,151973,2,0,P|432:256|464:272,1,70
480,192,152248,1,0,0:0:0:0:
304,40,152523,5,0,0:0:0:0:
216,184,152798,2,0,B|256:216|256:216|296:304,1,140,8|0,0:0|0:0,0:0:0:0:
219,296,153211,2,0,B|256:216|256:216|296:184,1,140
392,156,153624,1,0,0:0:0:0:
120,156,153899,2,0,P|112:200|116:240,1,70,8|0,0:0|0:0,0:0:0:0:
144,316,154174,1,0,0:0:0:0:
216,184,154450,1,0,0:0:0:0:
96,36,154725,2,0,P|80:56|64:124,1,70
120,156,155000,6,0,L|248:148,1,83.9999974365235,10|0,0:0|0:0,0:0:0:0:
328,76,155275,2,0,L|244:70,1,83.9999974365235,0|0,0:0|0:0,0:0:0:0:
328,188,155551,2,0,L|464:184,1,125.999996154785,2|0,0:0|0:0,0:0:0:0:
472,172,155826,2,0,P|484:212|472:272,1,83.9999974365235,2|0,0:0|0:0,0:0:0:0:
304,344,156101,5,10,0:0:0:0:
304,344,156239,2,0,P|292:304|304:244,1,83.9999974365235,2|0,0:0|0:0,0:0:0:0:
396,224,156514,2,0,P|408:264|396:324,1,83.9999974365235,2|0,0:0|0:0,0:0:0:0:
88,336,156927,5,2,0:0:0:0:
80,256,157064,1,0,0:0:0:0:
152,288,157202,1,10,0:0:0:0:
88,336,157340,2,0,L|0:324,1,83.9999974365235
100,220,157615,1,0,0:0:0:0:
168,168,157752,2,0,L|256:156,1,83.9999974365235,2|0,0:0|0:0,0:0:0:0:
108,64,158028,2,0,P|92:96|100:164,1,83.9999974365235
152,288,158303,1,10,0:0:0:0:
224,248,158440,2,0,L|324:256,1,83.9999974365235,2|0,0:0|0:0,0:0:0:0:
464,312,158716,2,0,L|380:305,1,83.9999974365235,2|0,0:0|0:0,0:0:0:0:
256,68,159129,5,2,0:0:0:0:
326,37,159266,1,0,0:0:0:0:
388,84,159404,1,10,0:0:0:0:
320,112,159541,2,0,L|160:104,1,125.999996154785,2|0,0:0|0:0,0:0:0:0:
178,111,159817,2,0,P|162:130|164:198,1,83.9999974365235,2|0,0:0|0:0,0:0:0:0:
256,316,160229,5,2,0:0:0:0:
186,347,160366,1,0,0:0:0:0:
124,300,160504,1,10,0:0:0:0:
192,272,160642,2,0,L|352:280,1,125.999996154785,2|0,0:0|0:0,0:0:0:0:
334,273,160917,2,0,P|350:254|348:186,1,83.9999974365235,2|0,0:0|0:0,0:0:0:0:
256,68,161330,5,2,0:0:0:0:
56,103,161606,2,0,P|124:148|204:128,1,167.999994873047,10|0,0:0|0:0,0:0:0:0:
320,20,162018,2,0,P|401:20|456:81,1,167.999994873047,2|0,0:0|0:0,0:0:0:0:
408,160,162431,2,0,P|400:192|420:256,1,83.9999974365235,2|0,0:0|0:0,0:0:0:0:
472,316,162707,1,10,0:0:0:0:
472,316,162844,2,0,P|432:288|296:312,1,167.999994873047
115,276,163257,2,0,P|170:336|252:336,1,167.999994873047,0|2,0:0|0:0,0:0:0:0:
204,260,163670,1,0,0:0:0:0:
204,260,163807,6,0,L|100:268,1,83.9999974365235,10|0,0:0|0:0,0:0:0:0:
28,164,164083,2,0,L|132:172,1,83.9999974365235
272,204,164358,2,0,P|280:136|256:72,1,125.999996154785,2|0,0:0|0:0,0:0:0:0:
252,68,164633,2,0,L|336:60,1,83.9999974365235
412,108,164908,1,10,0:0:0:0:
360,180,165046,2,0,P|348:228|364:288,1,83.9999974365235,2|0,0:0|0:0,0:0:0:0:
452,320,165321,2,0,P|464:272|448:212,1,83.9999974365235,2|0,0:0|0:0,0:0:0:0:
252,68,165734,6,0,P|216:64|132:72,1,83.9999974365235,2|0,0:0|0:0,0:0:0:0:
92,140,166009,1,10,0:0:0:0:
68,40,166147,1,0,0:0:0:0:
8,148,166285,2,0,L|92:140,1,83.9999974365235
240,148,166560,2,0,B|248:204|248:204|236:260|236:260|248:332,1,167.999994873047,2|0,0:0|0:0,0:0:0:0:
320,264,166973,2,0,P|364:256|416:240,1,83.9999974365235,2|8,0:0|0:0,0:0:0:0:
380,80,167248,2,0,P|336:88|284:104,1,83.9999974365235,2|0,0:0|0:0,0:0:0:0:
164,144,167523,2,0,P|120:136|68:120,1,83.9999974365235,2|0,0:0|0:0,0:0:0:0:
400,84,167936,5,2,0:0:0:0:
248,24,168211,2,0,B|236:83|236:83|259:130|259:130|242:196,1,167.999994873047,10|0,0:0|0:0,0:0:0:0:
164,240,168624,2,0,P|124:232|72:120,1,167.999994873047,2|0,0:0|0:0,0:0:0:0:
164,144,169037,1,2,0:0:0:0:
336,332,169312,6,0,B|400:304|400:304|400:248|468:228,1,167.999994873047,10|0,0:0|0:0,0:0:0:0:
472,304,169725,1,2,0:0:0:0:
332,248,169862,2,0,P|316:196|316:152,1,83.9999974365235
420,44,170138,5,2,0:0:0:0:
436,160,170275,1,0,0:0:0:0:
491,100,170413,2,0,P|414:71|336:96,1,167.999994873047,10|0,0:0|0:0,0:0:0:0:
272,156,170826,1,0,0:0:0:0:
224,224,170963,2,0,L|232:332,1,83.9999974365235,2|0,0:0|0:0,0:0:0:0:
68,256,171239,2,0,L|61:172,1,83.9999974365235,2|0,0:0|0:0,0:0:0:0:
132,68,171514,1,10,0:0:0:0:
138,151,171651,1,0,0:0:0:0:
144,234,171789,2,0,L|152:344,1,83.9999974365235
256,344,172064,6,0,P|316:320|440:348,1,167.999994873047,2|0,0:0|0:0,0:0:0:0:
472,232,172477,1,0,0:0:0:0:
368,192,172615,1,14,0:0:0:0:
256,192,172752,12,0,174266,0:0:0:0:
256,192,174541,5,0,0:0:0:0:
72,320,174817,2,0,P|64:272|68:212,1,105
168,248,175367,2,0,P|215:225|256:192,1,105
144,144,175917,2,0,P|100:115|52:95,1,105
168,248,176468,2,0,P|200:248|252:232,1,70,4|0,0:0|0:0,0:0:0:0:
280,48,176743,2,0,P|248:48|196:64,1,70
256,192,177018,12,0,185826,0:0:0:0:
252,240,194633,6,0,L|264:120,1,105,2|0,0:0|0:0,0:0:0:0:
216,72,195184,1,10,0:0:0:0:
128,192,195459,1,8,0:0:0:0:
136,228,195596,1,8,0:0:0:0:
136,228,196009,6,0,P|120:264|96:296,2,70,10|8|8,0:0|0:0|0:0,0:0:0:0:
127,137,196835,1,8,0:0:0:0:
194,76,197110,1,0,0:0:0:0:
284,66,197385,1,0,0:0:0:0:
361,114,197661,1,8,0:0:0:0:
377,140,197798,2,0,P|384:170|341:311,1,175,8|0,0:0|0:0,0:0:0:0:
172,172,198762,5,8,0:0:0:0:
202,166,198899,1,8,0:0:0:0:
233,160,199037,2,0,L|316:167,1,70,8|0,0:0|0:0,0:0:0:0:
264,237,199450,2,0,L|181:244,1,70,8|0,0:0|0:0,0:0:0:0:
140,300,199862,2,0,P|150:344|248:368,1,140,8|0,0:0|0:0,0:0:0:0:
429,209,200688,5,8,0:0:0:0:
418,312,200963,1,8,0:0:0:0:
343,226,201239,2,0,L|337:90,1,105,8|0,0:0|0:0,0:0:0:0:
377,52,201789,1,8,0:0:0:0:
205,64,202064,1,8,0:0:0:0:
215,93,202202,2,0,B|191:148|191:148|209:168|217:224|182:265|140:273|71:242,1,245,8|0,0:0|0:0,0:0:0:0:
133,187,203440,6,0,B|188:184|188:184|232:212|232:212|304:204,1,157.500006008148,2|0,0:0|0:0,0:0:0:0:
324,144,203991,2,0,P|352:188|344:248,1,105.000004005432,2|0,0:0|0:0,0:0:0:0:
284,284,204404,2,0,P|328:312|424:260,1,157.500006008148
417,110,205092,1,2,0:0:0:0:
281,206,205367,1,0,0:0:0:0:
440,284,205642,6,0,P|450:244|443:175,1,105.000004005432,2|0,0:0|0:0,0:0:0:0:
273,77,206193,2,0,P|261:128|268:180,1,105.000004005432,2|0,0:0|0:0,0:0:0:0:
281,206,206606,2,0,B|156:148|164:272|28:200,1,262.500010013581,0|2,0:0|0:0,0:0:0:0:
40,40,207569,5,0,0:0:0:0:
40,40,207707,1,0,0:0:0:0:
40,40,207844,2,0,P|68:76|72:160,1,105.000004005432,2|0,0:0|0:0,0:0:0:0:
36,196,208257,2,0,L|48:308,1,105.000004005432
112,344,208670,2,0,L|184:328,1,52.5000020027161
228,288,208945,2,0,P|248:292|344:284,1,105.000004005432,2|0,0:0|0:0,0:0:0:0:
376,220,209358,2,0,P|356:224|260:216,1,105.000004005432
200,180,209771,1,0,0:0:0:0:
328,104,210046,6,0,L|456:96,1,105.000004005432,2|0,0:0|0:0,0:0:0:0:
200,148,210596,2,0,L|72:156,1,105.000004005432,2|0,0:0|0:0,0:0:0:0:
336,96,211147,6,0,L|489:86,1,105.000004005432,2|0,0:0|0:0,0:0:0:0:
192,156,211697,2,0,L|38:165,1,105.000004005432,2|0,0:0|0:0,0:0:0:0:
344,88,212248,6,0,L|472:80,1,105.000004005432,2|0,0:0|0:0,0:0:0:0:
184,164,212798,2,0,L|56:172,1,105.000004005432,2|0,0:0|0:0,0:0:0:0:
352,80,213349,6,0,L|505:70,1,105.000004005432,2|0,0:0|0:0,0:0:0:0:
176,172,213899,2,0,L|22:181,1,105.000004005432,2|0,0:0|0:0,0:0:0:0:
0,120,214450,5,8,0:0:0:0:
72,56,214725,1,0,0:0:0:0:
148,100,215000,1,8,0:0:0:0:
216,40,215275,1,0,0:0:0:0:
256,120,215551,1,12,0:0:0:0:
224,192,215688,6,0,L|176:200,2,35,8|0|0,0:0|0:0|0:0,0:0:0:0:
296,212,215963,1,8,0:0:0:0:
372,228,216101,2,0,L|452:220,1,70,2|0,0:0|0:0,0:0:0:0:
292,304,216376,2,0,L|222:310,1,70,2|0,0:0|0:0,0:0:0:0:
104,272,216651,5,14,0:0:0:0:
24,240,216789,2,0,P|20:280|40:328,1,83.9999974365235
108,356,217064,1,2,0:0:0:0:
104,248,217202,2,0,L|100:112,1,125.999996154785,2|0,0:0|0:0,0:0:0:0:
88,100,217477,1,2,0:0:0:0:
160,44,217615,2,0,P|196:36|256:52,1,83.9999974365235,2|8,0:0|0:0,0:0:0:0:
240,200,217890,2,0,P|215:172|198:112,1,83.9999974365235,2|0,0:0|0:0,0:0:0:0:
336,56,218165,2,0,P|324:91|281:135,1,83.9999974365235,2|0,0:0|0:0,0:0:0:0:
104,248,218578,5,2,0:0:0:0:
24,208,218716,1,0,0:0:0:0:
60,320,218853,1,10,0:0:0:0:
176,288,218991,2,0,L|300:284,1,83.9999974365235,2|0,0:0|0:0,0:0:0:0:
104,248,219266,2,0,L|284:244,1,167.999994873047,2|0,0:0|0:0,0:0:0:0:
460,188,219679,5,2,0:0:0:0:
416,268,219817,1,0,0:0:0:0:
368,192,219954,1,10,0:0:0:0:
460,188,220092,2,0,L|452:288,1,83.9999974365235,2|0,0:0|0:0,0:0:0:0:
423,100,220367,2,0,L|416:268,1,167.999994873047,2|0,0:0|0:0,0:0:0:0:
340,348,220780,5,2,0:0:0:0:
340,348,221055,2,0,P|276:340|224:252,1,167.999994873047,10|0,0:0|0:0,0:0:0:0:
244,160,221468,2,0,P|240:120|124:60,1,167.999994873047,2|0,0:0|0:0,0:0:0:0:
72,156,221881,2,0,L|168:144,1,83.9999974365235,2|0,0:0|0:0,0:0:0:0:
292,40,222156,1,10,0:0:0:0:
292,40,222294,2,0,P|324:112|316:228,1,167.999994873047,0|0,0:0|0:0,0:0:0:0:
200,304,222707,2,0,P|208:288|280:232,1,83.9999974365235
396,264,222982,5,2,0:0:0:0:
440,336,223119,1,0,0:0:0:0:
480,264,223257,2,0,L|472:144,1,83.9999974365235,10|0,0:0|0:0,0:0:0:0:
376,36,223532,2,0,L|381:119,1,83.9999974365235
320,308,223807,2,0,L|311:175,1,125.999996154785,2|0,0:0|0:0,0:0:0:0:
284,164,224083,2,0,L|289:80,1,83.9999974365235,2|0,0:0|0:0,0:0:0:0:
376,36,224358,1,10,0:0:0:0:
216,112,224496,2,0,P|184:120|100:96,1,83.9999974365235,2|0,0:0|0:0,0:0:0:0:
0,192,224771,2,0,P|32:184|116:208,1,83.9999974365235,2|0,0:0|0:0,0:0:0:0:
320,308,225184,5,2,0:0:0:0:
404,336,225321,1,0,0:0:0:0:
480,292,225459,1,10,0:0:0:0:
428,200,225596,2,0,L|440:96,1,83.9999974365235
376,36,225872,1,0,0:0:0:0:
480,60,226009,2,0,L|292:76,1,167.999994873047,2|0,0:0|0:0,0:0:0:0:
144,32,226422,6,0,P|192:24|260:44,1,83.9999974365235,2|8,0:0|0:0,0:0:0:0:
156,172,226697,2,0,P|187:135|252:106,1,83.9999974365235,2|0,0:0|0:0,0:0:0:0:
293,232,226973,2,0,P|280:150|312:74,1,167.999994873047,2|0,0:0|0:0,0:0:0:0:
392,168,227385,6,0,P|396:220|384:300,1,125.999996154785,2|0,0:0|0:0,0:0:0:0:
364,316,227661,2,0,L|180:308,1,167.999994873047,10|0,0:0|0:0,0:0:0:0:
111,380,228073,2,0,P|88:301|124:228,1,167.999994873047,2|0,0:0|0:0,0:0:0:0:
216,88,228486,2,0,P|212:124|184:176,1,83.9999974365235,2|0,0:0|0:0,0:0:0:0:
48,97,228762,2,0,L|216:88,1,167.999994873047,10|0,0:0|0:0,0:0:0:0:
332,32,229174,1,0,0:0:0:0:
308,124,229312,1,0,0:0:0:0:
476,152,229587,6,0,L|492:248,1,83.9999974365235,2|8,0:0|0:3,0:0:0:0:
480,260,229794,1,0,0:0:0:0:
480,260,229862,2,0,L|380:244,1,83.9999974365235,8|12,0:3|0:3,0:0:0:0:
32,124,230275,2,0,L|132:140,1,83.9999974365235,8|12,0:3|0:3,0:0:0:0:
368,316,230688,2,0,L|268:300,1,83.9999974365235,8|12,0:3|0:3,0:0:0:0:
144,68,231101,2,0,L|244:84,1,83.9999974365235,8|12,0:3|0:3,0:0:0:0:
352,192,231514,1,8,0:3:0:0:
160,192,231789,6,0,P|152:232|164:304,1,83.9999974365235,4|4,0:3|0:3,0:0:0:0:
244,332,232064,2,0,L|352:324,1,83.9999974365235,14|0,0:0|0:0,0:0:0:0:
436,248,232340,2,0,P|456:200|448:148,1,83.9999974365235
268,136,232615,2,0,P|248:184|268:252,1,125.999996154785,2|0,0:0|0:0,0:0:0:0:
284,272,232890,2,0,L|384:260,1,83.9999974365235,2|0,0:0|0:0,0:0:0:0:
440,92,233165,1,10,0:0:0:0:
440,92,233303,2,0,L|356:102,1,83.9999974365235,2|0,0:0|0:0,0:0:0:0:
188,68,233578,2,0,P|168:112|216:228,1,167.999994873047,2|0,0:0|0:0,0:0:0:0:
368,312,233991,6,0,P|328:352|272:360,1,83.9999974365235,2|0,0:0|0:0,0:0:0:0:
284,272,234266,1,10,0:0:0:0:
364,220,234404,1,0,0:0:0:0:
368,312,234541,1,0,0:0:0:0:
284,184,234679,1,0,0:0:0:0:
440,264,234817,2,0,P|448:232|440:168,1,83.9999974365235,2|0,0:0|0:0,0:0:0:0:
352,36,235092,1,2,0:0:0:0:
264,68,235229,2,0,P|256:100|264:164,1,83.9999974365235,2|8,0:0|0:0,0:0:0:0:
172,288,235505,2,0,P|180:256|172:192,1,83.9999974365235,2|0,0:0|0:0,0:0:0:0:
52,48,235780,1,2,0:0:0:0:
52,48,235918,2,0,P|40:96|56:148,1,83.9999974365235
88,248,236193,6,0,P|92:280|64:352,1,83.9999974365235,2|0,0:0|0:0,0:0:0:0:
4,276,236468,1,10,0:0:0:0:
172,288,236606,2,0,L|272:280,1,83.9999974365235,2|0,0:0|0:0,0:0:0:0:
408,188,236881,2,0,P|440:260|412:372,1,167.999994873047,2|0,0:0|0:0,0:0:0:0:
344,276,237294,5,2,0:0:0:0:
408,188,237431,1,0,0:0:0:0:
312,128,237569,1,10,0:0:0:0:
248,216,237707,2,0,L|364:196,1,83.9999974365235,2|0,0:0|0:0,0:0:0:0:
220,100,237982,2,0,L|28:132,1,167.999994873047,2|0,0:0|0:0,0:0:0:0:
124,272,238395,2,0,P|136:232|128:192,1,83.9999974365235,2|0,0:0|0:0,0:0:0:0:
98,40,238670,6,0,P|85:121|127:191,1,167.999994873047,10|0,0:0|0:0,0:0:0:0:
220,100,239083,2,0,L|408:72,1,167.999994873047,2|0,0:0|0:0,0:0:0:0:
476,152,239496,2,0,P|444:176|364:184,1,83.9999974365235,2|0,0:0|0:0,0:0:0:0:
280,164,239771,1,8,0:0:0:0:
332,252,239908,1,0,0:0:0:0:
212,280,240046,1,4,0:3:0:0:
304,336,240184,1,8,0:3:0:0:
407,263,240321,2,0,L|240:256,1,167.999994873047,12|2,0:3|0:0,0:0:0:0:
132,284,240734,5,0,0:0:0:0:
56,200,240872,2,0,P|48:156|76:88,1,83.9999974365235,10|0,0:0|0:0,0:0:0:0:
208,48,241147,2,0,P|216:92|188:160,1,83.9999974365235
60,44,241422,2,0,L|204:32,1,125.999996154785,2|0,0:0|0:0,0:0:0:0:
208,48,241697,2,0,L|308:56,1,83.9999974365235,2|0,0:0|0:0,0:0:0:0:
484,52,241973,5,10,0:0:0:0:
412,124,242110,2,0,P|387:77|382:14,1,83.9999974365235,2|0,0:0|0:0,0:0:0:0:
484,52,242385,2,0,L|472:236,1,167.999994873047,2|0,0:0|0:0,0:0:0:0:
432,340,242798,5,2,0:0:0:0:
376,216,242936,1,0,0:0:0:0:
296,320,243073,1,10,0:0:0:0:
368,292,243211,1,0,0:0:0:0:
248,192,243349,1,0,0:0:0:0:
220,344,243486,1,0,0:0:0:0:
368,292,243624,2,0,P|376:216|344:120,1,167.999994873047,2|0,0:0|0:0,0:0:0:0:
224,64,244037,6,0,L|316:68,1,83.9999974365235,2|8,0:0|0:0,0:0:0:0:
84,168,244312,2,0,L|0:164,1,83.9999974365235,2|0,0:0|0:0,0:0:0:0:
141,21,244587,2,0,B|131:88|131:88|173:144|173:144|163:215,1,209.999993591309,2|0,0:0|0:0,0:0:0:0:
160,243,245000,6,0,L|144:352,1,83.9999974365235,2|0,0:0|0:0,0:0:0:0:
288,152,245275,2,0,P|260:192|332:368,1,251.999992309571,10|0,0:0|0:0,0:0:0:0:
468,360,245826,2,0,L|472:264,1,83.9999974365235,2|0,0:0|0:0,0:0:0:0:
328,160,246101,2,0,L|331:243,1,83.9999974365235,2|0,0:0|0:0,0:0:0:0:
436,200,246376,2,0,L|430:74,1,125.999996154785,10|0,0:0|0:0,0:0:0:0:
444,48,246651,2,0,P|388:64|336:56,1,83.9999974365235
212,44,246927,2,0,B|232:52|248:84|248:84|200:132|228:208,1,167.999994873047,0|2,0:0|0:0,0:0:0:0:
328,160,247340,5,0,0:0:0:0:
148,96,247477,2,0,L|24:104,1,83.9999974365235,10|0,0:0|0:0,0:0:0:0:
4,192,247752,1,0,0:0:0:0:
104,224,247890,1,0,0:0:0:0:
208,260,248028,2,0,P|212:216|180:152,1,83.9999974365235,2|0,0:0|0:0,0:0:0:0:
4,192,248303,2,0,P|0:236|32:300,1,83.9999974365235
128,380,248578,6,0,L|136:296,1,83.9999974365235,10|0,0:0|0:0,0:0:0:0:
296,236,248853,2,0,L|304:320,1,83.9999974365235,0|0,0:0|0:0,0:0:0:0:
456,360,249129,1,2,0:0:0:0:
456,360,249404,6,0,L|464:272,1,83.9999974365235,2|2,0:0|0:0,0:0:0:0:
412,148,249679,1,14,0:0:0:0:
256,192,249817,12,0,251330,0:0:0:0:
256,192,251606,5,0,0:0:0:0:
195,296,251881,2,0,P|144:236|148:136,1,157.500006008148
377,192,252431,2,0,P|350:266|261:313,1,157.500006008148
195,86,252982,2,0,P|273:73|358:126,1,157.500006008148,0|8,0:0|0:3,0:0:0:0:
392,280,253532,2,0,L|384:352,1,70,8|8,0:3|0:3,0:0:0:0:
208,304,253807,2,0,L|200:234,1,70,4|0,0:3|0:0,0:0:0:0:
64,128,254083,6,0,P|40:168|40:272,1,140,8|0,0:0|0:0,0:0:0:0:
108,332,254496,1,0,0:0:0:0:
208,304,254633,2,0,L|200:234,1,70,2|0,0:0|0:0,0:0:0:0:
292,152,254908,2,0,L|299:221,1,70
392,280,255184,1,8,0:0:0:0:
456,216,255321,2,0,P|472:176|448:64,1,140
368,48,255734,2,0,L|236:60,1,105,2|0,0:0|0:0,0:0:0:0:
240,76,256009,2,0,L|141:84,1,70
48,48,256285,5,8,0:0:0:0:
96,116,256422,2,0,P|108:160|72:264,1,140
16,300,256835,2,0,P|48:308|92:336,1,70,2|0,0:0|0:0,0:0:0:0:
180,352,257110,2,0,P|212:344|256:316,1,70
308,248,257385,1,8,0:0:0:0:
218,200,257523,2,0,P|207:268|244:326,1,140
340,340,257936,2,0,L|452:328,1,105,2|0,0:0|0:0,0:0:0:0:
476,336,258211,2,0,P|484:288|472:244,1,70
416,192,258486,5,8,0:0:0:0:
320,128,258624,2,0,P|316:112|384:16,1,140
469,90,259037,2,0,L|400:100,1,70,2|0,0:0|0:0,0:0:0:0:
176,64,259312,2,0,L|245:54,1,70
320,128,259587,1,8,0:0:0:0:
192,220,259725,1,0,0:0:0:0:
176,64,259862,1,0,0:0:0:0:
232,140,260000,1,0,0:0:0:0:
192,220,260138,2,0,L|96:232,1,70,2|0,0:0|0:0,0:0:0:0:
24,300,260413,5,0,0:0:0:0:
104,332,260551,1,0,0:0:0:0:
184,364,260688,2,0,L|376:320,1,157.500006008148,8|0,0:0|0:0,0:0:0:0:
392,280,261239,2,0,L|238:315,1,157.500006008148,8|0,0:0|0:0,0:0:0:0:
292,268,261789,2,0,L|484:224,1,157.500006008148,8|0,0:0|0:0,0:0:0:0:
500,184,262340,2,0,L|346:219,1,157.500006008148,8|0,0:0|0:0,0:0:0:0:
292,268,262890,6,0,P|276:216|288:176,1,70,8|0,0:0|0:0,0:0:0:0:
192,112,263165,2,0,P|245:124|273:154,1,70,0|0,0:0|0:0,0:0:0:0:
376,104,263440,2,0,P|338:143|298:153,1,70,2|0,0:0|0:0,0:0:0:0:
256,288,263716,5,0,0:0:0:0:
256,288,263853,2,0,P|254:233|275:198,1,70,0|8,0:0|0:0,0:0:0:0:
192,72,264129,2,0,P|240:97|259:134,1,70,0|0,0:0|0:0,0:0:0:0:
408,132,264404,5,0,0:0:0:0:
408,132,264541,2,0,P|361:160|320:159,1,70,2|0,0:0|0:0,0:0:0:0:
224,260,264817,2,0,P|236:206|266:178,1,70
428,152,265092,6,0,P|415:205|385:233,1,70,8|0,0:0|0:0,0:0:0:0:
296,100,265367,2,0,P|348:84|388:96,1,70,0|0,0:0|0:0,0:0:0:0:
312,232,265642,2,0,P|272:194|262:154,1,70,2|0,0:0|0:0,0:0:0:0:
452,136,265918,5,0,0:0:0:0:
452,136,266055,2,0,P|453:190|432:225,1,70,0|8,0:0|0:0,0:0:0:0:
268,80,266330,2,0,P|314:51|355:52,1,70,0|0,0:0|0:0,0:0:0:0:
311,267,266606,1,0,0:0:0:0:
311,267,266743,2,0,P|262:241|243:204,1,70,2|0,0:0|0:0,0:0:0:0:
468,104,267018,2,0,P|483:156|472:196,1,70,0|0,0:0|0:0,0:0:0:0:
380,152,267294,6,0,L|208:136,1,140,8|0,0:0|0:0,0:0:0:0:
36,140,267707,6,0,L|208:156,1,140,8|0,0:0|0:0,0:0:0:0:
360,116,268119,6,0,L|188:100,1,140,8|0,0:0|0:0,0:0:0:0:
56,176,268532,6,0,L|228:192,1,140,8|0,0:0|0:0,0:0:0:0:
340,80,268945,6,0,L|168:64,1,140,8|0,0:0|0:0,0:0:0:0:
108,92,269358,1,0,0:0:0:0:
56,176,269496,2,0,L|48:240,5,46.6666666666667,8|0|0|0|0|0,0:0|0:0|0:0|0:0|0:0|0:0,0:0:0:0:
132,216,270046,2,0,L|140:280,5,46.6666666666667,2|0|0|0|0|0,0:0|0:0|0:0|0:0|0:0|0:0,0:0:0:0:
216,232,270596,2,0,L|241:291,5,46.6666666666667,8|0|0|0|0|0,0:0|0:0|0:0|0:0|0:0|0:0,0:0:0:0:
301,228,271147,2,0,L|339:279,5,46.6666666666667,2|0|0|0|0|0,0:0|0:0|0:0|0:0|0:0|0:0,0:0:0:0:
376,200,271697,6,0,B|432:216|432:216|472:192|464:128,1,140,8|0,0:0|0:0,0:0:0:0:
392,116,272110,2,0,P|335:125|306:147,1,70,0|2,0:0|0:0,0:0:0:0:
240,172,272385,2,0,P|232:136|240:88,1,70
140,28,272661,2,0,P|148:64|140:112,1,70,0|8,0:0|0:0,0:0:0:0:
80,164,272936,2,0,P|72:196|76:244,1,70
128,304,273211,1,0,0:0:0:0:
220,264,273349,2,0,L|384:276,1,140,2|0,0:0|0:0,0:0:0:0:
416,340,273762,1,0,0:0:0:0:
468,260,273899,6,0,L|456:104,1,140,8|0,0:0|0:0,0:0:0:0:
388,48,274312,2,0,P|311:39|244:98,1,140,8|0,0:0|0:0,0:0:0:0:
224,148,274725,1,2,0:0:0:0:
136,164,274862,2,0,L|64:160,1,70,0|8,0:0|0:0,0:0:0:0:
240,236,275137,2,0,L|236:308,1,70
224,148,275413,1,0,0:0:0:0:
312,132,275550,2,0,L|384:136,1,70,2|0,0:0|0:0,0:0:0:0:
468,180,275826,1,0,0:0:0:0:
456,88,275963,1,0,0:0:0:0:
368,220,276101,6,0,L|372:308,1,70,8|0,0:0|0:0,0:0:0:0:
288,344,276376,1,0,0:0:0:0:
192,296,276514,2,0,B|148:292|128:312|128:312|108:288|40:276,1,140,8|0,0:0|0:0,0:0:0:0:
136,212,276927,1,2,0:0:0:0:
228,208,277064,2,0,P|264:234|277:262,1,70,0|8,0:0|0:0,0:0:0:0:
288,344,277340,1,0,0:0:0:0:
184,365,277477,2,0,L|192:296,1,70
235,138,277752,6,0,L|228:208,1,70,2|0,0:0|0:0,0:0:0:0:
72,152,278028,2,0,L|79:82,1,70,0|0,0:0|0:0,0:0:0:0:
324,64,278303,6,0,L|317:134,1,70,8|0,0:0|0:0,0:0:0:0:
376,200,278578,1,0,0:0:0:0:
464,216,278716,2,0,P|412:232|380:312,1,140,8|0,0:0|0:0,0:0:0:0:
464,304,279129,1,2,0:0:0:0:
376,200,279266,2,0,L|252:208,1,70,0|8,0:0|0:0,0:0:0:0:
216,172,279541,1,0,0:0:0:0:
184,244,279679,1,0,0:0:0:0:
108,256,279817,1,0,0:0:0:0:
136,184,279954,6,0,B|152:216|152:216|144:328,2,140,2|0|8,0:0|0:0|0:0,0:0:0:0:
72,128,280642,1,0,0:0:0:0:
105,49,280780,1,0,0:0:0:0:
190,56,280918,2,0,L|268:48,1,70,0|2,0:0|0:0,0:0:0:0:
444,56,281193,1,0,0:0:0:0:
324,88,281330,1,0,0:0:0:0:
372,24,281468,2,0,L|520:32,2,140,8|8|8,0:0|0:0|0:0,0:0:0:0:
248,116,282156,2,0,P|244:152|256:196,1,70,2|0,0:0|0:0,0:0:0:0:
384,216,282431,2,0,P|388:180|376:136,1,70,2|2,0:0|0:0,0:0:0:0:
312,256,282707,6,0,L|472:264,1,140,8|0,0:0|0:0,0:0:0:0:
384,336,283119,2,0,L|314:332,1,70,0|2,0:0|0:0,0:0:0:0:
280,193,283395,2,0,L|312:256,1,70,0|8,0:0|0:0,0:0:0:0:
384,336,283670,2,0,L|218:327,1,140,2|2,0:0|0:0,0:0:0:0:
92,272,284083,2,0,P|80:308|84:356,1,70,0|2,0:0|0:0,0:0:0:0:
164,320,284358,1,2,0:0:0:0:
120,60,284633,1,0,0:0:0:0:
32,192,284908,5,8,0:0:0:0:
116,196,285046,1,0,0:0:0:0:
200,200,285184,2,0,L|336:208,1,70
328,36,285459,1,2,0:0:0:0:
288,116,285596,1,0,0:0:0:0:
269,204,285734,2,0,L|280:292,1,70
392,344,286009,2,0,L|404:256,1,70,8|0,0:0|0:0,0:0:0:0:
160,284,286285,2,0,L|150:353,1,70
284,300,286560,5,2,0:0:0:0:
284,300,286651,1,0,0:0:0:0:
284,300,286743,1,0,0:0:0:0:
284,300,286835,1,0,0:0:0:0:
284,300,286927,1,0,0:0:0:0:
284,300,287018,1,0,0:0:0:0:
284,300,287110,6,0,L|376:288,1,70,8|12,3:0|0:3,0:0:0:0:
228,84,287523,2,0,L|136:96,1,70,8|12,3:0|0:3,0:0:0:0:
364,260,287936,6,0,L|456:248,1,70,8|12,0:3|0:3,0:0:0:0:
148,124,288349,2,0,L|56:136,1,70,8|12,0:3|0:3,0:0:0:0:
448,224,288762,1,8,0:3:0:0:
64,160,289037,1,8,0:3:0:0:
256,192,289312,1,4,0:0:0:0:
256,192,289450,12,0,293716,0:0:0:0:
