osu file format v13

[General]
AudioFilename: BGMSkAMgY.mp3
AudioLeadIn: 0
PreviewTime: 214175
Countdown: 0
SampleSet: Soft
StackLeniency: 0.3
Mode: 0
LetterboxInBreaks: 1
WidescreenStoryboard: 1

[Editor]
Bookmarks: 26053,27018,27154,32248,44769,54267,55505,62384,64313,76560,79998,84402,93209,93349,102017,119220,119631,137386,151009,167936,174817,218578,224771,233991,247202,289313
DistanceSpacing: 0.6
BeatDivisor: 4
GridSize: 4
TimelineZoom: 1

[Metadata]
Title:Sakura no Ame Moegi no yo
TitleUnicode:サクラノアメモエギノヨ
Artist:KOTOKO
ArtistUnicode:KOTOKO
Creator:Urushi38
Version:Hard
Source:空中パズル
Tags:Accel world →unfinished→
BeatmapID:337130
BeatmapSetID:130308

[Difficulty]
HPDrainRate:5
CircleSize:4
OverallDifficulty:6
ApproachRate:8
SliderMultiplier:2.4
SliderTickRate:1

[Events]
//Background and Video events
0,0,"BGSAM.jpg",0,0
//Break Periods
2,84741,101131
2,186026,193883
//Storyboard Layer 0 (Background)
//Storyboard Layer 1 (Fail)
//Storyboard Layer 2 (Pass)
//Storyboard Layer 3 (Foreground)
//Storyboard Sound Samples
//Background Colour Transformations
3,100,163,162,255

[TimingPoints]
3074,550.45871559633,4,2,1,70,1,0
8991,-100,4,3,1,5,0,0
9266,-200,4,2,2,60,0,0
27294,-133.333333333333,4,2,2,60,0,0
44771,-100,4,2,2,60,0,0
44909,-100,4,2,1,70,0,1
62524,-83.3333333333333,4,2,1,80,0,1
79037,-133.333333333333,4,2,1,80,0,1
80138,-100,4,2,2,70,0,0
82340,-200,4,2,2,70,0,0
83991,-100,4,2,2,70,0,0
101881,-133.333333333333,4,2,2,60,0,0
137386,-100,4,2,1,70,0,1
155001,-83.3333333333333,4,2,1,80,0,1
172615,-100,4,2,2,70,0,0
174817,-200,4,2,2,70,0,0
176468,-100,4,2,2,70,0,0
177019,-100,4,2,2,70,0,0
194634,-200,4,2,2,70,0,0
203303,-133.333333333333,4,2,2,60,0,0
214450,-200,4,2,2,70,0,0
215551,-100,4,2,2,70,0,0
216652,-83.3333333333333,4,2,1,80,0,1
249679,-100,4,2,2,70,0,0
251881,-133.333333333333,4,2,2,70,0,0
253395,-100,4,2,2,70,0,0
293578,-100,4,3,2,5,0,0

[Colours]
Combo1 : 255,255,255
Combo2 : 5,5,240
Combo3 : 0,255,255

[HitObjects]
384,64,9404,5,0,0:0:0:0:
420,128,9679,2,0,P|416:160|416:188,1,60,8|0,0:0|0:0,0:0:0:0:
421,204,10092,1,0,0:0:0:0:
480,324,10505,1,0,0:0:0:0:
412,352,10780,2,0,P|380:352|348:348,1,60,8|0,0:0|0:0,0:0:0:0:
336,344,11193,1,0,0:0:0:0:
208,296,11606,5,0,0:0:0:0:
144,332,11881,2,0,P|112:340|44:324,2,90,8|0|0,0:0|0:0|0:0,0:0:0:0:
208,296,12982,2,0,P|216:236|208:168,1,120,8|0,0:0|0:0,0:0:0:0:
172,116,13807,5,0,0:0:0:0:
172,116,13945,1,0,0:0:0:0:
172,116,14083,1,8,0:0:0:0:
92,56,14358,1,0,0:0:0:0:
109,52,14496,2,0,L|213:33,1,90
272,84,15184,2,0,L|336:72,1,60,8|0,0:0|0:0,0:0:0:0:
344,64,15596,2,0,L|436:80,1,90
492,136,16285,5,8,0:0:0:0:
460,268,16697,1,0,0:0:0:0:
332,316,17110,1,0,0:0:0:0:
292,256,17385,1,8,0:0:0:0:
40,340,18211,5,0,0:0:0:0:
24,268,18486,2,0,L|36:200,1,60,8|0,0:0|0:0,0:0:0:0:
28,192,18899,2,0,L|44:100,1,90
96,56,19587,2,0,P|128:72|192:76,1,90,8|0,0:0|0:0,0:0:0:0:
304,20,20413,1,0,0:0:0:0:
368,56,20688,6,0,P|408:52|460:64,2,90,8|0|0,0:0|0:0|0:0,0:0:0:0:
316,104,21789,2,0,P|312:136|336:228,1,120,8|0,0:0|0:0,0:0:0:0:
376,280,22615,1,0,0:0:0:0:
432,328,22890,6,0,L|368:360,1,60,8|0,0:0|0:0,0:0:0:0:
364,360,23303,2,0,L|276:336,1,90
224,284,23991,2,0,P|252:268|272:248,1,60,8|0,0:0|0:0,0:0:0:0:
280,232,24404,2,0,L|264:136,1,90
252,72,25092,1,8,0:0:0:0:
192,32,25367,1,0,0:0:0:0:
192,32,25505,2,0,B|128:20|100:100|100:100|148:156|148:156|124:224,1,270
68,264,27018,5,0,0:0:0:0:
132,328,27294,2,0,P|180:348|236:344,1,90.0000034332277,2|0,0:0|0:0,0:0:0:0:
244,340,27707,2,0,P|256:288|248:192,1,135.000005149841
216,124,28395,1,2,0:0:0:0:
304,156,28670,1,0,0:0:0:0:
304,156,28807,1,0,0:0:0:0:
304,156,28945,1,0,0:0:0:0:
372,100,29220,1,0,0:0:0:0:
448,132,29496,6,0,P|456:80|436:0,2,135.000005149841,2|0|0,0:0|0:0|0:0,0:0:0:0:
412,236,30596,2,0,B|404:272|420:308|420:308|400:344|324:336,1,180.000006866455,2|0,0:0|0:0,0:0:0:0:
236,272,31422,1,0,0:0:0:0:
216,288,31560,1,0,0:0:0:0:
196,304,31697,2,0,P|144:316|100:304,1,90.0000034332277,2|0,0:0|0:0,0:0:0:0:
88,292,32110,2,0,L|72:152,1,135.000005149841
60,48,32798,6,0,P|104:44|144:64,1,90.0000034332277,2|0,0:0|0:0,0:0:0:0:
164,80,33211,2,0,P|216:88|300:40,1,135.000005149841
380,112,33899,2,0,P|432:92|516:100,2,135.000005149841,2|0|0,0:0|0:0|0:0,0:0:0:0:
344,216,35000,2,0,P|372:256|424:172,1,180.000006866455,2|0,0:0|0:0,0:0:0:0:
340,136,35826,5,0,0:0:0:0:
252,200,36101,2,0,P|208:216|136:208,1,90.0000034332277,2|0,0:0|0:0,0:0:0:0:
140,208,36514,1,0,0:0:0:0:
48,88,36927,1,0,0:0:0:0:
140,8,37202,2,0,P|160:64|156:140,1,135.000005149841,2|0,0:0|0:0,0:0:0:0:
72,308,38028,1,0,0:0:0:0:
172,352,38303,5,2,0:0:0:0:
328,224,38716,1,0,0:0:0:0:
480,360,39129,1,0,0:0:0:0:
440,260,39404,2,0,B|416:212|476:172|432:80,1,180.000006866455,2|0,0:0|0:0,0:0:0:0:
348,20,40229,1,0,0:0:0:0:
260,80,40505,6,0,P|216:92|168:80,1,90.0000034332277,2|0,0:0|0:0,0:0:0:0:
152,64,40918,2,0,P|96:80|56:160,1,135.000005149841
44,252,41606,2,0,P|92:264|140:248,1,90.0000034332277,2|0,0:0|0:0,0:0:0:0:
152,240,42018,2,0,P|140:304|168:376,1,135.000005149841
264,328,42707,2,0,P|312:320|372:336,1,90.0000034332277,2|0,0:0|0:0,0:0:0:0:
372,344,43119,2,0,B|312:268|364:192|364:192|456:208|456:208|492:152|480:76|444:40,1,405.000015449524,0|2,0:0|0:0,0:0:0:0:
380,28,44633,5,2,0:0:0:0:
304,76,44908,2,0,P|244:100|176:80,1,120,14|0,0:0|0:0,0:0:0:0:
64,152,45459,2,0,P|128:144|188:181,1,120,0|0,0:0|2:0,0:0:0:0:
252,276,46009,1,8,0:0:0:0:
288,292,46147,2,0,L|412:276,1,120
448,80,46835,5,0,0:0:0:0:
460,44,46973,1,0,0:0:0:0:
472,8,47110,2,0,L|404:32,1,60,8|0,0:0|0:0,0:0:0:0:
364,60,47385,2,0,L|296:48,1,60
252,28,47661,2,0,P|196:64|192:152,1,120,0|0,0:0|0:0,0:0:0:0:
192,160,48073,2,0,L|68:148,1,120,8|0,0:0|0:0,0:0:0:0:
48,292,48624,2,0,P|104:272|204:332,1,180
216,360,49174,5,0,0:0:0:0:
252,352,49312,1,8,0:0:0:0:
288,348,49450,1,0,0:0:0:0:
428,312,49725,1,0,0:0:0:0:
456,336,50138,5,0,0:0:0:0:
428,312,50275,1,0,0:0:0:0:
408,280,50413,1,8,0:0:0:0:
400,244,50551,1,0,0:0:0:0:
428,100,50826,1,0,0:0:0:0:
224,248,51239,5,0,0:0:0:0:
104,168,51514,2,0,P|168:112|268:112,2,180,8|0|0,0:0|0:0|0:0,0:0:0:0:
64,308,52615,2,0,B|200:348|160:256|300:316,1,240,8|0,0:0|0:0,0:0:0:0:
424,376,53440,5,0,0:0:0:0:
360,276,53716,2,0,P|360:216|380:152,1,120,8|0,0:0|0:0,0:0:0:0:
512,104,54266,2,0,P|460:133|394:148,1,120
232,124,54817,1,8,0:0:0:0:
264,108,54954,2,0,P|323:113|385:138,1,120
160,260,55642,5,0,0:0:0:0:
132,280,55780,1,0,0:0:0:0:
108,308,55918,1,8,0:0:0:0:
92,340,56055,1,0,0:0:0:0:
88,376,56193,1,0,0:0:0:0:
224,336,56468,1,0,0:0:0:0:
368,332,56743,1,0,0:0:0:0:
388,300,56881,2,0,P|400:236|376:180,1,120,8|0,0:0|0:0,0:0:0:0:
292,72,57431,2,0,P|384:40|468:76,1,180
381,187,58119,6,0,P|289:219|205:183,2,180,8|0|0,0:0|0:0|0:0,0:0:0:0:
266,82,59220,2,0,P|216:168|289:307,1,240,8|0,0:0|0:0,0:0:0:0:
372,340,60046,1,0,0:0:0:0:
428,224,60321,2,0,B|316:252|316:252|264:291,2,180,8|0|0,0:0|0:0|0:0,0:0:0:0:
512,136,61422,2,0,P|461:104|313:183,1,240,8|0,0:0|0:0,0:0:0:0:
216,280,62248,5,0,0:0:0:0:
188,304,62385,1,0,0:0:0:0:
156,320,62523,2,0,P|88:332|32:308,1,120,12|0,0:0|0:0,0:0:0:0:
8,144,63073,2,0,P|76:150|124:187,1,120,2|0,0:0|0:0,0:0:0:0:
312,340,63624,1,8,0:0:0:0:
356,332,63762,1,0,0:0:0:0:
476,228,64037,2,0,P|472:152|344:112,1,215.999993408203,2|0,0:0|0:0,0:0:0:0:
317,129,64587,5,0,0:0:0:0:
276,143,64725,1,12,0:0:0:0:
233,146,64862,1,0,0:0:0:0:
190,136,65000,1,0,0:0:0:0:
154,110,65138,1,2,0:0:0:0:
132,72,65275,2,0,P|68:92|8:37,1,143.999995605469,2|0,0:0|0:0,0:0:0:0:
24,21,65688,2,0,P|46:100|32:165,2,143.999995605469,8|0|0,0:0|0:0|0:0,0:0:0:0:
8,324,66651,5,0,0:0:0:0:
52,336,66789,1,0,0:0:0:0:
96,332,66927,1,12,0:0:0:0:
136,316,67064,1,0,0:0:0:0:
232,192,67340,1,2,0:0:0:0:
232,192,67752,5,0,0:0:0:0:
188,192,67890,1,0,0:0:0:0:
152,164,68028,1,12,0:0:0:0:
136,124,68165,1,0,0:0:0:0:
208,0,68440,1,2,0:0:0:0:
208,0,68853,5,0,0:0:0:0:
316,96,69129,2,0,P|388:104|472:24,1,143.999995605469,12|0,0:0|0:0,0:0:0:0:
464,40,69541,2,0,P|436:128|492:232,1,215.999993408203,2|0,0:0|0:0,0:0:0:0:
376,240,70229,2,0,P|328:328|144:344,1,287.999991210938,12|2,0:0|0:0,0:0:0:0:
64,204,71055,5,2,0:0:0:0:
168,108,71330,2,0,P|244:120|308:104,1,143.999995605469,12|0,0:0|0:0,0:0:0:0:
468,36,71881,2,0,P|428:48|312:28,1,143.999995605469,2|0,0:0|0:0,0:0:0:0:
156,68,72431,1,8,0:0:0:0:
168,108,72569,2,0,P|148:196|112:248,1,143.999995605469
119,240,73257,5,0,0:0:0:0:
156,218,73395,1,0,0:0:0:0:
197,207,73532,1,12,0:0:0:0:
240,207,73670,1,0,0:0:0:0:
282,215,73807,2,0,P|312:226|359:224,1,71.9999978027344,2|0,0:0|0:0,0:0:0:0:
321,314,74083,2,0,P|352:308|392:283,1,71.9999978027344,2|0,0:0|0:0,0:0:0:0:
414,267,74358,2,0,P|451:219|419:133,1,143.999995605469,2|8,0:0|0:0,0:0:0:0:
392,120,74771,1,0,0:0:0:0:
236,48,75046,2,0,B|172:124|88:16|36:88,1,215.999993408203
28,128,75596,5,0,0:0:0:0:
24,172,75734,2,0,P|44:240|112:280,1,143.999995605469,12|0,0:0|0:0,0:0:0:0:
144,272,76147,2,0,L|304:240,1,143.999995605469
328,232,76560,1,0,0:0:0:0:
488,308,76835,5,10,0:0:0:0:
488,308,77661,5,0,0:0:0:0:
448,328,77798,1,0,0:0:0:0:
404,324,77936,1,14,0:0:0:0:
208,92,78349,1,2,0:0:0:0:
512,84,78762,1,2,0:0:0:0:
384,200,79037,2,0,P|344:136|348:40,2,135.000005149841,14|2|2,0:0|0:0|0:0,0:0:0:0:
256,192,80138,12,0,81789,0:0:0:0:
256,192,82340,5,0,0:0:0:0:
204,244,82890,1,0,0:0:0:0:
132,268,83440,1,0,0:0:0:0:
60,248,83991,1,0,0:0:0:0:
60,248,84266,2,0,L|48:128,1,120
88,192,101881,5,0,0:0:0:0:
168,264,102156,2,0,P|232:252|264:252,1,90.0000034332277,8|0,0:0|0:0,0:0:0:0:
280,264,102569,2,0,P|304:300|408:312,1,135.000005149841
444,224,103257,2,0,L|428:124,1,90.0000034332277,8|0,0:0|0:0,0:0:0:0:
452,120,103670,2,0,P|396:140|336:100,1,135.000005149841
256,28,104358,6,0,L|120:52,2,135.000005149841,8|0|0,0:0|0:0|0:0,0:0:0:0:
360,60,105459,2,0,P|328:108|188:116,1,180.000006866455,8|0,0:0|0:0,0:0:0:0:
120,72,106285,5,0,0:0:0:0:
128,100,106422,1,0,0:0:0:0:
136,128,106560,2,0,L|116:224,1,90.0000034332277,8|0,0:0|0:0,0:0:0:0:
124,244,106973,2,0,P|112:296|36:356,1,135.000005149841
152,304,107661,2,0,P|208:296|248:300,1,90.0000034332277,8|0,0:0|0:0,0:0:0:0:
264,308,108073,1,0,0:0:0:0:
456,248,108486,1,0,0:0:0:0:
348,252,108762,6,0,P|364:308|436:352,2,135.000005149841,8|0|0,0:0|0:0|0:0,0:0:0:0:
408,164,109862,2,0,P|424:120|320:40,1,180.000006866455,8|0,0:0|0:0,0:0:0:0:
256,104,110688,1,0,0:0:0:0:
296,204,110963,6,0,P|280:256|248:292,1,90.0000034332277,8|0,0:0|0:0,0:0:0:0:
240,304,111376,2,0,L|104:328,1,135.000005149841
20,260,112064,2,0,L|128:244,1,90.0000034332277,8|0,0:0|0:0,0:0:0:0:
136,244,112477,1,0,0:0:0:0:
32,64,112890,1,0,0:0:0:0:
136,96,113165,6,0,P|192:96|260:52,2,135.000005149841,8|0|0,0:0|0:0|0:0,0:0:0:0:
44,152,114266,2,0,P|92:160|204:240,1,180.000006866455,8|0,0:0|0:0,0:0:0:0:
248,328,115092,1,0,0:0:0:0:
284,236,115367,6,0,P|332:256|396:256,1,90.0000034332277,8|0,0:0|0:0,0:0:0:0:
396,252,115780,1,0,0:0:0:0:
512,100,116193,1,0,0:0:0:0:
504,76,116330,1,0,0:0:0:0:
496,52,116468,1,8,0:0:0:0:
412,112,116743,1,0,0:0:0:0:
404,140,116881,1,0,0:0:0:0:
244,44,117294,1,0,0:0:0:0:
221,167,117569,6,0,P|185:203|141:215,1,90.0000034332277,8|0,0:0|0:0,0:0:0:0:
82,192,117982,2,0,B|154:196|207:264|185:334|185:334|235:280|320:292|360:352,1,405.000015449524
360,352,119496,1,0,0:0:0:0:
360,352,119771,6,0,P|372:296|404:248,1,90.0000034332277,2|0,0:0|0:0,0:0:0:0:
408,240,120184,2,0,P|352:256|276:200,1,135.000005149841
256,116,120872,2,0,L|352:104,1,90.0000034332277,2|0,0:0|0:0,0:0:0:0:
372,100,121285,1,0,0:0:0:0:
400,96,121422,1,0,0:0:0:0:
496,148,121697,1,0,0:0:0:0:
412,216,121973,6,0,P|404:264|452:360,2,135.000005149841,2|0|0,0:0|0:0|0:0,0:0:0:0:
348,128,123073,2,0,L|328:28,2,90.0000034332277,2|0|0,0:0|0:0|0:0,0:0:0:0:
412,216,123899,5,0,0:0:0:0:
432,232,124037,1,0,0:0:0:0:
456,240,124174,2,0,P|404:260|368:284,1,90.0000034332277,2|0,0:0|0:0,0:0:0:0:
360,300,124587,2,0,P|284:316|220:276,1,135.000005149841
192,192,125275,2,0,L|204:88,1,90.0000034332277,2|0,0:0|0:0,0:0:0:0:
220,80,125688,2,0,P|152:52|88:72,1,135.000005149841
40,160,126376,6,0,P|0:120|-8:32,2,135.000005149841
0,256,127477,1,2,0:0:0:0:
252,348,128028,1,0,0:0:0:0:
332,304,128303,1,0,0:0:0:0:
428,352,128578,6,0,L|424:248,1,90.0000034332277,2|0,0:0|0:0,0:0:0:0:
416,236,128991,2,0,P|440:184|412:100,1,135.000005149841
336,48,129679,2,0,P|240:68|180:48,2,135.000005149841,2|0|0,0:0|0:0|0:0,0:0:0:0:
380,148,130780,2,0,P|476:127|536:148,2,135.000005149841,2|0|0,0:0|0:0|0:0,0:0:0:0:
308,228,131881,2,0,L|324:332,2,90.0000034332277,2|0|0,0:0|0:0|0:0,0:0:0:0:
284,120,132707,1,0,0:0:0:0:
196,56,132982,6,0,L|100:48,1,90.0000034332277,2|0,0:0|0:0,0:0:0:0:
79,45,133395,1,0,0:0:0:0:
36,228,133807,1,0,0:0:0:0:
132,180,134083,2,0,L|224:192,1,90.0000034332277,2|0,0:0|0:0,0:0:0:0:
248,196,134496,1,0,0:0:0:0:
360,344,134908,1,0,0:0:0:0:
440,272,135184,6,0,L|432:172,1,90.0000034332277,2|0,0:0|0:0,0:0:0:0:
444,156,135596,2,0,P|460:104|352:184,1,405.000015449524
380,108,137110,1,0,0:0:0:0:
316,56,137385,6,0,P|272:72|228:76,1,90.0000034332277,12|0,0:0|0:0,0:0:0:0:
88,40,137936,1,2,0:0:0:0:
124,180,138211,2,0,P|120:252|104:316,1,120,0|8,0:0|0:0,0:0:0:0:
96,332,138624,2,0,P|132:316|224:320,1,120
464,292,139312,5,0,0:0:0:0:
472,256,139450,1,0,0:0:0:0:
480,220,139587,1,8,0:0:0:0:
488,184,139725,2,0,L|472:120,1,60
408,168,140000,1,0,0:0:0:0:
408,168,140138,2,0,P|368:120|316:92,1,120,2|0,0:0|0:0,0:0:0:0:
284,100,140551,2,0,P|208:120|160:104,2,120,8|0|0,0:0|0:0|0:0,0:0:0:0:
116,288,141514,5,0,0:0:0:0:
88,312,141651,1,0,0:0:0:0:
52,324,141789,1,8,0:0:0:0:
16,320,141927,2,0,L|36:196,1,120,0|2,0:0|0:0,0:0:0:0:
220,32,142615,5,0,0:0:0:0:
256,28,142752,1,0,0:0:0:0:
292,32,142890,1,8,0:0:0:0:
324,52,143028,2,0,L|304:176,1,120,0|2,0:0|0:0,0:0:0:0:
464,364,143716,5,0,0:0:0:0:
432,228,143991,2,0,B|436:184|472:160|472:160|480:140|480:140|492:80|420:56,2,180,8|2|0,0:0|0:0|0:0,0:0:0:0:
332,332,145092,2,0,P|264:352|192:224,1,240,8|2,0:0|0:0,0:0:0:0:
276,260,145918,1,2,0:0:0:0:
412,292,146193,6,0,P|436:248|416:172,1,120,8|0,0:0|0:0,0:0:0:0:
316,84,146743,2,0,P|292:128|312:204,1,120,2|0,0:0|0:0,0:0:0:0:
436,132,147294,1,8,0:0:0:0:
436,132,147431,2,0,L|416:8,1,120
176,84,148119,5,0,0:0:0:0:
144,96,148257,1,0,0:0:0:0:
108,104,148395,1,8,0:0:0:0:
72,104,148532,1,0,0:0:0:0:
36,96,148670,2,0,P|24:64|24:24,2,60,2|2|2,0:0|0:0|0:0,0:0:0:0:
132,200,149220,1,0,0:0:0:0:
157,225,149358,1,0,0:0:0:0:
174,256,149496,1,8,0:0:0:0:
181,290,149633,2,0,P|236:315|301:296,1,120,0|2,0:0|0:0,0:0:0:0:
392,72,150321,1,2,0:0:0:0:
352,184,150596,6,0,P|376:276|448:344,2,180,8|2|0,0:0|0:0|0:0,0:0:0:0:
468,162,151697,2,0,P|456:232|292:288,1,240,8|2,0:0|0:0,0:0:0:0:
256,192,152523,1,2,0:0:0:0:
158,130,152798,6,0,P|94:142|58:254,2,180,8|2|0,0:0|0:0|0:0,0:0:0:0:
256,192,153899,2,0,B|202:230|142:222|142:222|161:279|132:339,1,240,8|2,0:0|0:0,0:0:0:0:
44,280,154725,1,2,0:0:0:0:
236,308,155000,6,0,P|300:280|340:232,1,120,12|0,0:0|0:0,0:0:0:0:
312,104,155551,1,2,0:0:0:0:
440,172,155826,1,2,0:0:0:0:
376,300,156101,1,8,0:0:0:0:
376,300,156239,2,0,P|324:244|312:168,1,143.999995605469,0|2,0:0|0:0,0:0:0:0:
480,32,156927,5,0,0:0:0:0:
452,64,157064,1,0,0:0:0:0:
416,88,157202,1,12,0:0:0:0:
376,100,157340,2,0,P|336:88|312:64,1,71.9999978027344
252,152,157615,1,0,0:0:0:0:
252,152,157752,2,0,P|223:121|214:88,1,71.9999978027344,2|0,0:0|0:0,0:0:0:0:
104,132,158028,1,0,0:0:0:0:
112,92,158165,1,0,0:0:0:0:
132,56,158303,1,8,0:0:0:0:
164,28,158440,2,0,P|96:64|32:44,1,143.999995605469,0|2,0:0|0:0,0:0:0:0:
76,252,159129,5,0,0:0:0:0:
116,272,159266,1,0,0:0:0:0:
160,272,159404,1,12,0:0:0:0:
200,256,159541,2,0,P|136:296|104:364,1,143.999995605469,0|2,0:0|0:0,0:0:0:0:
340,192,160229,5,0,0:0:0:0:
384,196,160367,1,0,0:0:0:0:
420,216,160505,1,12,0:0:0:0:
444,252,160642,2,0,P|420:216|440:112,1,143.999995605469,0|2,0:0|0:0,0:0:0:0:
336,312,161330,1,0,0:0:0:0:
256,216,161606,6,0,P|240:120|336:48,2,215.999993408203,12|2|0,0:0|0:0|0:0,0:0:0:0:
392,208,162707,2,0,P|440:256|448:348,2,143.999995605469,12|2|2,0:0|0:0|0:0,0:0:0:0:
256,216,163532,1,0,0:0:0:0:
188,309,163807,5,12,0:0:0:0:
78,158,164083,1,0,0:0:0:0:
256,216,164358,1,2,0:0:0:0:
78,273,164633,1,0,0:0:0:0:
188,122,164908,1,8,0:0:0:0:
164,84,165046,2,0,P|99:43|27:54,1,143.999995605469,0|2,0:0|0:0,0:0:0:0:
316,96,165734,5,0,0:0:0:0:
352,120,165872,1,0,0:0:0:0:
392,132,166009,1,12,0:0:0:0:
436,132,166147,1,0,0:0:0:0:
476,120,166285,2,0,L|500:36,2,71.9999978027344,2|2|2,0:0|0:0|0:0,0:0:0:0:
344,208,166835,5,0,0:0:0:0:
320,244,166973,1,8,0:0:0:0:
416,336,167248,1,0,0:0:0:0:
436,132,167523,2,0,P|368:92|276:112,1,143.999995605469,2|0,0:0|0:0,0:0:0:0:
268,116,167936,1,2,0:0:0:0:
40,96,168211,6,0,P|124:116|216:32,2,215.999993408203,12|2|0,0:0|0:0|0:0,0:0:0:0:
220,16,169312,2,0,B|120:124|280:200|192:312,1,287.999991210938,8|2,0:0|0:0,0:0:0:0:
0,232,170138,5,0,0:0:0:0:
0,232,170275,1,0,0:0:0:0:
0,232,170413,2,0,P|52:224|152:236,1,143.999995605469,14|0,0:0|0:0,0:0:0:0:
176,260,170826,2,0,P|252:280|328:276,1,143.999995605469,2|0,0:0|0:0,0:0:0:0:
360,268,171239,1,2,0:0:0:0:
444,152,171514,2,0,P|380:184|344:124,1,143.999995605469,14|0,0:0|0:0,0:0:0:0:
396,88,171927,2,0,P|344:136|256:112,1,143.999995605469,2|0,0:0|0:0,0:0:0:0:
240,104,172340,1,2,0:0:0:0:
256,192,172615,12,0,174266,0:0:0:0:
256,192,174817,5,0,0:0:0:0:
308,244,175367,1,0,0:0:0:0:
380,268,175917,1,0,0:0:0:0:
452,248,176468,1,0,0:0:0:0:
463,128,176743,1,0,0:0:0:0:
353,173,177018,1,0,0:0:0:0:
256,192,177156,12,0,185826,0:0:0:0:
256,192,194633,5,2,0:0:0:0:
168,240,195184,2,0,P|112:248|88:248,1,60,0|0,0:0|0:0,0:0:0:0:
92,248,195596,1,0,0:0:0:0:
32,136,196009,1,0,0:0:0:0:
96,88,196285,1,0,0:0:0:0:
140,24,196560,1,0,0:0:0:0:
212,48,196835,2,0,P|252:52|288:48,1,60,2|0,0:0|0:0,0:0:0:0:
344,32,197385,1,0,0:0:0:0:
308,104,197661,1,0,0:0:0:0:
308,104,197798,2,0,P|296:140|320:248,1,150
388,308,198762,5,0,0:0:0:0:
372,312,198899,1,0,0:0:0:0:
356,316,199037,1,2,0:0:0:0:
280,336,199312,1,0,0:0:0:0:
264,332,199450,1,0,0:0:0:0:
188,316,199725,1,0,0:0:0:0:
172,324,199862,2,0,P|96:348|56:344,1,120
0,300,200688,1,0,0:0:0:0:
28,228,200963,1,0,0:0:0:0:
60,156,201239,6,0,P|104:168|176:144,1,120,2|0,0:0|0:0,0:0:0:0:
224,92,202064,1,0,0:0:0:0:
240,104,202202,2,0,P|336:120|384:104,1,150
444,56,203165,1,0,0:0:0:0:
444,56,203440,1,2,0:0:0:0:
297,33,203991,6,0,P|300:78|312:122,1,90.0000034332277
324,148,204404,2,0,P|380:144|460:188,1,135.000005149841
492,248,205092,1,2,0:0:0:0:
444,320,205367,1,0,0:0:0:0:
364,352,205642,6,0,P|316:344|280:320,1,90.0000034332277,2|0,0:0|0:0,0:0:0:0:
228,248,206193,2,0,P|232:192|248:160,1,90.0000034332277
264,136,206606,2,0,P|240:76|80:60,1,225.000008583069,0|2,0:0|0:0,0:0:0:0:
0,100,207569,5,0,0:0:0:0:
16,120,207707,1,0,0:0:0:0:
28,144,207844,2,0,P|40:192|40:240,1,90.0000034332277,2|0,0:0|0:0,0:0:0:0:
36,260,208257,1,0,0:0:0:0:
196,352,208670,5,0,0:0:0:0:
180,332,208808,1,0,0:0:0:0:
168,308,208945,2,0,P|156:260|156:212,1,90.0000034332277,2|0,0:0|0:0,0:0:0:0:
160,192,209358,1,0,0:0:0:0:
256,120,209771,1,0,0:0:0:0:
352,192,210046,6,0,P|392:216|440:212,1,90.0000034332277,6|0,0:0|0:0,0:0:0:0:
488,120,210596,2,0,P|448:96|400:100,1,90.0000034332277,2|0,0:0|0:0,0:0:0:0:
347,198,211147,6,0,P|389:218|436:210,1,90.0000034332277,6|0,0:0|0:0,0:0:0:0:
492,113,211697,2,0,P|450:93|403:101,1,90.0000034332277,2|0,0:0|0:0,0:0:0:0:
343,206,212248,6,0,P|387:222|433:210,1,90.0000034332277,4|0,0:0|0:0,0:0:0:0:
496,105,212798,2,0,P|452:89|406:101,1,90.0000034332277,2|0,0:0|0:0,0:0:0:0:
340,214,213349,6,0,P|385:227|430:211,1,90.0000034332277,6|0,0:0|0:0,0:0:0:0:
499,97,213899,2,0,P|454:84|409:100,1,90.0000034332277,6|0,0:0|0:0,0:0:0:0:
336,220,214450,5,6,0:0:0:0:
346,241,214725,1,0,0:0:0:0:
362,258,215000,1,0,0:0:0:0:
381,272,215275,1,0,0:0:0:0:
402,282,215551,6,0,L|467:273,1,60
476,200,215826,2,0,L|411:191,1,60
352,140,216101,1,0,0:0:0:0:
356,116,216239,1,0,0:0:0:0:
360,92,216376,1,0,0:0:0:0:
364,68,216514,1,0,0:0:0:0:
368,44,216651,6,0,L|436:60,2,60,14|0|0,0:0|0:0|0:0,0:0:0:0:
284,56,217064,1,0,0:0:0:0:
284,56,217202,2,0,P|216:68|136:52,1,143.999995605469,2|0,0:0|0:0,0:0:0:0:
112,36,217615,2,0,P|128:104|112:184,1,143.999995605469,8|0,0:0|0:0,0:0:0:0:
21,338,218165,2,0,P|29:234|115:175,1,215.999993408203,2|0,0:0|0:0,0:0:0:0:
157,186,218716,5,0,0:0:0:0:
191,211,218853,1,8,0:0:0:0:
210,249,218991,2,0,P|258:288|342:280,1,143.999995605469,2|0,0:0|0:0,0:0:0:0:
361,47,219679,5,0,0:0:0:0:
325,71,219817,1,0,0:0:0:0:
285,88,219954,1,8,0:0:0:0:
241,91,220092,2,0,P|165:80|112:33,1,143.999995605469,2|0,0:0|0:0,0:0:0:0:
384,8,220780,5,0,0:0:0:0:
364,140,221055,2,0,P|400:216|528:284,2,215.999993408203,10|2|2,0:0|0:0|0:0,0:0:0:0:
496,92,222156,6,0,P|468:120|436:136,1,71.9999978027344,8|0,0:0|0:0,0:0:0:0:
464,200,222431,2,0,P|425:210|390:208,1,71.9999978027344
352,266,222707,2,0,P|280:242|228:175,1,143.999995605469,2|0,0:0|0:0,0:0:0:0:
216,40,223257,5,10,0:0:0:0:
83,150,223532,1,0,0:0:0:0:
246,204,223807,1,2,0:0:0:0:
216,40,224083,1,0,0:0:0:0:
83,150,224358,1,10,0:0:0:0:
83,150,224496,2,0,P|100:248|100:308,1,143.999995605469,2|0,0:0|0:0,0:0:0:0:
372,264,225184,5,0,0:0:0:0:
412,244,225321,1,0,0:0:0:0:
444,216,225459,1,10,0:0:0:0:
464,176,225596,2,0,P|472:132|464:92,2,71.9999978027344
464,176,226009,2,0,P|400:156|300:180,1,143.999995605469,2|0,0:0|0:0,0:0:0:0:
288,188,226422,1,10,0:0:0:0:
386,334,226697,1,2,0:0:0:0:
484,152,226973,2,0,P|424:168|300:64,1,215.999993408203,2|0,0:0|0:0,0:0:0:0:
104,36,227661,6,0,P|192:104|196:220,1,215.999993408203,10|0,0:0|0:0,0:0:0:0:
132,348,228486,1,2,0:0:0:0:
80,256,228762,2,0,B|204:204|256:368|368:312,1,287.999991210938,10|0,0:0|0:0,0:0:0:0:
452,244,229587,1,0,0:0:0:0:
360,156,229862,6,0,P|326:264|472:368,1,287.999991210938,10|2,0:0|0:0,0:0:0:0:
452,244,230688,1,2,0:0:0:0:
228,168,230963,2,0,L|72:180,2,143.999995605469,10|0|0,0:0|0:0|0:0,0:0:0:0:
348,72,231789,1,0,0:0:0:0:
276,288,232064,6,0,P|348:328|428:312,1,143.999995605469,12|0,0:0|0:0,0:0:0:0:
504,152,232615,2,0,L|348:180,1,143.999995605469,0|4,0:0|0:0,0:0:0:0:
136,268,233165,1,8,0:0:0:0:
88,208,233303,2,0,P|72:136|140:40,1,143.999995605469
400,40,233991,5,0,0:0:0:0:
412,116,234129,1,0,0:0:0:0:
380,188,234266,2,0,P|336:208|280:204,1,71.9999978027344,12|0,0:0|0:0,0:0:0:0:
416,264,234541,2,0,P|460:280|488:280,1,71.9999978027344
352,316,234817,2,0,P|280:336|200:296,1,143.999995605469,0|4,0:0|0:0,0:0:0:0:
168,252,235229,2,0,L|184:104,1,143.999995605469,8|0,0:0|0:0,0:0:0:0:
424,76,235780,2,0,P|368:152|228:144,1,215.999993408203
183,108,236330,5,0,0:0:0:0:
112,64,236468,1,12,0:0:0:0:
40,104,236606,2,0,P|16:176|48:248,1,143.999995605469
236,320,237294,5,0,0:0:0:0:
320,296,237431,1,0,0:0:0:0:
400,320,237569,1,12,0:0:0:0:
472,280,237707,2,0,P|496:208|464:136,1,143.999995605469
256,32,238395,5,0,0:0:0:0:
180,96,238670,2,0,P|252:128|356:28,2,215.999993408203,12|0|0,0:0|0:0|0:0,0:0:0:0:
80,56,239771,2,0,B|60:112|96:160|96:160|16:236|100:320,1,287.999991210938,12|0,0:0|0:0,0:0:0:0:
208,344,240596,1,0,0:0:0:0:
348,284,240872,6,0,P|420:276|492:296,1,143.999995605469,12|0,0:0|0:0,0:0:0:0:
264,192,241422,2,0,P|188:220|100:204,1,143.999995605469,0|4,0:0|0:0,0:0:0:0:
36,72,241973,1,8,0:0:0:0:
112,40,242110,2,0,B|176:20|192:92|252:64,1,143.999995605469
468,20,242798,5,0,0:0:0:0:
488,100,242936,1,0,0:0:0:0:
444,172,243073,2,0,P|408:184|368:184,1,71.9999978027344,12|0,0:0|0:0,0:0:0:0:
384,264,243349,2,0,P|346:256|312:236,1,71.9999978027344
268,320,243624,2,0,P|224:248|248:176,1,143.999995605469,0|4,0:0|0:0,0:0:0:0:
300,152,244037,2,0,P|236:192|156:168,1,143.999995605469,8|0,0:0|0:0,0:0:0:0:
336,80,244587,2,0,P|404:120|532:68,1,215.999993408203
424,0,245275,5,12,0:0:0:0:
404,252,245688,1,0,0:0:0:0:
196,109,246101,1,0,0:0:0:0:
348,88,246376,2,0,B|396:84|432:104|504:88,1,143.999995605469,12|0,0:0|0:0,0:0:0:0:
512,80,246789,1,0,0:0:0:0:
512,80,246927,1,0,0:0:0:0:
288,200,247202,5,0,0:0:0:0:
288,200,247340,1,0,0:0:0:0:
288,200,247477,2,0,L|276:48,1,143.999995605469,12|0,0:0|0:0,0:0:0:0:
196,108,247890,2,0,L|207:251,1,143.999995605469
216,328,248303,1,0,0:0:0:0:
0,260,248578,6,0,P|72:276|140:248,1,143.999995605469,12|0,0:0|0:0,0:0:0:0:
180,184,248991,2,0,L|156:28,1,143.999995605469
158,41,249404,1,0,0:0:0:0:
256,192,249679,12,0,251330,0:0:0:0:
256,192,251881,5,0,0:0:0:0:
215,271,252431,1,0,0:0:0:0:
126,257,252982,1,0,0:0:0:0:
112,168,253532,1,0,0:0:0:0:
236,84,253807,1,0,0:0:0:0:
337,190,254083,6,0,P|383:199|454:34,1,240,6|8,0:0|0:0,0:0:0:0:
376,104,254908,1,0,0:0:0:0:
328,216,255184,2,0,P|332:284|364:352,1,120
256,268,255734,2,0,P|208:248|140:244,1,120,8|0,0:0|0:0,0:0:0:0:
62,329,256285,6,0,P|126:277|122:121,1,240,0|8,0:0|0:0,0:0:0:0:
48,72,257110,1,0,0:0:0:0:
48,72,257248,1,0,0:0:0:0:
8,196,257523,1,0,0:0:0:0:
8,196,257661,1,0,0:0:0:0:
252,168,257936,2,0,P|304:136|328:56,1,120,8|0,0:0|0:0,0:0:0:0:
216,56,258486,5,0,0:0:0:0:
212,276,258762,1,0,0:0:0:0:
212,276,258899,1,8,0:0:0:0:
442,243,259174,1,0,0:0:0:0:
442,243,259312,1,0,0:0:0:0:
339,343,259587,1,0,0:0:0:0:
339,343,259725,1,0,0:0:0:0:
379,114,260000,1,0,0:0:0:0:
379,114,260138,1,8,0:0:0:0:
297,232,260413,2,0,P|255:190|237:134,1,120,0|2,0:0|0:0,0:0:0:0:
480,48,261239,5,10,0:0:0:0:
112,196,261789,1,2,0:0:0:0:
260,32,262340,1,10,0:0:0:0:
172,356,262890,6,0,L|184:224,2,120,0|0|8,0:0|0:0|0:0,0:0:0:0:
256,248,263716,1,0,0:0:0:0:
292,240,263853,2,0,L|424:212,1,120
492,332,264404,1,0,0:0:0:0:
488,296,264541,2,0,L|476:160,1,120,8|0,0:0|0:0,0:0:0:0:
464,68,265092,6,0,L|340:100,2,120,0|0|8,0:0|0:0|0:0,0:0:0:0:
344,168,265918,1,0,0:0:0:0:
308,156,266055,2,0,L|180:124,1,120
80,48,266606,1,0,0:0:0:0:
104,76,266743,2,0,P|120:148|96:216,1,120,8|0,0:0|0:0,0:0:0:0:
48,288,267294,6,0,P|124:292|184:268,1,120,8|0,0:0|0:0,0:0:0:0:
188,300,267707,2,0,P|248:288|308:316,1,120,8|0,0:0|0:0,0:0:0:0:
328,300,268119,2,0,P|364:316|432:272,1,120,8|0,0:0|0:0,0:0:0:0:
452,300,268532,2,0,P|440:232|448:172,1,120,8|0,0:0|0:0,0:0:0:0:
416,192,268945,2,0,P|428:124|396:76,1,120,8|0,0:0|0:0,0:0:0:0:
292,32,269496,6,0,P|208:76|100:40,1,180
100,44,270046,2,0,P|104:112|80:172,1,120,8|0,0:0|0:0,0:0:0:0:
24,292,270596,2,0,P|88:324|204:264,1,180
204,268,271147,2,0,P|264:260|328:280,1,120,8|0,0:0|0:0,0:0:0:0:
400,348,271697,6,0,P|428:284|372:180,1,180
356,176,272248,1,8,0:0:0:0:
500,104,272523,1,0,0:0:0:0:
500,104,272661,2,0,P|436:112|368:92,1,120
220,40,273211,1,0,0:0:0:0:
220,40,273349,2,0,P|160:52|88:104,1,120,8|0,0:0|0:0,0:0:0:0:
8,164,273899,6,0,P|68:208|152:204,1,120
140,208,274312,2,0,P|132:284|40:336,1,180,8|0,0:0|0:0,0:0:0:0:
220,256,275000,1,0,0:0:0:0:
220,256,275138,2,0,P|256:268|324:332,1,120
332,348,275551,2,0,L|464:332,1,120,8|0,0:0|0:0,0:0:0:0:
480,192,276101,5,0,0:0:0:0:
480,192,276239,1,0,0:0:0:0:
480,192,276376,2,0,L|360:177,1,120,0|8,0:0|0:0,0:0:0:0:
272,104,276927,1,0,0:0:0:0:
272,104,277064,2,0,P|248:156|260:228,1,120
156,328,277615,1,0,0:0:0:0:
156,328,277752,2,0,P|88:336|32:296,1,120,8|0,0:0|0:0,0:0:0:0:
0,188,278303,5,0,0:0:0:0:
68,104,278578,1,0,0:0:0:0:
96,93,278716,1,0,0:0:0:0:
125,91,278853,1,8,0:0:0:0:
154,96,278991,1,0,0:0:0:0:
181,108,279129,1,0,0:0:0:0:
208,120,279266,1,0,0:0:0:0:
237,126,279404,2,0,P|280:113|345:39,2,120,0|8|8,0:0|0:0|0:0,0:0:0:0:
233,26,280229,1,0,0:0:0:0:
434,37,280505,6,0,P|418:97|368:157,1,120
317,177,280918,1,0,0:0:0:0:
317,177,281055,2,0,P|383:184|460:204,1,120,8|0,0:0|0:0,0:0:0:0:
374,327,281606,1,0,0:0:0:0:
374,327,281743,1,0,0:0:0:0:
374,327,281881,2,0,P|314:321|255:307,1,120,0|8,0:0|0:0,0:0:0:0:
226,302,282294,1,0,0:0:0:0:
197,293,282431,1,0,0:0:0:0:
168,282,282569,1,0,0:0:0:0:
141,267,282707,6,0,P|142:228|192:147,1,120
309,97,283257,2,0,P|219:158|87:78,1,240,8|0,0:0|0:0,0:0:0:0:
184,27,284083,2,0,L|252:34,2,60,0|0|8,0:0|0:0|0:0,0:0:0:0:
44,69,284633,1,0,0:0:0:0:
108,157,284908,5,0,0:0:0:0:
146,173,285046,1,0,0:0:0:0:
187,181,285184,1,0,0:0:0:0:
228,180,285321,1,0,0:0:0:0:
269,173,285459,1,8,0:0:0:0:
308,158,285596,1,0,0:0:0:0:
345,139,285734,1,0,0:0:0:0:
385,127,285872,1,0,0:0:0:0:
426,125,286009,6,0,P|439:149|445:186,1,60
367,280,286285,2,0,P|354:256|348:219,1,60
232,91,286560,2,0,P|172:89|94:197,1,180,8|0,0:0|0:0,0:0:0:0:
95,214,287110,6,0,L|235:251,1,120,8|0,0:0|0:0,0:0:0:0:
174,265,287523,2,0,L|322:260,1,120,8|0,0:0|0:0,0:0:0:0:
266,292,287936,2,0,L|405:243,1,120,8|0,0:0|0:0,0:0:0:0:
372,293,288349,2,0,L|441:171,1,120,8|0,0:0|0:0,0:0:0:0:
454,223,288762,2,0,L|435:89,2,120,8|8|12,0:0|0:0|0:0,0:0:0:0:
256,192,289450,12,0,293716,0:0:0:0:
