osu file format v12

[General]
AudioFilename: Sakura no Ame Moegi no yo.mp3
AudioLeadIn: 0
PreviewTime: 44036
Countdown: 0
SampleSet: Normal
StackLeniency: 0.7
Mode: 0
LetterboxInBreaks: 0
EpilepsyWarning: 1
WidescreenStoryboard: 1

[Editor]
DistanceSpacing: 1
BeatDivisor: 1
GridSize: 4

[Metadata]
Title:Sakura no Ame Moegi no yo
TitleUnicode:サクラノアメモエギノヨ
Artist:KOTOKO
ArtistUnicode:KOTOKO
Creator:Losertic
Version:Normal
Source:
Tags:Accel World unfinished Saito Shinya the sakura rain is pale green
BeatmapID:288308
BeatmapSetID:110713

[Difficulty]
HPDrainRate:4
CircleSize:3
OverallDifficulty:4
ApproachRate:5
SliderMultiplier:1
SliderTickRate:1

[Events]
//Background and Video events
0,0,"Background.jpg",0,0
//Break Periods
2,84465,100680
2,176942,193707
//Storyboard Layer 0 (Background)
//Storyboard Layer 1 (Fail)
//Storyboard Layer 2 (Pass)
//Storyboard Layer 3 (Foreground)
//Storyboard Sound Samples
//Background Colour Transformations
3,100,163,162,255

[TimingPoints]
9403,550.45871559633,4,2,1,70,1,0
27017,-100,4,2,1,75,0,0
44081,-100,4,2,2,75,0,0
44632,-100,4,1,1,80,0,1
61696,-100,4,1,1,80,0,0
62247,-100,4,1,1,80,0,1
81788,-100,4,2,1,60,0,0
136558,-100,4,2,2,70,0,0
137109,-100,4,1,1,80,0,1
154173,-100,4,1,1,80,0,0
154724,-100,4,1,1,80,0,1
174265,-100,4,2,1,60,0,0
209769,-100,4,2,1,80,0,0
213623,-100,4,2,2,70,0,0
216375,-100,4,1,1,80,0,1
231237,-100,4,1,1,80,0,0
231788,-100,4,1,1,80,0,1
251604,-100,4,2,1,60,0,0

[Colours]
Combo1 : 4,167,244
Combo2 : 0,210,210
Combo3 : 232,0,232

[HitObjects]
470,330,9402,2,0,P|442:286|398:266,1,100,10|0,0:0|0:0,0:0:0:0:
304,296,10503,2,0,P|259:274|233:232,1,100,8|2,0:0|0:0,0:0:0:0:
329,201,11604,1,8,0:0:0:0:
252,140,12155,1,0,0:0:0:0:
152,144,12705,1,10,0:0:0:0:
104,56,13256,1,0,0:0:0:0:
204,56,13806,6,0,P|264:72|296:104,1,100,8|2,0:0|0:0,0:0:0:0:
380,140,14907,2,0,P|356:176|296:192,1,100,8|0,0:0|0:0,0:0:0:0:
224,256,16008,1,10,0:0:0:0:
144,196,16558,1,0,0:0:0:0:
180,104,17109,1,8,0:0:0:0:
280,112,17659,1,2,0:0:0:0:
380,112,18210,6,0,P|364:60|328:28,1,100,8|0,0:0|0:0,0:0:0:0:
280,112,19311,2,0,P|250:138|230:194,1,100,10|0,0:0|0:0,0:0:0:0:
329,198,20412,2,0,P|365:234|378:280,2,100,8|2|8,0:0|0:0|0:0,0:0:0:0:
276,283,22063,6,0,P|238:315|190:323,2,100,0|10|0,0:0|0:0|0:0,0:0:0:0:
199,221,23714,1,8,0:0:0:0:
256,143,24265,1,2,0:0:0:0:
256,192,24815,12,8,26467,0:0:0:0:
184,108,27017,6,0,P|152:152|144:212,1,100,12|0,0:0|0:0,0:0:0:0:
244,188,28118,2,0,P|296:180|344:212,1,100,8|2,0:0|0:0,0:0:0:0:
276,280,29219,2,0,P|232:320|176:328,1,100,8|0,0:0|0:0,0:0:0:0:
192,228,30320,2,0,L|160:176,2,50,10|0|0,0:0|0:0|0:0,0:0:0:0:
92,236,31421,5,8,0:0:0:0:
148,320,31972,1,2,0:0:0:0:
192,228,32522,1,8,0:0:0:0:
144,140,33072,2,0,L|200:104,2,50,0|0|10,0:0|0:0|0:0,0:0:0:0:
216,68,34173,2,0,L|272:32,2,50,0|0|8,0:0|0:0|0:0,0:0:0:0:
308,112,35274,1,0,0:0:0:0:
311,212,35825,6,0,P|323:259|357:295,1,100,10|0,0:0|0:0,0:0:0:0:
411,212,36925,2,0,P|463:200|511:216,1,100,8|2,0:0|0:0,0:0:0:0:
459,301,38026,2,0,P|443:352|405:385,2,100,8|0|10,0:0|0:0|0:0,0:0:0:0:
360,284,39678,6,0,P|312:256|292:208,2,100,0|8|2,0:0|0:0|0:0,0:0:0:0:
392,188,41329,1,8,0:0:0:0:
419,91,41879,2,0,P|467:119|487:167,1,100,0|10,0:0|0:0,0:0:0:0:
392,188,42980,6,0,L|344:224,1,50,2|2,0:0|0:0,0:0:0:0:
305,199,43531,2,0,L|265:229,1,50,2|2,0:0|0:0,0:0:0:0:
215,230,44081,1,2,0:0:0:0:
220,128,44632,6,0,P|232:76|216:32,2,100,12|0|8,0:0|0:0|0:0,0:0:0:0:
128,84,46283,1,0,0:0:0:0:
88,176,46833,1,8,0:0:0:0:
136,192,47109,1,0,0:0:0:0:
172,228,47384,2,0,P|160:280|176:324,2,100,0|8|0,0:0|0:0|0:0,0:0:0:0:
264,268,49035,6,0,P|336:220|340:164,1,100,8|0,0:0|0:0,0:0:0:0:
248,168,50136,2,0,P|176:216|172:272,1,100,8|0,0:0|0:0,0:0:0:0:
180,324,51237,1,8,0:0:0:0:
264,268,51788,1,0,0:0:0:0:
340,200,52338,1,8,0:0:0:0:
388,112,52889,1,0,0:0:0:0:
344,88,53164,1,0,0:0:0:0:
300,112,53439,6,0,P|263:143|244:203,2,100,12|0|8,0:0|0:0|0:0,0:0:0:0:
396,140,55090,1,0,0:0:0:0:
473,203,55641,2,0,P|432:231|383:237,2,100,8|0|8,0:0|0:0|0:0,0:0:0:0:
396,140,57292,1,0,0:0:0:0:
360,44,57843,6,0,P|308:52|264:28,2,100,8|0|8,0:0|0:0|0:0,0:0:0:0:
460,64,59494,1,0,0:0:0:0:
396,140,60044,2,0,P|352:180|344:228,1,100,8|0,0:0|0:0,0:0:0:0:
440,224,61145,2,0,P|431:261|387:301,1,100,8|4,0:0|0:0,0:0:0:0:
287,299,62246,5,8,0:0:0:0:
343,217,62797,1,0,0:0:0:0:
285,135,63347,1,8,0:0:0:0:
190,166,63898,1,0,0:0:0:0:
189,267,64449,2,0,P|128:244|100:206,2,100,8|0|8,0:0|0:0|0:0,0:0:0:0:
287,299,66100,1,0,0:0:0:0:
272,200,66650,6,0,P|274:135|250:94,1,100,8|0,0:0|0:0,0:0:0:0:
176,161,67751,2,0,P|111:158|70:182,1,100,8|0,0:0|0:0,0:0:0:0:
141,254,68852,2,0,P|138:318|162:359,1,100,8|0,0:0|0:0,0:0:0:0:
234,290,69953,2,0,P|298:292|339:268,1,100,8|0,0:0|0:0,0:0:0:0:
374,256,70778,1,0,0:0:0:0:
412,223,71054,5,12,0:0:0:0:
446,129,71604,1,0,0:0:0:0:
365,71,72155,1,8,0:0:0:0:
285,131,72705,1,0,0:0:0:0:
307,177,72980,1,0,0:0:0:0:
317,227,73256,5,8,0:0:0:0:
233,279,73806,1,0,0:0:0:0:
157,215,74356,1,8,0:0:0:0:
193,123,74907,1,0,0:0:0:0:
241,135,75182,1,0,0:0:0:0:
289,123,75457,6,0,P|357:127|385:167,1,100,8|0,0:0|0:0,0:0:0:0:
317,227,76558,2,0,P|336:247|404:251,1,100,8|0,0:0|0:0,0:0:0:0:
501,271,77660,2,0,P|500:221|472:181,1,100,8|0,0:0|0:0,0:0:0:0:
375,156,78760,2,0,P|346:115|346:66,1,100,8|0,0:0|0:0,0:0:0:0:
445,91,79861,5,12,0:0:0:0:
485,183,80411,1,0,0:0:0:0:
451,277,80962,1,8,0:0:0:0:
363,325,81512,1,0,0:0:0:0:
256,192,82063,12,4,84265,0:0:0:0:
88,68,101880,6,0,L|208:68,1,100,10|0,0:0|0:0,0:0:0:0:
236,156,102980,2,0,L|116:156,1,100,8|2,0:0|0:0,0:0:0:0:
36,160,104081,2,0,P|64:224|108:248,1,100,8|0,0:0|0:0,0:0:0:0:
188,244,105182,1,10,0:0:0:0:
232,336,105732,1,0,0:0:0:0:
184,348,106008,1,0,0:0:0:0:
138,328,106283,5,8,0:0:0:0:
87,240,106833,1,2,0:0:0:0:
140,156,107384,1,8,0:0:0:0:
87,72,107934,1,0,0:0:0:0:
136,60,108210,1,0,0:0:0:0:
186,63,108485,6,0,B|230:91|266:55|302:87,1,100,10|0,0:0|0:0,0:0:0:0:
256,172,109586,1,8,0:0:0:0:
252,271,110136,1,2,0:0:0:0:
301,262,110411,1,0,0:0:0:0:
348,244,110687,6,0,P|404:240|444:208,1,100,8|0,0:0|0:0,0:0:0:0:
368,144,111788,2,0,P|336:100|296:80,1,100,10|0,0:0|0:0,0:0:0:0:
272,176,112889,2,0,P|248:224|260:284,2,100,8|2|8,0:0|0:0|0:0,0:0:0:0:
348,244,114540,6,0,P|404:248|444:216,1,100,0|10,0:0|0:0,0:0:0:0:
504,148,115641,1,0,0:0:0:0:
408,128,116191,1,8,0:0:0:0:
316,84,116742,1,2,0:0:0:0:
220,52,117293,2,0,L|116:52,2,100,8|0|10,0:0|0:0|0:0,0:0:0:0:
316,84,118944,1,0,0:0:0:0:
240,148,119494,6,0,P|272:196|272:248,1,100,12|0,0:0|0:0,0:0:0:0:
176,224,120595,2,0,P|136:256|116:312,1,100,8|2,0:0|0:0,0:0:0:0:
216,312,121696,2,0,P|260:336|316:316,2,100,8|0|10,0:0|0:0|0:0,0:0:0:0:
176,224,123347,1,0,0:0:0:0:
276,240,123898,6,0,P|292:192|340:160,1,100,8|2,0:0|0:0,0:0:0:0:
428,172,124999,2,0,P|412:220|373:248,2,100,8|0|10,0:0|0:0|0:0,0:0:0:0:
328,164,126650,1,0,0:0:0:0:
276,248,127200,1,8,0:0:0:0:
228,160,127751,1,2,0:0:0:0:
276,152,128026,1,0,0:0:0:0:
320,124,128301,6,0,P|296:80|240:64,1,100,12|0,0:0|0:0,0:0:0:0:
228,160,129402,2,0,P|192:200|200:264,1,100,10|0,0:0|0:0,0:0:0:0:
288,232,130504,2,0,P|344:240|380:216,2,100,8|2|8,0:0|0:0|0:0,0:0:0:0:
320,136,132155,5,0,0:0:0:0:
272,136,132430,1,0,0:0:0:0:
228,160,132705,2,0,P|188:192|128:192,1,100,10|0,0:0|0:0,0:0:0:0:
152,96,133806,2,0,P|112:64|64:60,2,100,8|2|8,0:0|0:0|0:0,0:0:0:0:
75,160,135458,6,0,L|43:215,1,50,2|2,0:0|0:0,0:0:0:0:
67,250,136008,2,0,L|35:305,1,50,2|2,0:0|0:0,0:0:0:0:
68,336,136558,1,2,0:0:0:0:
164,300,137109,5,12,0:0:0:0:
256,268,137659,1,0,0:0:0:0:
183,199,138210,2,0,P|228:162|267:155,1,100,8|0,0:0|0:0,0:0:0:0:
367,163,139311,1,8,0:0:0:0:
419,79,139861,1,0,0:0:0:0:
319,75,140411,2,0,P|283:107|267:155,1,100,8|0,0:0|0:0,0:0:0:0:
256,204,141237,1,0,0:0:0:0:
236,250,141512,5,8,0:0:0:0:
156,312,142063,1,0,0:0:0:0:
156,212,142613,1,8,0:0:0:0:
236,152,143164,1,0,0:0:0:0:
278,123,143439,1,0,0:0:0:0:
328,112,143714,1,8,0:0:0:0:
300,208,144265,2,0,P|364:204|408:176,2,100,0|8|0,0:0|0:0|0:0,0:0:0:0:
272,248,145641,1,0,0:0:0:0:
284,296,145916,5,12,0:0:0:0:
188,328,146467,1,0,0:0:0:0:
116,260,147017,1,8,0:0:0:0:
172,176,147567,1,0,0:0:0:0:
160,128,147843,1,0,0:0:0:0:
176,80,148118,5,8,0:0:0:0:
276,60,148669,1,0,0:0:0:0:
360,116,149219,2,0,P|384:176|376:224,1,100,8|0,0:0|0:0,0:0:0:0:
348,248,150044,1,0,0:0:0:0:
300,228,150320,2,0,P|252:204|196:220,2,100,8|0|8,0:0|0:0|0:0,0:0:0:0:
240,308,151971,1,0,0:0:0:0:
256,192,152522,12,4,154173,0:0:0:0:
360,260,154723,5,12,0:0:0:0:
404,172,155274,1,0,0:0:0:0:
304,184,155825,2,0,P|312:136|339:94,2,100,8|0|8,0:0|0:0|0:0,0:0:0:0:
404,172,157476,1,0,0:0:0:0:
436,268,158026,2,0,P|384:296|324:288,1,100,8|0,0:0|0:0,0:0:0:0:
300,272,158852,1,0,0:0:0:0:
260,244,159127,6,0,P|208:216|148:224,1,100,8|0,0:0|0:0,0:0:0:0:
100,288,160228,2,0,P|142:313|191:316,2,100,8|0|8,0:0|0:0|0:0,0:0:0:0:
172,216,161879,1,0,0:0:0:0:
140,120,162430,1,8,0:0:0:0:
240,136,162980,1,0,0:0:0:0:
280,104,163256,1,0,0:0:0:0:
328,108,163531,6,0,P|372:124|408:176,1,100,12|0,0:0|0:0,0:0:0:0:
396,264,164632,2,0,P|352:248|319:207,1,100,8|0,0:0|0:0,0:0:0:0:
236,152,165733,1,8,0:0:0:0:
152,96,166283,1,0,0:0:0:0:
72,40,166833,2,0,P|56:88|68:152,1,100,8|0,0:0|0:0,0:0:0:0:
96,172,167659,1,0,0:0:0:0:
140,196,167934,5,8,0:0:0:0:
80,276,168485,1,0,0:0:0:0:
132,360,169035,1,8,0:0:0:0:
224,324,169586,1,0,0:0:0:0:
240,224,170137,2,0,P|276:184|280:136,2,100,8|0|8,0:0|0:0|0:0,0:0:0:0:
204,260,171512,1,0,0:0:0:0:
224,304,171788,1,0,0:0:0:0:
304,248,172338,5,8,0:0:0:0:
356,164,172889,1,0,0:0:0:0:
296,84,173439,1,8,0:0:0:0:
196,96,173989,1,0,0:0:0:0:
256,192,174540,12,4,176742,1:0:0:0:
256,192,194907,6,0,L|372:192,2,100,0|10|0,0:0|0:0|0:0,0:0:0:0:
192,116,196558,2,0,L|92:116,2,100,8|2|8,0:0|0:0|0:0,0:0:0:0:
256,192,198210,1,0,0:0:0:0:
292,100,198760,6,0,P|336:128|352:184,2,100,10|0|8,0:0|0:0|0:0,0:0:0:0:
192,88,200411,1,2,0:0:0:0:
168,184,200962,1,8,0:0:0:0:
215,272,201513,6,0,P|246:245|264:203,2,75,0|0|0,0:0|0:0|0:0,0:0:0:0:
166,284,202614,1,0,0:0:0:0:
168,184,203164,1,8,0:0:0:0:
267,196,203714,6,0,P|295:164|303:104,1,100,2|8,0:0|0:0,0:0:0:0:
203,112,204816,2,0,P|163:56|158:26,1,100,0|10,0:0|0:0,0:0:0:0:
258,37,205916,2,0,P|310:25|362:41,2,100,0|8|2,0:0|0:0|0:0,0:0:0:0:
203,120,207568,2,0,L|175:76,2,50,8|0|0,0:0|0:0|0:0,0:0:0:0:
116,172,208669,1,10,0:0:0:0:
146,267,209219,1,0,0:0:0:0:
165,313,209494,1,0,0:0:0:0:
200,348,209769,5,2,0:0:0:0:
256,264,210320,1,0,0:0:0:0:
308,348,210870,1,2,0:0:0:0:
256,264,211421,1,0,0:0:0:0:
172,208,211971,2,0,B|139:172|139:172|119:124,2,100,2|0|2,0:0|0:0|0:0,0:0:0:0:
256,156,213623,1,0,0:0:0:0:
256,256,214173,5,2,0:0:0:0:
349,272,216375,5,12,0:0:0:0:
426,208,216925,1,0,0:0:0:0:
416,108,217476,2,0,P|376:64|336:52,1,100,8|0,0:0|0:0,0:0:0:0:
318,150,218577,2,0,P|278:178|222:174,1,100,8|0,0:0|0:0,0:0:0:0:
252,80,219678,2,0,P|216:48|144:44,1,100,8|0,0:0|0:0,0:0:0:0:
117,51,220503,1,0,0:0:0:0:
88,92,220779,2,0,P|76:144|36:184,2,100,8|0|8,0:0|0:0|0:0,0:0:0:0:
176,140,222430,1,0,0:0:0:0:
200,236,222980,5,12,0:0:0:0:
276,168,223531,1,0,0:0:0:0:
252,72,224081,2,0,P|308:72|352:112,1,100,8|0,0:0|0:0,0:0:0:0:
412,168,225182,2,0,P|457:179|509:167,1,100,8|0,0:0|0:0,0:0:0:0:
460,80,226283,2,0,P|415:69|363:81,1,100,8|0,0:0|0:0,0:0:0:0:
313,167,227384,5,8,0:0:0:0:
217,197,227935,1,0,0:0:0:0:
217,297,228485,1,8,0:0:0:0:
313,328,229035,1,8,0:0:0:0:
371,247,229586,2,0,L|425:259,2,50,8|0|0,0:0|0:0|0:0,0:0:0:0:
313,328,230687,2,0,L|264:339,2,50,8|0|4,0:0|0:0|0:0,0:0:0:0:
274,235,231788,5,12,0:0:0:0:
214,155,232338,1,0,0:0:0:0:
166,243,232889,2,0,P|126:211|114:163,1,100,8|0,0:0|0:0,0:0:0:0:
154,75,233989,1,8,0:0:0:0:
214,155,234539,1,0,0:0:0:0:
258,67,235090,2,0,P|298:99|310:147,1,100,8|0,0:0|0:0,0:0:0:0:
290,242,236191,6,0,L|234:282,2,50,8|0|0,0:0|0:0|0:0,0:0:0:0:
310,146,237292,2,0,L|350:116,2,50,8|0|0,0:0|0:0|0:0,0:0:0:0:
214,174,238393,2,0,P|214:110|250:74,1,100,8|0,0:0|0:0,0:0:0:0:
323,36,239494,1,8,0:0:0:0:
422,40,240044,1,0,0:0:0:0:
446,83,240320,1,0,0:0:0:0:
424,128,240595,5,12,0:0:0:0:
472,216,241145,1,0,0:0:0:0:
448,312,241696,1,8,0:0:0:0:
348,328,242246,1,0,0:0:0:0:
304,232,242797,5,8,0:0:0:0:
240,308,243347,1,0,0:0:0:0:
148,272,243898,2,0,P|132:228|152:176,1,100,8|0,0:0|0:0,0:0:0:0:
196,168,244723,1,0,0:0:0:0:
240,144,244999,5,8,0:0:0:0:
212,48,245549,1,0,0:0:0:0:
112,40,246100,1,8,0:0:0:0:
60,124,246650,1,0,0:0:0:0:
144,180,247200,6,0,P|180:224|248:248,1,100,8|0,0:0|0:0,0:0:0:0:
248,148,248301,2,0,P|285:167|321:211,1,100,8|0,0:0|0:0,0:0:0:0:
328,260,249127,1,0,0:0:0:0:
304,304,249402,5,8,0:0:0:0:
392,348,249953,1,0,0:0:0:0:
464,280,250503,1,8,0:0:0:0:
428,188,251054,2,0,L|394:142,1,50,0|0,0:0|0:0,0:0:0:0:
256,192,251604,12,4,253806,0:0:0:0:
