osu file format v12

[General]
AudioFilename: Sakura no Ame Moegi no yo.mp3
AudioLeadIn: 0
PreviewTime: 44036
Countdown: 0
SampleSet: Soft
StackLeniency: 0.7
Mode: 0
LetterboxInBreaks: 0
EpilepsyWarning: 1
WidescreenStoryboard: 1

[Editor]
DistanceSpacing: 1.3
BeatDivisor: 4
GridSize: 4

[Metadata]
Title:Sakura no Ame Moegi no yo
TitleUnicode:サクラノアメモエギノヨ
Artist:KOTOKO
ArtistUnicode:KOTOKO
Creator:Losertic
Version:Hard
Source:
Tags:Accel World unfinished Saito Shinya the sakura rain is pale green
BeatmapID:289333
BeatmapSetID:110713

[Difficulty]
HPDrainRate:6
CircleSize:4
OverallDifficulty:6
ApproachRate:7
SliderMultiplier:1.6
SliderTickRate:1

[Events]
//Background and Video events
0,0,"Background.jpg",0,0
//Break Periods
2,84465,100704
2,176942,193457
2,214373,215475
//Storyboard Layer 0 (Background)
//Storyboard Layer 1 (Fail)
//Storyboard Layer 2 (Pass)
//Storyboard Layer 3 (Foreground)
//Storyboard Sound Samples
//Background Colour Transformations
3,100,163,162,255

[TimingPoints]
9403,550.45871559633,4,2,1,70,1,0
27017,-100,4,2,1,75,0,0
44081,-100,4,2,2,75,0,0
44632,-100,4,1,1,80,0,1
61696,-100,4,1,1,80,0,0
62247,-100,4,1,1,80,0,1
81788,-100,4,1,1,60,0,0
82063,-100,4,2,1,60,0,0
136558,-100,4,2,2,70,0,0
137109,-100,4,1,1,80,0,1
154173,-100,4,1,1,80,0,0
154724,-100,4,1,1,80,0,1
174265,-100,4,1,1,60,0,0
174540,-100,4,2,1,60,0,0
209769,-100,4,2,1,80,0,0
214173,-100,4,2,2,80,0,0
216375,-100,4,1,1,80,0,1
231237,-100,4,1,1,80,0,0
231788,-100,4,1,1,80,0,1
251329,-100,4,1,1,60,0,1
251604,-100,4,2,1,60,0,0

[Colours]
Combo1 : 4,167,244
Combo2 : 0,210,210
Combo3 : 232,0,232

[HitObjects]
162,81,9402,6,0,P|91:79|48:148,1,160,10|0,0:0|0:0,0:0:0:0:
131,154,10228,1,0,0:0:0:0:
95,225,10503,2,0,P|167:228|210:159,1,160,8|2,0:0|0:0,0:0:0:0:
272,108,11329,1,0,0:0:0:0:
344,72,11604,2,0,P|388:32|456:36,2,120,8|0|0,0:0|0:0|0:0,0:0:0:0:
416,104,12705,1,10,0:0:0:0:
468,164,12980,1,0,0:0:0:0:
388,180,13256,1,0,0:0:0:0:
412,280,13531,5,0,0:0:0:0:
380,304,13668,1,0,0:0:0:0:
344,320,13806,1,8,0:0:0:0:
264,320,14081,1,0,0:0:0:0:
228,340,14219,2,0,P|170:327|134:281,1,120
212,261,14907,1,10,0:0:0:0:
180,188,15182,1,0,0:0:0:0:
196,152,15320,2,0,P|216:84|264:56,1,120
276,136,16008,6,0,P|360:144|403:73,1,160,8|0,0:0|0:0,0:0:0:0:
324,72,16833,1,0,0:0:0:0:
252,40,17109,1,10,0:0:0:0:
180,72,17384,1,0,0:0:0:0:
108,40,17659,1,0,0:0:0:0:
196,167,18210,6,0,P|188:102|264:39,1,160,8|0,0:0|0:0,0:0:0:0:
292,192,19311,2,0,P|357:184|420:260,1,160,10|0,0:0|0:0,0:0:0:0:
228,252,20412,2,0,P|236:317|184:376,2,120,8|0|0,0:0|0:0|0:0,0:0:0:0:
228,252,21513,1,8,0:0:0:0:
68,244,22063,5,0,0:0:0:0:
108,172,22338,1,0,0:0:0:0:
148,104,22613,2,0,P|209:89|282:109,2,120,8|0|0,0:0|0:0|0:0,0:0:0:0:
212,212,23714,1,10,0:0:0:0:
316,277,23990,2,0,L|280:260,1,40
148,104,24540,1,0,0:0:0:0:
148,104,24815,1,10,0:0:0:0:
256,192,24953,12,0,26467,0:0:0:0:
35,74,27017,6,0,L|137:89,1,80,12|0,0:0|0:0,0:0:0:0:
142,114,27430,2,0,P|195:147|261:163,1,120
324,235,28118,2,0,P|318:274|318:314,1,80,10|0,0:0|0:0,0:0:0:0:
408,281,28669,2,0,P|414:241|414:201,1,80,0|0,0:0|0:0,0:0:0:0:
353,133,29219,2,0,P|417:113|491:146,2,120,8|0|0,0:0|0:0|0:0,0:0:0:0:
292,72,30319,2,0,B|236:103|196:52|136:80,1,160,10|0,0:0|0:0,0:0:0:0:
178,175,31145,1,0,0:0:0:0:
191,212,31283,1,0,0:0:0:0:
178,250,31421,6,0,P|199:283|235:299,2,80,8|0|0,0:0|0:0|0:0,0:0:0:0:
90,224,32246,1,0,0:0:0:0:
100,132,32522,2,0,P|120:92|172:72,1,80,10|0,0:0|0:0,0:0:0:0:
180,48,32934,1,0,0:0:0:0:
212,24,33072,1,0,0:0:0:0:
224,112,33347,1,0,0:0:0:0:
300,92,33622,6,0,B|316:144|272:180|272:180|272:248,1,160,8|0,0:0|0:0,0:0:0:0:
200,346,34448,1,0,0:0:0:0:
196,217,34723,1,10,0:0:0:0:
276,320,34999,1,0,0:0:0:0:
151,284,35274,1,0,0:0:0:0:
324,224,35549,6,0,P|368:232|404:216,2,80,0|8|0,0:0|0:0|0:0,0:0:0:0:
356,152,36375,1,0,0:0:0:0:
300,92,36650,1,0,0:0:0:0:
244,36,36925,1,10,0:0:0:0:
244,36,37200,2,0,L|148:36,2,80,0|0|0,0:0|0:0|0:0,0:0:0:0:
240,140,38026,2,0,L|256:224,1,80,8|0,0:0|0:0,0:0:0:0:
176,208,38577,2,0,L|147:288,1,80,2|0,0:0|0:0,0:0:0:0:
84,236,39127,2,0,L|19:291,1,80,8|0,0:0|0:0,0:0:0:0:
95,345,39678,5,0,0:0:0:0:
174,350,39953,1,0,0:0:0:0:
240,304,40228,2,0,P|312:336|382:295,1,160,10|0,0:0|0:0,0:0:0:0:
308,256,41054,2,0,B|320:228|300:208|312:176,1,80,0|8,0:0|0:0,0:0:0:0:
244,132,41604,1,0,0:0:0:0:
352,60,41879,1,2,0:0:0:0:
272,56,42155,1,0,0:0:0:0:
380,140,42429,2,0,P|432:168|452:216,1,80,8|0,0:0|0:0,0:0:0:0:
452,224,42843,1,0,0:0:0:0:
448,264,42980,5,2,0:0:0:0:
308,220,43256,1,10,0:0:0:0:
356,312,43531,1,2,0:0:0:0:
380,140,43806,1,2,0:0:0:0:
256,124,44081,1,2,0:0:0:0:
356,312,44632,6,0,P|412:244|416:168,2,160,12|0|8,0:0|0:0|0:0,0:0:0:0:
305,250,46008,2,0,L|273:206,2,40
207,250,46558,1,0,0:0:0:0:
156,312,46834,2,0,P|100:244|94:174,2,160,8|0|8,0:0|0:0|0:0,0:0:0:0:
207,250,48210,2,0,L|239:206,2,40
282,348,48760,5,0,0:0:0:0:
353,296,49036,2,0,L|458:317,2,80,8|0|0,0:0|0:0|0:0,0:0:0:0:
271,271,49861,1,0,0:0:0:0:
186,250,50136,1,8,0:0:0:0:
162,217,50274,1,0,0:0:0:0:
160,176,50412,1,0,0:0:0:0:
187,146,50549,1,0,0:0:0:0:
224,129,50687,2,0,P|249:160|258:199,1,80
331,249,51237,6,0,P|283:284|194:260,2,120,8|0|0,0:0|0:0|0:0,0:0:0:0:
392,172,52338,2,0,B|356:156|356:156|324:124,1,80,8|0,0:0|0:0,0:0:0:0:
256,76,52888,1,0,0:0:0:0:
109,154,53164,1,0,0:0:0:0:
109,154,53302,1,0,0:0:0:0:
109,154,53439,6,0,P|65:154|27:169,1,80,12|0,0:0|0:0,0:0:0:0:
159,221,53990,2,0,P|198:221|236:208,1,80,0|0,0:0|0:0,0:0:0:0:
259,121,54540,1,8,0:0:0:0:
259,121,54678,2,0,P|310:156|326:209,1,120
393,287,55366,1,0,0:0:0:0:
459,207,55641,5,8,0:0:0:0:
470,168,55779,1,0,0:0:0:0:
471,128,55916,1,0,0:0:0:0:
467,88,56054,1,0,0:0:0:0:
451,51,56191,1,0,0:0:0:0:
385,168,56467,1,0,0:0:0:0:
385,168,56604,2,0,P|336:139|308:135,1,80
312,224,57155,2,0,P|280:288|208:308,1,120
126,279,57843,5,8,0:0:0:0:
84,144,58256,1,0,0:0:0:0:
160,20,58668,1,0,0:0:0:0:
284,92,58944,5,8,0:0:0:0:
244,28,59219,1,0,0:0:0:0:
196,88,59494,1,0,0:0:0:0:
84,144,59769,5,0,0:0:0:0:
84,144,59907,1,0,0:0:0:0:
84,144,60045,2,0,L|0:130,1,80,8|0,0:0|0:0,0:0:0:0:
66,223,60595,2,0,L|150:237,1,80
188,304,61145,5,8,0:0:0:0:
217,277,61283,1,0,0:0:0:0:
233,240,61421,1,0,0:0:0:0:
223,201,61558,1,0,0:0:0:0:
205,165,61696,1,0,0:0:0:0:
256,60,61971,1,0,0:0:0:0:
360,112,62246,6,0,P|404:144|432:192,1,80,12|0,0:0|0:0,0:0:0:0:
344,192,62797,2,0,P|366:241|366:297,1,80,0|0,0:0|0:0,0:0:0:0:
290,252,63347,1,8,0:0:0:0:
290,252,63485,2,0,P|241:274|185:274,1,80,0|0,0:0|0:0,0:0:0:0:
174,291,63898,1,0,0:0:0:0:
170,203,64173,5,0,0:0:0:0:
170,203,64448,2,0,P|158:163|166:111,1,80,8|0,0:0|0:0,0:0:0:0:
180,88,64861,1,0,0:0:0:0:
212,64,64999,2,0,P|251:66|289:55,1,80,8|0,0:0|0:0,0:0:0:0:
328,48,65412,2,0,P|367:45|405:56,1,80,8|0,0:0|0:0,0:0:0:0:
432,88,65825,2,0,B|448:100|448:100|480:120,2,40
359,125,66375,1,0,0:0:0:0:
288,224,66650,6,0,P|225:174|144:175,1,160,8|0,0:0|0:0,0:0:0:0:
190,278,67476,1,0,0:0:0:0:
307,242,67751,2,0,P|370:292|451:291,1,160,8|0,0:0|0:0,0:0:0:0:
405,188,68577,1,0,0:0:0:0:
376,108,68852,2,0,P|344:76|292:56,1,80,8|0,0:0|0:0,0:0:0:0:
292,148,69402,2,0,P|248:136|193:144,1,80,0|0,0:0|0:0,0:0:0:0:
243,221,69953,5,8,0:0:0:0:
233,259,70090,1,0,0:0:0:0:
233,299,70228,1,0,0:0:0:0:
244,337,70366,1,0,0:0:0:0:
272,365,70503,1,0,0:0:0:0:
352,312,70778,1,0,0:0:0:0:
416,228,71054,6,0,P|428:188|420:144,1,80,12|0,0:0|0:0,0:0:0:0:
348,184,71604,2,0,P|336:144|344:100,1,80,0|0,0:0|0:0,0:0:0:0:
416,76,72155,1,8,0:0:0:0:
388,48,72292,1,0,0:0:0:0:
352,32,72430,1,0,0:0:0:0:
312,36,72567,1,0,0:0:0:0:
280,60,72705,1,0,0:0:0:0:
184,52,72980,1,0,0:0:0:0:
124,136,73256,6,0,L|172:168,2,40,8|0|0,0:0|0:0|0:0,0:0:0:0:
244,128,73806,2,0,L|277:150,2,40,0|0|0,0:0|0:0|0:0,0:0:0:0:
200,240,74357,2,0,L|166:262,2,40,8|0|0,0:0|0:0|0:0,0:0:0:0:
200,240,74769,2,0,P|264:252|320:248,1,120
412,148,75458,6,0,P|376:124|328:112,1,80,8|0,0:0|0:0,0:0:0:0:
300,112,75870,2,0,L|256:100,1,40
192,144,76283,2,0,P|184:92|200:44,3,80,0|8|0|0,0:0|0:0|0:0|0:0,0:0:0:0:
280,28,77384,1,0,0:0:0:0:
348,104,77659,6,0,P|387:110|426:101,1,80,8|0,0:0|0:0,0:0:0:0:
468,104,78072,2,0,L|515:146,1,40
392,188,78485,1,0,0:0:0:0:
324,284,78760,2,0,L|292:259,2,40,8|0|0,0:0|0:0|0:0,0:0:0:0:
280,172,79311,1,0,0:0:0:0:
180,236,79586,2,0,L|211:260,2,40,0|0|8,0:0|0:0|0:0,0:0:0:0:
256,36,80411,5,0,0:0:0:0:
360,228,80962,1,8,0:0:0:0:
157,228,81512,1,0,0:0:0:0:
256,192,81788,1,0,0:0:0:0:
256,192,81925,1,0,0:0:0:0:
256,192,82063,12,4,84265,0:0:0:0:
80,288,101604,5,0,0:0:0:0:
136,228,101879,2,0,P|156:184|188:156,1,80,10|0,0:0|0:0,0:0:0:0:
212,140,102292,1,0,0:0:0:0:
352,28,102705,1,0,0:0:0:0:
216,44,102980,2,0,P|180:72|136:88,2,80,8|0|2,0:0|0:0|0:0,0:0:0:0:
244,140,103806,1,0,0:0:0:0:
336,144,104081,6,0,P|328:100|296:64,1,80,8|0,0:0|0:0,0:0:0:0:
392,192,104632,2,0,P|436:184|472:152,1,80,0|0,0:0|0:0,0:0:0:0:
336,240,105182,2,0,P|344:284|376:320,1,80,10|0,0:0|0:0,0:0:0:0:
280,192,105733,2,0,P|236:200|200:232,2,80,0|0|8,0:0|0:0|0:0,0:0:0:0:
269,271,106558,1,0,0:0:0:0:
259,309,106696,1,0,0:0:0:0:
229,336,106834,2,0,B|189:347|189:347|131:340,1,80,2|0,0:0|0:0,0:0:0:0:
88,260,107384,5,8,0:0:0:0:
156,180,107659,1,0,0:0:0:0:
116,184,107797,1,0,0:0:0:0:
80,168,107935,2,0,B|60:136|60:136|60:80,1,80,0|0,0:0|0:0,0:0:0:0:
140,104,108485,2,0,P|160:68|192:48,1,80,10|0,0:0|0:0,0:0:0:0:
216,124,109035,2,0,P|232:152|228:208,1,80,0|0,0:0|0:0,0:0:0:0:
156,180,109586,2,0,P|112:180|80:156,2,80,8|0|2,0:0|0:0|0:0,0:0:0:0:
376,64,110687,6,0,P|396:140|376:228,1,160,8|0,0:0|0:0,0:0:0:0:
256,264,111512,1,0,0:0:0:0:
136,320,111787,2,0,P|116:244|136:156,1,160,10|0,0:0|0:0,0:0:0:0:
131,165,112613,1,0,0:0:0:0:
31,167,112888,2,0,P|42:129|63:95,1,80,8|0,0:0|0:0,0:0:0:0:
195,33,113438,2,0,P|243:48|287:79,1,80,2|0,0:0|0:0,0:0:0:0:
200,127,113989,1,8,0:0:0:0:
200,127,114265,1,0,0:0:0:0:
348,165,114540,6,0,P|309:159|269:167,2,80,0|0|10,0:0|0:0|0:0,0:0:0:0:
311,236,115366,1,0,0:0:0:0:
305,275,115503,1,0,0:0:0:0:
315,313,115641,1,0,0:0:0:0:
460,269,115916,2,0,P|421:276|382:270,1,80,0|8,0:0|0:0,0:0:0:0:
422,200,116467,1,0,0:0:0:0:
422,200,116604,1,0,0:0:0:0:
422,200,116742,2,0,P|414:160|421:121,1,80,2|0,0:0|0:0,0:0:0:0:
283,67,117292,5,8,0:0:0:0:
256,192,117430,12,2,118944,0:0:0:0:
128,72,119494,6,0,P|204:52|292:72,1,160,8|0,0:0|0:0,0:0:0:0:
328,192,120320,1,0,0:0:0:0:
384,312,120595,2,0,P|308:332|220:312,1,160,10|0,0:0|0:0,0:0:0:0:
151,211,121420,5,0,0:0:0:0:
275,251,121696,1,8,0:0:0:0:
151,291,121971,1,0,0:0:0:0:
228,186,122246,1,2,0:0:0:0:
229,316,122522,1,0,0:0:0:0:
151,211,122797,1,8,0:0:0:0:
384,312,123347,1,0,0:0:0:0:
300,186,123897,6,0,P|268:128|176:136,1,160,10|0,0:0|0:0,0:0:0:0:
209,206,124724,1,0,0:0:0:0:
260,268,124999,2,0,P|320:328|399:307,1,160,8|2,0:0|0:0,0:0:0:0:
340,252,125824,1,0,0:0:0:0:
386,141,126100,5,8,0:0:0:0:
309,117,126375,1,0,0:0:0:0:
269,109,126513,1,0,0:0:0:0:
230,118,126650,2,0,P|182:124|143:142,2,80,0|0|10,0:0|0:0|0:0,0:0:0:0:
210,195,127476,1,0,0:0:0:0:
160,286,127751,1,0,0:0:0:0:
72,228,128026,1,0,0:0:0:0:
72,228,128302,6,0,L|-20:228,2,80,8|0|2,0:0|0:0|0:0,0:0:0:0:
128,288,129127,1,0,0:0:0:0:
196,332,129402,2,0,L|280:332,2,80,8|0|0,0:0|0:0|0:0,0:0:0:0:
128,288,130228,1,0,0:0:0:0:
72,228,130503,2,0,P|160:216|205:256,2,120,10|0|8,0:0|0:0|0:0,0:0:0:0:
196,332,131604,1,8,0:0:0:0:
196,332,132155,5,2,0:0:0:0:
272,288,132430,1,0,0:0:0:0:
360,284,132705,2,0,P|404:228|364:144,1,160,8|0,0:0|0:0,0:0:0:0:
304,208,133531,2,0,P|264:200|224:168,1,80,0|10,0:0|0:0,0:0:0:0:
152,180,134081,1,0,0:0:0:0:
165,142,134219,1,0,0:0:0:0:
192,113,134356,1,0,0:0:0:0:
257,66,134632,2,0,B|301:62|301:62|361:40,2,80,0|10|0,0:0|0:0|0:0,0:0:0:0:
243,103,135320,1,0,0:0:0:0:
220,136,135457,5,2,0:0:0:0:
111,207,135733,1,2,0:0:0:0:
241,214,136008,1,10,0:0:0:0:
139,132,136283,1,2,0:0:0:0:
173,257,136558,1,2,0:0:0:0:
465,307,137109,6,0,P|462:267|438:236,1,80,12|0,0:0|0:0,0:0:0:0:
297,177,137659,2,0,P|301:216|325:248,1,80,0|0,0:0|0:0,0:0:0:0:
448,160,138210,2,0,P|408:163|377:187,2,80,8|0|0,0:0|0:0|0:0,0:0:0:0:
492,93,139036,5,0,0:0:0:0:
455,77,139173,1,0,0:0:0:0:
414,78,139311,1,8,0:0:0:0:
375,88,139448,1,0,0:0:0:0:
336,100,139586,2,0,B|296:96|296:96|252:72,1,80
215,164,140136,1,0,0:0:0:0:
175,171,140274,2,0,P|136:166|77:180,1,80
62,151,140687,2,0,P|45:112|53:53,2,80
116,260,141512,6,0,P|184:224|284:240,1,160,8|0,0:0|0:0,0:0:0:0:
348,316,142338,1,0,0:0:0:0:
432,228,142613,2,0,P|477:163|480:84,1,160,8|0,0:0|0:0,0:0:0:0:
360,92,143439,2,0,P|340:52|284:36,2,80,0|8|0,0:0|0:0|0:0,0:0:0:0:
336,176,144265,1,0,0:0:0:0:
156,188,144540,1,0,0:0:0:0:
134,110,144815,2,0,B|190:98|222:142|222:142|276:116,1,160,8|0,0:0|0:0,0:0:0:0:
264,220,145641,1,0,0:0:0:0:
303,228,145778,1,0,0:0:0:0:
334,254,145916,6,0,P|374:302|374:350,1,80,8|0,0:0|0:0,0:0:0:0:
294,326,146467,2,0,P|234:322|210:302,1,80,0|0,0:0|0:0,0:0:0:0:
240,188,147017,1,8,0:0:0:0:
256,152,147155,1,0,0:0:0:0:
288,128,147292,1,0,0:0:0:0:
328,124,147430,1,0,0:0:0:0:
364,140,147567,1,0,0:0:0:0:
440,168,147843,6,0,P|457:203|487:230,1,80,0|8,0:0|0:0,0:0:0:0:
492,268,148256,1,0,0:0:0:0:
456,288,148393,2,0,L|404:316,1,40
380,312,148669,2,0,P|343:297|288:297,1,80
268,280,149081,2,0,L|232:256,2,40,0|8|0,0:0|0:0|0:0,0:0:0:0:
176,332,149632,2,0,P|144:284|152:216,1,120
136,120,150320,6,0,P|176:128|244:160,1,80,8|0,0:0|0:0,0:0:0:0:
248,160,150733,2,0,L|286:149,1,40
353,106,151146,1,0,0:0:0:0:
427,224,151421,1,8,0:0:0:0:
424,144,151696,1,0,0:0:0:0:
359,266,151971,1,0,0:0:0:0:
288,228,152247,1,0,0:0:0:0:
256,192,152522,12,4,154173,0:0:0:0:
324,300,154723,6,0,P|376:280|412:248,1,80,12|0,0:0|0:0,0:0:0:0:
400,184,155274,2,0,P|348:204|328:218,1,80,0|0,0:0|0:0,0:0:0:0:
228,268,155824,1,8,0:0:0:0:
200,240,155962,1,0,0:0:0:0:
329,218,156237,1,0,0:0:0:0:
136,108,156650,6,0,P|160:144|156:192,2,80,0|8|0,0:0|0:0|0:0,0:0:0:0:
72,172,157476,2,0,B|24:164|24:164|-24:136,1,80,0|0,0:0|0:0,0:0:0:0:
52,88,158026,2,0,B|60:48|60:48|44:4,2,80,8|0|0,0:0|0:0|0:0,0:0:0:0:
104,152,158852,1,0,0:0:0:0:
93,232,159127,6,0,P|69:272|65:304,2,80,8|0|0,0:0|0:0|0:0,0:0:0:0:
217,331,159953,2,0,P|187:304|149:292,2,80,0|8|0,0:0|0:0|0:0,0:0:0:0:
252,352,160641,2,0,B|304:324|304:324|336:244,1,120,0|0,0:0|0:0,0:0:0:0:
240,224,161329,6,0,B|260:168|288:144|288:144|372:160,1,160,8|0,0:0|0:0,0:0:0:0:
304,32,162155,1,0,0:0:0:0:
215,68,162430,1,8,0:0:0:0:
174,154,162705,1,0,0:0:0:0:
240,224,162980,1,0,0:0:0:0:
432,224,163256,1,0,0:0:0:0:
432,224,163393,1,0,0:0:0:0:
432,224,163530,6,0,P|440:184|432:144,1,80,12|0,0:0|0:0,0:0:0:0:
348,104,164081,2,0,P|340:142|348:182,1,80,0|0,0:0|0:0,0:0:0:0:
368,276,164632,1,8,0:0:0:0:
340,312,164769,1,0,0:0:0:0:
292,304,164907,1,0,0:0:0:0:
244,296,165044,1,0,0:0:0:0:
196,308,165182,1,0,0:0:0:0:
139,251,165457,1,0,0:0:0:0:
64,220,165732,6,0,B|48:180|48:180|48:128,1,80,8|0,0:0|0:0,0:0:0:0:
60,104,166145,1,0,0:0:0:0:
80,68,166283,1,0,0:0:0:0:
188,96,166558,1,0,0:0:0:0:
216,68,166696,2,0,P|256:40|308:32,2,80,0|0|0,0:0|0:0|0:0,0:0:0:0:
188,96,167384,1,0,0:0:0:0:
160,172,167659,1,0,0:0:0:0:
232,208,167934,6,0,P|275:199|301:172,1,80,8|0,0:0|0:0,0:0:0:0:
333,153,168347,2,0,L|386:166,1,40
362,83,168760,2,0,L|284:63,1,80,0|8,0:0|0:0,0:0:0:0:
136,84,169311,1,0,0:0:0:0:
206,46,169586,1,0,0:0:0:0:
88,148,169861,5,0,0:0:0:0:
68,184,169999,1,0,0:0:0:0:
72,224,170136,1,8,0:0:0:0:
162,301,170412,2,0,L|129:280,2,40
263,276,170962,1,0,0:0:0:0:
393,260,171237,6,0,L|360:239,3,40,8|0|0|0,0:0|0:0|0:0|0:0,0:0:0:0:
324,220,171788,2,0,P|282:195|221:204,1,80
184,291,172338,5,8,0:0:0:0:
372,154,172889,1,0,0:0:0:0:
139,154,173439,1,8,0:0:0:0:
327,291,173990,1,0,0:0:0:0:
256,252,174265,5,0,0:0:0:0:
256,252,174540,1,8,0:0:0:0:
256,192,174678,12,4,176742,0:0:0:0:
254,89,194357,5,0,0:0:0:0:
254,89,194907,2,0,P|320:88|404:128,2,160,2|8|0,0:0|0:0|0:0,0:0:0:0:
108,24,196558,2,0,P|88:132|148:184,1,160,10|0,0:0|0:0,0:0:0:0:
272,176,197659,2,0,P|260:256|184:324,1,160,8|2,0:0|0:0,0:0:0:0:
113,264,198485,5,0,0:0:0:0:
132,228,198623,1,0,0:0:0:0:
132,188,198760,1,8,0:0:0:0:
44,144,199035,2,0,B|72:92|128:92|128:92|176:44,2,160,0|0|0,0:0|0:0|0:0,0:0:0:0:
56,224,200411,1,0,0:0:0:0:
112,284,200687,1,0,0:0:0:0:
192,288,200962,6,0,B|264:288|296:220|296:220|352:232,1,160,8|2,0:0|0:0,0:0:0:0:
212,200,201788,1,0,0:0:0:0:
212,200,201925,1,0,0:0:0:0:
212,200,202063,1,8,0:0:0:0:
276,152,202338,2,0,B|307:128|307:128|319:68|319:68|367:32,1,160,0|0,0:0|0:0,0:0:0:0:
367,32,203164,1,10,0:0:0:0:
428,180,203714,6,0,P|424:224|388:264,1,80,0|0,0:0|0:0,0:0:0:0:
376,280,204127,1,0,0:0:0:0:
340,300,204265,1,8,0:0:0:0:
348,196,204540,2,0,P|304:184|252:192,2,80,0|2|0,0:0|0:0|0:0,0:0:0:0:
304,264,205366,5,8,0:0:0:0:
348,196,205641,1,0,0:0:0:0:
428,180,205916,1,0,0:0:0:0:
400,256,206191,2,0,B|416:300|416:300|464:352,2,80,0|10|0,0:0|0:0|0:0,0:0:0:0:
428,180,207017,1,0,0:0:0:0:
304,124,207292,5,0,0:0:0:0:
268,104,207430,1,0,0:0:0:0:
228,96,207567,2,0,B|188:88|188:88|140:108,2,80,8|0|2,0:0|0:0|0:0,0:0:0:0:
196,172,208393,1,0,0:0:0:0:
168,200,208531,1,0,0:0:0:0:
164,240,208668,2,0,B|148:280|148:280|156:328,2,80,8|0|0,0:0|0:0|0:0,0:0:0:0:
232,280,209494,6,0,B|272:260|272:260|312:216,1,80,0|2,0:0|0:0,0:0:0:0:
388,104,210320,1,0,0:0:0:0:
256,16,210870,1,2,0:0:0:0:
120,104,211421,1,0,0:0:0:0:
254,94,211971,6,0,B|248:56|248:56|256:16,1,80,2|0,0:0|0:0,0:0:0:0:
388,104,212522,2,0,B|426:97|426:97|466:105,1,80,0|0,0:0|0:0,0:0:0:0:
256,192,213072,2,0,B|262:230|262:230|254:270,1,80,2|0,0:0|0:0,0:0:0:0:
120,104,213623,2,0,B|81:110|81:110|41:102,2,80,2|0|2,0:0|0:0|0:0,0:0:0:0:
316,46,216375,5,12,0:0:0:0:
288,74,216512,1,0,0:0:0:0:
280,114,216650,1,0,0:0:0:0:
304,146,216788,1,0,0:0:0:0:
336,169,216925,2,0,P|388:181|425:209,1,80
435,227,217338,2,0,P|399:264|381:314,1,80
347,291,217751,2,0,L|310:273,2,40
224,240,218301,5,0,0:0:0:0:
188,224,218439,1,0,0:0:0:0:
156,200,218577,2,0,B|132:160|132:160|128:100,2,80,8|0|0,0:0|0:0|0:0,0:0:0:0:
80,220,219402,1,0,0:0:0:0:
56,252,219540,1,0,0:0:0:0:
64,292,219678,1,8,0:0:0:0:
88,324,219815,2,0,P|160:348|232:328,1,120,0|0,0:0|0:0,0:0:0:0:
308,288,220503,6,0,L|392:332,1,80,0|8,0:0|0:0,0:0:0:0:
388,244,221054,2,0,L|482:240,1,80,0|0,0:0|0:0,0:0:0:0:
432,168,221604,2,0,L|512:117,2,80,0|8|0,0:0|0:0|0:0,0:0:0:0:
352,152,222430,1,0,0:0:0:0:
288,100,222705,6,0,P|232:56|192:56,2,80,0|8|0,0:0|0:0|0:0,0:0:0:0:
216,136,223531,2,0,P|188:168|144:188,1,80,0|0,0:0|0:0,0:0:0:0:
136,108,224081,1,8,0:0:0:0:
100,124,224219,1,0,0:0:0:0:
76,156,224356,1,0,0:0:0:0:
68,196,224494,1,0,0:0:0:0:
32,216,224632,1,0,0:0:0:0:
76,284,224907,6,0,P|108:324|156:328,2,80,0|8|0,0:0|0:0|0:0,0:0:0:0:
148,252,225733,1,0,0:0:0:0:
220,284,226008,1,0,0:0:0:0:
260,292,226145,1,0,0:0:0:0:
336,264,226421,2,0,L|416:244,1,80,0|0,0:0|0:0,0:0:0:0:
332,156,227109,2,0,L|252:136,2,80,0|8|0,0:0|0:0|0:0,0:0:0:0:
364,81,227935,2,0,P|400:117|384:219,1,160,0|8,0:0|0:0,0:0:0:0:
293,168,228760,1,0,0:0:0:0:
386,217,229036,5,0,0:0:0:0:
288,264,229311,2,0,B|252:288|252:288|196:304,1,80,0|8,0:0|0:0,0:0:0:0:
220,220,229861,2,0,B|200:184|200:184|156:152,1,80,0|0,0:0|0:0,0:0:0:0:
144,236,230411,2,0,B|136:276|136:276|148:328,2,80,0|8|0,0:0|0:0|0:0,0:0:0:0:
168,161,231237,1,0,0:0:0:0:
312,88,231513,1,0,0:0:0:0:
312,88,231650,1,0,0:0:0:0:
312,88,231788,6,0,P|352:80|388:48,1,80,8|0,0:0|0:0,0:3:0:0:
444,128,232338,2,0,P|456:166|491:199,1,80,0|0,0:0|0:0,0:3:0:0:
464,276,232889,1,8,0:0:0:0:
448,312,233026,1,0,0:0:0:0:
408,312,233164,1,0,0:0:0:0:
368,304,233301,1,0,0:0:0:0:
332,320,233439,1,0,0:0:0:0:
260,224,233714,6,0,P|212:208|180:172,2,80,0|8|0,0:0|0:0|0:0,0:0:0:0:
260,136,234540,1,0,0:0:0:0:
261,49,234815,2,0,P|299:59|330:84,2,80,0|8|0,0:0|0:0|0:0,0:0:0:0:
224,36,235503,1,0,0:0:0:0:
184,40,235641,1,0,0:0:0:0:
80,100,235916,1,0,0:0:0:0:
132,208,236191,6,0,B|172:260|228:256|228:256|272:288,1,160,8|0,0:0|0:0,0:0:0:0:
386,296,237017,1,0,0:0:0:0:
384,176,237292,2,0,B|344:124|288:128|288:128|249:99,1,160,8|0,0:0|0:0,0:0:0:0:
126,60,238118,5,0,0:0:0:0:
203,165,238393,1,8,0:0:0:0:
203,35,238668,1,0,0:0:0:0:
126,140,238944,1,0,0:0:0:0:
250,100,239219,1,0,0:0:0:0:
126,60,239494,1,8,0:0:0:0:
126,60,240044,1,0,0:0:0:0:
134,268,240595,6,0,B|159:233|159:233|207:206,1,80,12|0,0:0|0:0,0:0:0:0:
213,291,241145,2,0,B|254:304|254:304|313:283,1,80,0|0,0:0|0:0,0:0:0:0:
341,230,241696,1,8,0:0:0:0:
306,210,241833,1,0,0:0:0:0:
267,220,241971,1,0,0:0:0:0:
240,190,242109,1,0,0:0:0:0:
232,150,242246,1,0,0:0:0:0:
251,72,242522,5,0,0:0:0:0:
214,57,242659,1,0,0:0:0:0:
174,65,242797,1,8,0:0:0:0:
141,87,242934,1,0,0:0:0:0:
117,119,243072,2,0,L|96:200,1,80,0|0,0:0|0:0,0:0:0:0:
154,252,243622,5,0,0:0:0:0:
129,283,243760,1,0,0:0:0:0:
197,323,244035,2,0,P|255:334|292:322,1,80,0|0,0:0|0:0,0:0:0:0:
312,317,244448,1,0,0:0:0:0:
389,337,244723,1,0,0:0:0:0:
389,337,244999,6,0,B|425:291|445:283|445:283|442:262|464:204,1,160,8|0,0:0|0:0,0:0:0:0:
475,101,245824,1,0,0:0:0:0:
380,144,246100,2,0,B|328:100|274:121|274:121|240:80,1,160,8|0,0:0|0:0,0:0:0:0:
308,216,246925,5,0,0:0:0:0:
268,224,247063,1,0,0:0:0:0:
230,215,247200,2,0,P|197:184|179:146,1,80,8|0,0:0|0:0,0:0:0:0:
248,108,247751,2,0,P|219:80|177:67,1,80,0|0,0:0|0:0,0:0:0:0:
104,96,248301,1,8,0:0:0:0:
80,128,248439,1,0,0:0:0:0:
64,208,248714,2,0,P|88:268|148:328,1,120,0|0,0:0|0:0,0:0:0:0:
221,299,249402,5,8,0:0:0:0:
148,157,249953,1,0,0:0:0:0:
290,84,250503,1,8,0:0:0:0:
363,226,251054,1,0,0:0:0:0:
256,192,251329,5,0,0:0:0:0:
256,192,251604,1,0,0:0:0:0:
256,192,251742,12,4,253806,0:0:0:0:
