osu file format v11

[General]
AudioFilename: Sakura Mau Saka wo, Kimi to Aruku.mp3
AudioLeadIn: 2000
PreviewTime: 53454
Countdown: 0
SampleSet: None
StackLeniency: 0.7
Mode: 0
LetterboxInBreaks: 1

[Editor]
DistanceSpacing: 1
BeatDivisor: 4
GridSize: 4

[Metadata]
Title:Sakura Mau Saka wo, Kimi to Aruku
TitleUnicode:Sakura Mau Saka wo, Kimi to Aruku
Artist:KOTOKO
ArtistUnicode:KOTOKO
Creator:Jupiter
Version:Easy
Source:Hatsukoi 1/1
Tags:tone work's Opening
BeatmapID:213981
BeatmapSetID:75803

[Difficulty]
HPDrainRate:1
CircleSize:3
OverallDifficulty:1
ApproachRate:3
SliderMultiplier:0.799999999999999
SliderTickRate:2

[Events]
//Background and Video events
Video,0,"mov.avi"
0,0,"BG1.jpg"
//Break Periods
//Storyboard Layer 0 (Background)
//Storyboard Layer 1 (Fail)
//Storyboard Layer 2 (Pass)
//Storyboard Layer 3 (Foreground)
//Storyboard Sound Samples
//Background Colour Transformations
3,100,163,162,255

[TimingPoints]
40,365.853658536585,4,1,1,80,1,0
2235,-100,4,2,1,85,0,0
7631,-100,4,2,2,85,0,0
7814,-100,4,2,1,85,0,0
14033,-100,4,2,2,85,0,0
14216,-100,4,2,1,85,0,0
14674,-100,4,2,1,20,0,0
15771,-100,4,2,1,85,0,0
51533,-100,4,2,2,85,0,0
51716,-100,4,2,1,85,0,0
52814,-100,4,2,2,85,0,0
52997,-100,4,2,1,85,0,0
54186,-100,4,2,1,85,0,1
55924,-100,4,2,2,85,0,1
56107,-100,4,2,1,85,0,1
58850,-100,4,2,2,85,0,1
59033,-100,4,2,1,85,0,1
61777,-100,4,2,2,85,0,1
61960,-100,4,2,1,85,0,1
62600,-100,4,2,1,85,0,0
62966,-100,4,2,1,85,0,1
63332,-100,4,2,1,85,0,0
63698,-100,4,2,1,85,0,1
64064,-100,4,2,1,85,0,0
64430,-100,4,2,1,85,0,1
65253,-100,4,2,2,85,0,1
65436,-100,4,2,1,85,0,1
65847,-100,4,2,1,85,0,0
65893,-100,4,2,1,85,0,1
70100,-100,4,2,1,85,0,0
70466,-100,4,2,1,85,0,1
70558,-100,4,2,1,85,0,0
70832,-100,4,2,1,85,0,1
70924,-100,4,2,1,85,0,0
71198,-100,4,2,1,85,0,1
71289,-100,4,2,1,85,0,0
71747,-100,4,2,1,85,0,1
75680,-100,4,2,2,85,0,1
75863,-100,4,2,1,85,0,1
76594,-100,4,2,2,85,0,1
76777,-100,4,2,1,85,0,1
77143,-100,4,2,2,85,0,1
77326,-100,4,2,1,85,0,1
77600,-100,4,2,1,85,0,0
82265,-100,4,2,2,85,0,0
82448,-100,4,2,1,85,0,0
86747,-100,4,2,1,85,0,1
86838,-100,4,2,1,85,0,0
87479,-100,4,2,1,85,0,1
87570,-100,4,2,1,85,0,0
88668,-100,4,2,2,85,0,0
88850,-100,4,2,1,85,0,0
89308,-100,4,2,1,40,0,1
91869,-100,4,2,1,85,0,0
92966,-100,4,1,1,80,0,1
93058,-100,4,1,1,80,0,0

[Colours]
Combo1 : 255,158,62
Combo2 : 128,255,128
Combo3 : 170,170,255
Combo4 : 255,128,255

[HitObjects]
60,320,40,2,0,P|188:312,1,120
248,212,1137,2,0,P|116:204,1,120
144,84,2235,6,0,P|60:96,2,79.9999999999999,2|8|6,0:0|0:0|0:0,0:0:0
224,68,3332,2,0,P|312:92|376:64,1,160,8|8,0:0|0:0,0:0:0
436,16,4430,1,2,0:0:0
472,88,4796,2,0,P|496:168|472:244,1,160,8|8,0:0|0:0,0:0:0
400,268,5893,5,2,0:0:0
328,232,6259,2,0,P|288:232|248:256|248:256|216:232|172:228,1,160,8|8,0:0|0:0,0:0:0
100,204,7357,2,0,P|80:248|92:288|92:288|120:320,2,120,2|2|12,0:0|0:0|0:0,0:0:0
160,148,8820,5,6,0:0:0
124,76,9186,2,0,P|200:56|292:72,1,160,8|8,0:0|0:0,0:0:0
332,128,10283,1,2,0:0:0
260,164,10649,2,0,P|248:236|272:320,1,160,8|8,0:0|0:0,0:0:0
344,352,11747,6,0,P|432:336,1,79.9999999999999,2|12,0:0|0:0,0:0:0
448,264,12479,2,0,P|432:228|424:172,1,79.9999999999999,2|12,0:0|0:0,0:0:0
440,108,13210,2,0,P|312:100,2,120,6|8|12,0:0|0:0|0:0,0:0:0
256,192,14674,12,8,15771,0:0:0
256,56,16137,5,6,0:0:0
176,52,16503,2,0,P|144:64|124:108|124:108|88:84|40:88,1,160,8|8,0:0|0:0,0:0:0
12,160,17600,1,2,0:0:0
48,232,17966,2,0,P|128:204|200:228,1,160,8|8,0:0|0:0,0:0:0
256,280,19064,5,6,0:0:0
308,340,19430,2,0,P|377:361|457:333,1,160,8|8,0:0|0:0,0:0:0
480,256,20527,1,2,0:0:0
416,208,20893,2,0,P|384:148|448:116|408:48,1,160,8|8,0:0|0:0,0:0:0
332,36,21991,5,6,0:0:0
252,52,22357,2,0,P|216:60|192:104|192:104|168:68|120:64,1,160,8|8,0:0|0:0,0:0:0
92,136,23454,2,0,P|116:184|108:228|108:228|88:248,2,120,2|8|8,0:0|0:0|0:0,0:0:0
44,72,24918,5,10,0:0:0
124,60,25283,2,0,P|208:72|288:56,1,160,8|8,0:0|0:0,0:0:0
356,88,26381,1,2,0:0:0
292,136,26747,2,0,P|312:212|292:292,1,160,8|12,0:0|0:0,0:0:0
220,324,27844,5,6,0:0:0
148,292,28210,2,0,P|128:216|148:136,1,160,8|8,0:0|0:0,0:0:0
216,96,29308,2,0,P|252:92|280:104|280:104|304:84|344:80,2,120,2|8|8,0:0|0:0|0:0,0:0:0
152,48,30771,5,6,0:0:0
88,92,31137,2,0,P|68:168|96:248,1,160,8|8,0:0|0:0,0:0:0
164,276,32235,1,2,0:0:0
228,228,32600,2,0,P|300:256|388:240,1,160,8|8,0:0|0:0,0:0:0
440,296,33698,5,2,0:0:0
460,220,34064,2,0,P|480:156|424:136|456:60,2,160,8|8|8,0:0|0:0|0:0,0:0:0
440,296,35893,1,2,0:0:0
364,320,36259,2,0,P|276:320,1,79.9999999999999,8|6,0:0|0:0,0:0:0
216,280,36991,6,0,P|176:308|160:336|160:336|124:304|80:304,1,160,8|8,0:0|0:0,0:0:0
48,312,37905,1,8,0:0:0
60,232,38271,1,8,0:0:0
72,152,38637,1,8,0:0:0
84,72,39003,2,0,P|136:64,1,40,8|12,0:0|0:0,0:0:0
200,36,39552,6,0,P|264:84|344:80,1,160,6|0,0:0|0:0,0:0:0
400,28,40649,1,8,0:0:0
468,72,41015,2,0,P|456:128|480:196,2,120,2|2|8,0:0|0:0|0:0,0:0:0
400,28,42479,6,0,P|352:60|352:60|312:32|248:40,1,160,2|0,0:0|0:0,0:0:0
188,84,43576,1,8,0:0:0
240,144,43942,2,0,P|272:180|276:228|276:228|248:260,2,120,2|2|8,0:0|0:0|0:0,0:0:0
160,156,45405,6,0,P|128:168|104:208|104:208|80:176|28:160,1,160,6|0,0:0|0:0,0:0:0
0,236,46503,1,8,0:0:0
52,296,46869,2,0,P|112:312|168:284,2,120,2|2|8,0:0|0:0|0:0,0:0:0
80,220,48332,6,0,P|76:136,3,79.9999999999999,12|8|8|8,0:0|0:0|0:0|0:0,0:0:0
156,124,49796,2,0,P|152:40,3,79.9999999999999,8|8|8|8,0:0|0:0|0:0|0:0,0:0:0
232,60,51259,6,0,P|292:68|360:56,1,120,6|8,0:0|0:0,0:0:0
424,28,52174,1,8,0:0:0
472,92,52539,2,0,P|456:144|468:212,1,120,12|8,0:0|0:0,0:0:0
424,276,53454,6,0,P|504:316,2,79.9999999999999,2|8|6,0:0|0:0|0:0,0:0:0
356,232,54552,2,0,P|300:272|204:260,1,160,8|8,0:0|0:0,0:0:0
160,208,55649,2,0,P|128:204|104:188|104:188|80:204|48:208,2,120,2|0|8,0:0|0:0|0:0,0:0:0
240,220,57113,5,2,0:0:0
316,192,57479,2,0,P|352:116|308:52,1,160,8|8,0:0|0:0,0:0:0
240,80,58576,2,0,P|120:76,2,120,2|0|8,0:0|0:0|0:0,0:0:0
312,44,60039,5,6,0:0:0
380,88,60405,2,0,P|408:156|384:248,1,160,8|8,0:0|0:0,0:0:0
320,276,61503,2,0,P|280:278|246:257|246:257|199:276,2,120,2|0|8,0:0|0:0|0:0,0:0:0
388,320,62966,6,0,P|420:240,1,79.9999999999999,6|8,0:0|0:0,0:0:0
352,200,63698,6,0,P|340:116,1,79.9999999999999,6|8,0:0|0:0,0:0:0
396,60,64430,6,0,P|448:44|488:56|488:56|504:88,2,120,6|8|8,0:0|0:0|0:0,0:0:0
324,100,65893,5,6,0:0:0
248,72,66259,2,0,P|212:84|192:124|192:124|160:88|116:80,1,160,8|8,0:0|0:0,0:0:0
44,92,67357,1,2,0:0:0
12,164,67722,2,0,P|16:256|80:284,1,160,8|8,0:0|0:0,0:0:0
148,284,68820,5,0,0:0:0
212,236,69186,2,0,P|292:224|372:236,1,160,8|8,0:0|0:0,0:0:0
408,244,70100,1,8,0:0:0
484,216,70466,6,0,P|488:276|488:308,2,79.9999999999999,8|8|8,0:0|0:0|0:0,0:0:0
424,164,71564,2,0,P|424:116,1,40,8|6,0:0|0:0,0:0:0
376,60,72113,6,0,P|328:72|312:108|312:108|292:72|244:64,1,160,8|8,0:0|0:0,0:0:0
212,136,73210,1,6,0:0:0
136,112,73576,2,0,P|88:160|104:224|104:224|136:248,1,160,8|8,0:0|0:0,0:0:0
216,240,74674,6,0,P|216:332,1,79.9999999999999,6|8,0:0|0:0,0:0:0
292,340,75405,2,0,P|364:332|416:336,1,120,2|8,0:0|0:0,0:0:0
460,224,76503,2,0,P|332:216,2,120,2|0|6,0:0|0:0|0:0,0:0:0
476,144,77966,6,0,P|512:84|448:28,1,160,8|8,0:0|0:0,0:0:0
384,60,79064,1,2,0:0:0
304,44,79430,2,0,P|264:52|240:84|240:84|212:52|160:52,1,160,8|8,0:0|0:0,0:0:0
144,128,80527,5,2,0:0:0
72,96,80893,2,0,P|48:168|80:248,1,160,8|8,0:0|0:0,0:0:0
156,252,81991,2,0,P|180:296|172:340|172:340|136:360,2,120,2|2|12,0:0|0:0|0:0,0:0:0
192,180,83454,5,6,0:0:0
248,236,83820,2,0,P|328:264|400:236,1,160,8|8,0:0|0:0,0:0:0
424,164,84918,1,2,0:0:0
396,88,85283,2,0,P|316:60|244:88,1,160,8|8,0:0|0:0,0:0:0
220,160,86381,6,0,P|124:152,1,79.9999999999999,2|12,0:0|0:0,0:0:0
140,72,87113,2,0,P|52:80,1,79.9999999999999,2|12,0:0|0:0,0:0:0
20,148,87844,2,0,P|0:196|16:240|16:240|44:268,2,120,2|8|12,0:0|0:0|0:0,0:0:0
256,192,89308,12,2,91869,0:0:0
256,192,92966,5,0,0:0:0
