osu file format v8

[General]
AudioFilename: Re-Sublimity.mp3
AudioLeadIn: 3000
PreviewTime: 53934
Countdown: 0
SampleSet: Soft
StackLeniency: 0.8
Mode: 0
LetterboxInBreaks: 1

[Editor]
DistanceSpacing: 1
BeatDivisor: 4
GridSize: 8

[Metadata]
Title:Re-Sublimity (TV Size)
Artist:KOTOKO
Creator:NatsumeRin
Version:Normal
Source:Kannazuki no Miko
Tags:yuri samipale

[Difficulty]
HPDrainRate:4
CircleSize:4
OverallDifficulty:4
ApproachRate:5
SliderMultiplier:1.4
SliderTickRate:0.5

[Events]
//Background and Video events
0,0,"BG.jpg"
Video,0,"OP.avi"
//Break Periods
//Storyboard Layer 0 (Background)
//Storyboard Layer 1 (Fail)
//Storyboard Layer 2 (Pass)
//Storyboard Layer 3 (Foreground)
//Storyboard Sound Samples
//Background Colour Transformations
3,100,163,162,255

[TimingPoints]
712,444.444444444444,4,2,1,75,1,0
9378,-100,4,1,1,80,0,0
12934,-100,4,1,1,70,0,0
13267,-100,4,2,1,80,0,0
13489,-100,4,1,1,70,0,0
14600,-100,4,2,1,80,0,0
14823,-100,4,1,1,80,0,0
16489,-100,4,1,1,70,0,0
18267,-100,4,1,0,90,0,0
21711,-100,4,2,1,80,0,0
22045,-100,4,2,1,70,0,0
22489,-100,4,2,1,60,0,0
22934,-100,4,2,1,50,0,0
23378,-100,4,2,1,40,0,0
23711,-100,4,1,1,80,0,0
24045,-100,4,2,1,55,0,0
24489,-100,4,1,1,80,0,0
24934,-100,4,2,1,80,0,0
25378,-100,4,1,1,85,0,0
38156,-100,4,2,1,85,0,0
38378,-100,4,1,1,85,0,0
52045,-100,4,1,1,95,0,0
53045,-100,4,1,1,75,0,0
53378,-100,4,1,1,65,0,0
53823,-100,4,1,1,90,0,0
54045,-100,4,1,1,90,0,1
65823,-100,4,1,1,75,0,1
66267,-100,4,1,1,90,0,1
68156,-100,4,1,1,90,0,0
68267,-100,4,1,1,90,0,1
75267,-100,4,1,1,75,0,1
76156,-100,4,1,1,90,0,1
79489,-100,4,1,1,70,0,1
82489,-100,4,1,1,70,0,0

[Colours]
Combo1 : 70,242,13
Combo2 : 11,146,244
Combo3 : 236,247,136

[HitObjects]
65,283,712,2,0,B|229:283,1,140,2|0
97,193,1600,2,0,B|268:193,1,140,2|0
125,107,2489,2,0,B|296:107,1,140,2|0
335,107,3156,1,2
445,192,3600,1,2
401,325,4045,1,2
331,325,4267,6,0,B|167:325,1,140,2|0
299,235,5155,2,0,B|128:235,1,140,2|0
271,149,6044,2,0,B|100:149,1,140,2|0
60,149,6711,1,2
154,45,7156,2,0,B|72:45,2,70,0|2|0
224,44,7823,5,2
310,153,8267,1,0
397,44,8711,1,2
310,153,9156,1,0
310,153,9600,6,0,B|310:304,1,140,4|8
178,341,10489,2,0,B|104:341,3,70,0|0|8|0
37,341,11378,6,0,B|4:270|42:190,1,140,0|8
107,85,12267,2,0,B|163:48|263:56,1,140,0|2
377,88,13156,2,0,B|445:109,2,70,2|0|2
425,219,14045,2,0,B|395:290|305:295,1,140,0|2
245,294,14711,1,0
174,290,14934,5,0
68,198,15378,1,8
201,155,15823,1,0
92,66,16267,1,2
92,66,16711,2,0,B|144:12|235:24,1,140,2|0
320,120,17600,2,0,B|375:160|460:156,1,140,2|0
366,267,18489,6,2,B|207:300,1,140
160,312,19156,1,2
86,192,19600,1,0
156,192,19823,2,2,B|315:192,1,140
403,103,20711,2,2,B|325:76,1,70
197,98,21378,2,2,B|114:68,1,70,0|2
65,48,21823,5,2
40,185,22267,1,2
113,303,22711,1,2
248,340,23156,1,2
381,299,23600,1,2
432,251,23823,6,0,B|457:215|458:148|434:112,1,140,4|0
437,116,24711,1,0
437,116,25156,1,2
308,60,25600,6,0,B|252:114|172:100,1,140,0|2
46,57,26489,1,0
12,193,26934,1,2
58,245,27156,1,0
114,286,27378,2,0,B|165:323|252:316,1,140,0|2
385,291,28267,1,0
467,178,28711,1,2
439,113,28934,6,0,B|388:64|296:72,1,140
172,102,29823,1,0
271,199,30267,2,0,B|292:274,2,70,2|0|2
251,131,30934,1,2
251,131,31378,1,2
251,131,31823,5,0
123,73,32267,1,2
45,189,32711,2,0,B|16:263|48:332,1,140,0|2
167,257,33600,2,0,B|336:257,1,140,0|2
425,181,34489,1,0
359,57,34934,1,2
289,57,35156,1,0
219,58,35378,1,0
258,192,35823,1,0
198,227,36045,6,0,B|135:255|57:244,1,140,2|0
39,105,36934,1,0
166,161,37378,1,0
116,291,37823,1,0
175,327,38045,6,0,B|210:349|249:346,1,70,4|0
311,341,38489,1,4
423,257,38934,2,0,B|458:194,1,70,2|0
402,152,39378,2,0,B|442:87,1,70,2|0
388,43,39823,6,0,B|316:24|220:46,1,140
182,61,40489,1,2
75,151,40934,1,2
139,176,41156,1,0
91,307,41600,1,0
156,332,41823,2,0,B|218:353|303:338,1,140
362,324,42489,1,2
435,204,42934,1,0
326,115,43378,6,0,B|287:156|308:208,2,70,0|0|2
201,51,44267,1,2
134,72,44489,1,0
105,209,44934,1,0
156,256,45156,2,0,B|184:281|233:277,1,70,2|0
341,206,45823,2,0,B|387:208|423:237,1,70
414,86,46489,1,0
378,146,46711,1,2
342,206,46934,6,0,B|296:259|216:260,1,140,0|2
301,148,47823,2,0,B|261:206|156:187,1,140,0|2
261,88,48711,2,0,B|239:136|159:134|139:83,1,140,0|2
261,16,49600,2,0,B|310:18|352:71|316:140,1,140,0|2
306,185,50267,1,0
269,244,50489,5,0
132,213,50934,1,2
227,110,51378,1,0
269,244,51823,1,0
166,148,52267,5,8
268,171,52600,1,8
197,248,52934,1,8
213,180,53156,2,0,B|243:40,1,140,0|4
375,87,54045,6,0,B|426:144|397:228,1,140,0|2
312,327,54934,2,0,B|245:356|165:347,1,140,0|2
44,297,55823,2,0,B|0:239|15:163,1,140,0|2
113,65,56711,2,0,B|180:36|260:45,1,140,0|2
319,53,57378,1,0
387,69,57600,6,0,B|466:90,1,70,0|2
335,161,58267,1,0
398,285,58711,2,0,B|312:259,2,70,0|2|0
465,304,59378,1,0
431,167,59823,1,2
330,264,60267,1,0
200,315,60711,1,2
200,315,60934,1,0
200,315,61156,6,0,B|123:334|59:296,1,140,2|0
143,183,62045,1,0
124,115,62267,1,2
153,51,62489,1,2
289,17,62934,2,0,B|367:19|416:71,1,140
451,204,63823,1,2
376,322,64267,5,2
311,348,64489,1,0
204,256,64934,1,2
140,226,65156,1,2
85,97,65600,2,0,B|156:72|249:105,1,140,0|4
344,27,66489,5,2
409,151,66934,1,0
475,274,67378,2,0,B|433:310|351:304,2,105,2|0|0
439,213,68267,6,0,B|410:246|334:240|284:202,1,140,4|2
365,89,69156,2,0,B|338:65|262:59|233:92,1,140,0|2
172,217,70045,2,0,B|169:265|125:311|67:311,1,140,0|2
115,173,70934,2,0,B|118:125|162:79|220:79,1,140,0|2
275,76,71600,1,0
344,82,71823,6,0,B|396:82|445:123|440:186,1,140,2|0
434,236,72489,1,0
307,295,72934,2,0,B|300:386,2,70,0|2|0
311,225,73600,2,0,B|309:178|252:143|196:160,1,140,2|0
259,287,74489,2,0,B|239:319|185:324|156:293,2,105,2|2|0
205,244,75378,6,0,B|226:213|278:210|309:237,2,105,2|2|0
259,287,76267,6,0,B|241:138,1,140,0|2
232,78,76934,1,0
99,33,77378,1,0
68,169,77823,2,0,B|79:259,1,70,0|2
86,307,78267,1,0
133,357,78489,1,0
200,337,78711,2,0,B|266:315|352:340,1,140,2|2
405,355,79378,1,0
256,192,79600,12,4,82489
