osu file format v7

[General]
AudioFilename: HS_KOTOKO_-_ReSublimity_-Kannaduki_no_Mikou-_TV_Size_OST.mp3
AudioLeadIn: 1974
PreviewTime: 40779
Countdown: 0
SampleSet: Soft
StackLeniency: 0.4
Mode: 0
LetterboxInBreaks: 1

[Editor]
DistanceSpacing: 1.79999995231628
BeatDivisor: 4
GridSize: 8

[Metadata]
Title:Re-Sublimity (TV Size)
Artist:KOTOKO
Creator:Nakata Yuji
Version:Naruti Re-Styled
Source:Kannazuki no Miko
Tags:opening naruti

[Difficulty]
HPDrainRate:5
CircleSize:4
OverallDifficulty:8
SliderMultiplier:1.1
SliderTickRate:1

[Events]
//Background and Video events
Video,-1100,"video.mp4.AVI"
0,0,"kanomi04kz1.jpg"
//Break Periods
//Storyboard Layer 0 (Background)
//Storyboard Layer 1 (Fail)
//Storyboard Layer 2 (Pass)
//Storyboard Layer 3 (Foreground)
//Storyboard Sound Samples
//Background Colour Transformations
3,100,163,162,255

[TimingPoints]
2,444.444444444444,4,2,0,35,1,0
4345,-100,4,2,0,61,0,0
7953,-100,4,2,0,71,0,0
8953,-100,4,1,0,40,0,0
23884,-200,4,1,0,49,0,0
24838,-100,4,1,0,51,0,0
35281,-200,4,1,0,51,0,0
36392,-100,4,1,0,49,0,0
36392,-100,4,1,0,49,0,0
49722,-100,4,1,0,62,0,0
50167,-100,4,1,0,70,0,0
50611,-100,4,1,0,80,0,0
51055,-100,4,1,0,91,0,0
51500,-100,4,1,0,100,0,0
53349,-100,4,1,0,100,0,1
57387,-100,4,1,0,79,0,0
65571,-100,4,1,0,69,0,1
72015,-100,4,1,0,69,0,0
72793,-100,4,1,0,100,0,0
75238,-200,4,1,0,61,0,0
76133,-100,4,1,0,62,0,0
78799,-100,4,2,0,100,0,0
81801,-100,4,2,0,49,0,1
85271,-200,4,1,0,61,0,0
86048,-200,4,2,0,51,0,0
86937,-200,4,2,0,31,0,0
87826,-200,4,2,0,12,0,0

[Colours]
Combo1 : 128,128,255
Combo2 : 255,128,64
Combo3 : 255,0,96
Combo4 : 120,0,240
Combo5 : 128,255,0

[HitObjects]
448,112,2,2,0,B|384:112,2,55
352,112,668,1,0
352,112,890,2,0,B|288:112,2,55
256,112,1557,1,0
160,112,1779,2,0,B|128:88,2,27.5
160,112,2224,2,0,B|136:144,2,27.5,0|0|0
160,112,2668,1,0
192,208,2890,2,0,B|215:250|248:221,1,55
320,176,3335,1,0
320,176,3557,1,0
320,176,3779,1,0
320,272,4002,2,0,B|320:312,2,27.5
320,176,4446,6,2,B|320:136|272:144,1,55
184,168,4890,2,0,B|144:120,1,55,0|0
424,168,5557,6,0,B|424:128|480:120,1,55
424,168,6001,1,0
472,256,6224,2,0,B|488:288,6,27.5
376,248,7113,2,0,B|336:272|312:256,1,55
256,192,7557,2,0,B|224:168|184:184,1,55
256,192,8001,5,2
256,192,8113,12,4,8891
384,112,9113,6,0,B|344:120,2,27.5,8|0|8
384,208,9557,6,0,B|344:216,2,27.5,8|0|8
296,160,10001,5,4
200,152,10224,1,8
152,152,10335,1,0
104,152,10446,1,10
88,248,10668,5,4
184,248,10890,1,0
232,248,11001,1,0
280,248,11113,1,0
344,168,11335,1,0
296,168,11446,1,0
248,168,11557,1,0
152,160,11779,1,0
152,160,12001,2,2,B|152:96|136:96,1,55
240,120,12446,5,0
368,136,12668,1,0
368,136,12890,2,2,B|368:96|400:80,1,55
368,136,13335,2,2,B|368:96|328:80,1,55
256,136,13779,1,0
160,128,14001,2,2,B|128:112|104:128,1,55
248,208,14446,5,8
296,208,14557,1,0
344,208,14668,1,8
464,208,14890,1,0
440,104,15113,6,2,B|416:88|368:88,1,55
288,80,15557,2,2,B|240:88|232:120,1,55
72,208,16224,2,2,B|24:248,2,55
136,136,16890,2,2,B|192:88,2,55
336,144,17779,5,4
160,56,18224,1,8
112,72,18335,1,0
80,112,18446,1,8
40,200,18668,1,0
120,256,18890,1,0
208,296,19113,6,2,B|240:336|264:328|304:328|320:296,1,110,2|10
336,280,19668,1,2
360,240,19779,1,10
384,144,20001,1,8
376,96,20113,1,0
336,72,20224,1,8
248,120,20446,1,8
280,152,20557,1,0
328,160,20668,1,8
416,200,20890,6,2,B|448:208|480:232|480:264|464:296,1,110,2|2
416,200,21557,1,8
368,184,21668,1,0
320,176,21779,1,8
224,168,22001,6,2,B|160:168,1,55
224,168,22446,2,2,B|168:208,1,55
256,192,22779,12,4,23556
72,64,24001,6,0,B|120:96,1,55
288,200,24890,5,0
288,200,25001,1,0
352,272,25224,1,0
424,200,25446,1,0
352,128,25668,1,0
352,128,25779,1,0
288,200,26001,2,0,B|344:224,2,55
216,272,26668,5,0
216,272,26779,1,0
128,232,27001,2,0,B|128:168,1,55
128,80,27446,1,0
128,80,27557,1,0
224,80,27779,2,0,B|272:80,2,27.5
256,192,28113,12,4,28891
424,112,29113,5,0
424,160,29224,1,0
424,208,29335,1,0
336,280,29557,5,0
336,232,29668,1,0
336,184,29779,1,0
256,128,30001,1,0
256,224,30224,1,4
256,320,30446,1,0
256,320,30557,1,4
112,192,30890,5,12
112,192,31001,1,8
112,192,31113,1,8
376,192,31335,1,8
376,192,31446,1,8
376,192,31557,1,10
208,88,32001,5,4
208,88,32113,1,0
112,88,32335,1,0
208,88,32557,1,0
304,88,32779,1,0
304,88,32890,1,0
304,184,33113,2,0,B|336:208|360:176,2,55
208,192,33779,6,0,B|160:192,1,27.5,0|0
80,192,34113,1,0
80,192,34335,1,4
80,288,34557,1,0
80,288,34668,1,0
176,288,34890,1,0
272,288,35113,1,0
272,288,35335,2,0,B|280:336|312:344|344:312|344:296,1,110,0|0
344,296,36335,1,0
256,192,36446,12,4,37335
64,264,38224,6,0,B|64:344,2,55
160,264,38890,1,0
208,264,39001,1,0
256,264,39113,1,0
352,264,39335,1,0
448,264,39557,1,0
448,264,39668,1,0
448,152,39890,1,0
296,152,40224,5,0
224,88,40446,1,4
224,88,40557,1,4
224,88,40668,1,0
152,152,40890,1,0
120,272,41113,5,0
368,272,41446,1,0
480,272,41668,5,0
480,272,41779,1,0
368,272,42001,2,0,B|368:216,2,55
256,272,42668,1,0
256,272,42890,1,0
144,272,43113,1,0
144,216,43224,2,0,B|144:160,1,55
280,88,43779,5,4
280,184,44001,1,4
280,136,44113,1,4
280,88,44224,1,0
184,88,44446,1,4
184,88,44668,6,0,B|144:136|192:200,1,110,0|0
224,280,45335,2,0,B|264:344,2,55
176,192,46001,1,0
200,152,46113,1,0
240,128,46224,1,0
336,128,46446,1,0
432,128,46668,1,0
432,128,46779,1,0
336,128,47001,1,0
88,128,47557,5,0
88,128,47668,1,0
184,240,48001,1,0
184,192,48113,1,0
184,144,48224,1,0
264,88,48446,1,0
264,136,48557,1,0
264,232,48779,1,0
120,256,49113,5,8
160,288,49224,1,0
208,312,49335,1,8
256,320,49446,1,0
304,320,49557,1,12
472,192,49779,5,4
256,344,50224,5,4
40,192,50668,5,4
256,32,51113,5,4
256,192,51557,5,0
256,192,51890,5,0
256,192,52224,1,0
256,192,52446,1,0
352,192,52668,5,0
328,144,52779,1,0
296,112,52890,1,0
256,88,53001,1,0
216,112,53113,1,0
184,144,53224,1,0
160,192,53335,1,4
256,192,53557,5,0
256,192,53779,1,0
256,288,54001,1,0
256,288,54113,1,0
256,192,54446,5,0
256,192,54668,1,0
256,96,54890,1,0
256,96,55001,1,0
256,192,55335,5,0
256,192,55557,1,0
160,192,55779,1,0
160,192,55890,1,0
264,296,56224,5,0
344,240,56446,1,0
256,192,56668,1,0
256,192,56779,1,0
336,128,57001,1,0
336,128,57113,1,0
344,80,58001,5,0
248,80,58224,1,0
152,80,58446,1,0
152,80,58557,2,0,B|152:224,1,137.5
248,216,59335,1,0
248,216,59446,1,0
248,216,59557,1,0
400,216,59890,1,0
400,64,60224,1,0
304,64,60446,6,0,B|184:64,1,110
96,64,61113,1,0
96,112,61224,1,0
96,160,61335,1,0
184,120,61557,1,0
184,208,61779,1,0
272,176,62001,1,0
272,224,62113,1,0
272,272,62224,1,4
448,96,62890,5,0
448,144,63001,1,0
448,192,63113,1,0
448,328,63446,1,0
296,328,63779,1,0
296,232,64001,1,0
200,176,64224,1,0
200,224,64335,1,0
200,272,64446,1,0
256,192,64557,12,4,65335
432,328,65557,5,0
384,336,65668,1,0
336,336,65779,2,0,B|280:376|216:328,1,110
48,216,66668,5,4
256,40,67002,1,4
464,216,67335,1,4
272,264,67779,5,0
272,264,68002,1,0
176,232,68224,1,0
216,192,68335,1,0
272,264,68668,5,0
272,264,68890,1,0
344,192,69113,1,0
368,240,69224,1,0
272,264,69557,5,0
272,264,69779,1,0
352,320,70002,1,0
312,344,70113,1,0
160,352,70446,5,0
152,256,70668,1,0
144,160,70890,1,0
144,160,71002,2,0,B|136:56|216:32|272:48|272:48,1,192.5,0|0
464,48,72224,5,0
392,120,72446,1,0
464,184,72668,1,0
256,344,72890,5,4
40,192,73335,5,4
472,192,73779,5,4
472,192,74113,1,4
472,192,74446,1,4
104,80,75335,5,0
200,80,75557,2,0,B|272:80,1,55
352,80,76224,1,0
360,280,76668,1,0
456,280,76890,1,0
360,280,77113,5,0
264,280,77335,1,0
216,280,77446,1,0
168,280,77557,1,0
120,192,77779,1,0
168,192,77890,1,0
216,192,78002,1,0
312,184,78224,1,0
376,112,78446,1,0
328,112,78557,1,0
280,112,78668,1,0
256,192,78779,12,2,81778
256,192,82002,5,4
320,112,82224,5,8
320,160,82335,1,0
320,208,82446,1,8
392,272,82668,5,8
344,296,82779,1,0
296,296,82890,1,8
248,288,83002,1,0
208,264,83113,1,8
138,194,83335,6,0,B|103:223,2,27.5,8|0|8
207,124,83779,6,0,B|240:159,2,27.5,8|0|8
137,53,84224,6,0,B|96:80,2,27.5,8|0|8
256,56,84668,5,8
256,72,84779,1,0
256,88,84890,1,8
256,192,85113,1,4
256,192,85335,6,0,B|290:158|307:163,1,55
256,192,86224,6,2,B|290:225|285:242,1,55
256,192,87113,6,2,B|223:225|206:220,1,55
256,192,88002,6,2,B|223:158|228:141,1,55
