osu file format v6

[General]
AudioFilename: HS_KOTOKO_-_ReSublimity_-Kannaduki_no_Mikou-_TV_Size_OST.mp3
AudioLeadIn: 1026
PreviewTime: 40779
Countdown: 0
SampleSet: Soft
StackLeniency: 0.9
Mode: 0
LetterboxInBreaks: 1

[Editor]
Bookmarks: 62433
DistanceSpacing: 1.10000002384186
BeatDivisor: 4
GridSize: 8

[Metadata]
Title:Re-Sublimity (TV Size)
Artist:KOTOKO
Creator:Nakata Yuji
Version:Hard
Source:Kannazuki no Miko
Tags:opening naruti

[Difficulty]
HPDrainRate:7
CircleSize:4
OverallDifficulty:7
SliderMultiplier:1.1
SliderTickRate:2

[Events]
//Background and Video events
Video,-1100,"video.mp4.AVI"
0,0,"kanomi04kz1.jpg"
//Break Periods
2,8868,9768
2,17757,23101
//Storyboard Layer 0 (Background)
//Storyboard Layer 1 (Fail)
//Storyboard Layer 2 (Pass)
//Storyboard Layer 3 (Foreground)
//Storyboard Sound Samples
//Background Colour Transformations
3,100,0,0,0

[TimingPoints]
2,444.444444444444,4,2,0,81,1,0
35270,-200,4,2,0,81,0,0
36270,-100,4,2,0,81,0,0
40103,-100,4,2,0,81,0,1
40658,-100,4,2,0,81,0,0
43657,-100,4,2,0,81,0,1
44324,-100,4,2,0,81,0,0
48989,-100,4,2,0,81,0,0
50168,-100,4,2,0,81,0,1
52545,-50,4,2,0,81,0,0
53433,-100,4,2,0,81,0,1
57347,-100,4,2,0,81,0,0
67653,-100,4,2,0,81,0,1
71874,-100,4,2,0,81,0,0
72779,-100,4,2,0,81,0,1
74840,-100,4,2,0,81,0,0

[Colours]
Combo1 : 128,255,0
Combo2 : 251,106,45
Combo3 : 255,0,96
Combo4 : 120,0,240

[HitObjects]
256,192,4446,5,2
328,256,4668,1,0
400,192,4890,1,0
328,128,5113,1,0
128,120,5557,2,0,B|56:120,1,55
72,216,6002,1,0
144,280,6224,2,0,B|144:328,6,27.5
256,192,8002,5,2
168,112,8446,2,0,C|200:56,1,55
64,40,10668,5,0
48,64,10779,1,0
56,96,10890,2,2,B|64:160|128:160,1,82.5
103,157,11335,2,2,B|143:181|119:213,1,55,2|2
192,304,12001,1,0
232,264,12224,1,0
208,144,12668,6,0,B|195:113|162:108,3,55
312,64,13668,1,0
400,64,14002,2,2,B|437:63,4,27.5
384,112,14668,6,0,B|352:128|320:104,1,55
304,112,15002,1,0
272,112,15113,1,0
224,224,15557,1,2
248,280,15779,1,0
360,240,16224,5,0
328,192,16446,2,0,B|280:200|304:152,1,55
304,104,16890,2,2,B|272:88,1,27.5
216,88,17224,1,0
152,88,17446,1,0
152,88,17557,1,6
48,296,24001,6,0,B|27:243|72:192,1,110,0|0
80,72,24890,2,0,B|88:80|112:64,1,27.5
168,56,25224,1,0
232,56,25446,1,0
296,56,25668,2,0,B|320:88,1,27.5
288,136,26001,2,0,B|280:192,2,55
336,96,26668,6,0,B|368:96,1,27.5
424,88,27001,2,0,B|448:144,1,55
456,200,27446,1,0
456,200,27557,1,0
400,208,27779,1,0
344,216,28001,2,4,B|312:240|288:216,1,55
64,304,29113,6,0,B|104:304,1,27.5
184,320,29557,1,0
248,320,29779,1,0
304,288,30001,1,0
328,232,30224,1,4
336,144,30557,1,4
312,56,30890,1,4
312,56,31113,1,8
248,56,31335,2,10,B|248:13,2,27.5
136,104,32001,6,4,B|144:144,1,27.5,4|0
200,128,32335,2,0,B|232:160|264:112,1,55
312,128,32779,2,0,B|312:160,1,27.5
312,216,33113,2,0,B|280:240|256:208,2,55
368,224,33779,6,0,B|368:264,1,27.5,0|0
352,312,34113,1,0
296,336,34335,1,4
288,280,34557,2,0,B|256:280,1,27.5
200,288,34890,1,0
152,248,35113,1,0
152,248,35335,2,0,B|160:200|192:208|224:168|216:144,1,110,0|0
215,161,36335,1,4
256,208,36668,12,2,37779
448,312,38224,5,0
408,272,38446,1,0
448,232,38668,1,0
408,192,38890,1,0
448,152,39113,1,0
408,112,39335,1,0
360,80,39557,1,0
360,80,39668,1,0
312,112,39890,1,0
312,200,40224,5,4
312,200,40446,2,4,B|352:200,3,27.5
240,296,41113,6,0,B|144:296,1,82.5,0|0
96,296,41668,5,0
96,296,41779,1,0
96,232,42001,2,0,B|120:200|88:176,2,55
160,232,42668,1,0
208,192,42890,1,0
176,136,43113,1,0
176,136,43224,2,0,B|128:88,1,55,0|0
280,112,43779,5,4
280,112,44001,2,4,B|312:112,3,27.5
232,224,44668,6,0,B|280:264|344:216,1,110
392,200,45335,2,0,B|408:232|384:272,2,55
368,144,46001,1,0
312,160,46224,1,0
256,176,46446,1,0
200,160,46668,2,0,B|160:136,1,27.5
136,104,47001,1,0
64,240,47557,6,0,B|88:272,1,27.5
160,312,48001,1,0
224,320,48224,1,0
280,296,48446,2,0,B|312:296,1,27.5
360,264,48779,1,0
416,192,49113,2,0,C|480:176,2,55
352,192,49779,5,4
256,272,50224,1,4
160,192,50668,1,4
256,112,51113,1,4
256,192,51557,1,0
256,192,51890,1,0
256,192,52224,1,0
256,192,52446,1,0
256,192,52668,2,8,B|312:192,6,55
312,160,53557,5,0
352,120,53779,1,0
296,104,54001,1,0
296,104,54113,1,0
208,88,54446,5,0
152,112,54668,1,0
200,152,54890,1,0
200,152,55001,1,0
256,224,55335,5,0
240,280,55557,1,0
296,264,55779,1,0
296,264,55890,1,0
368,208,56224,5,0
408,168,56446,1,0
352,152,56668,1,0
352,152,56779,1,0
312,104,57001,1,0
312,104,57113,1,0
168,80,58001,5,0
224,56,58224,1,0
288,64,58446,1,0
288,96,58557,2,8,B|360:144|432:96,1,137.5
472,80,59335,1,0
480,144,59557,2,0,B|480:232,1,82.5
392,200,60224,1,0
352,152,60446,6,12,B|312:208|360:272,1,110,8|0
408,256,61113,2,0,B|432:288|400:312,1,55,8|0
352,328,61557,2,8,B|348:362|297:343,1,55
264,312,62001,1,0
264,312,62113,1,4
56,336,62890,6,0,B|80:304|48:280,1,55
40,200,63446,2,0,B|32:112,1,82.5
88,96,64001,1,0
152,96,64224,2,4,B|184:96,2,27.5
448,40,65557,5,0
464,64,65668,1,0
464,96,65779,2,0,B|504:152|456:216,1,110,0|0
256,248,66668,5,4
200,192,67001,1,4
256,136,67335,1,4
160,64,67779,5,0
96,72,68001,1,0
136,120,68224,1,0
136,120,68335,1,0
88,200,68668,5,0
120,256,68890,1,0
152,208,69113,1,0
152,208,69224,1,0
240,184,69557,5,0
240,248,69779,1,0
288,216,70001,1,0
288,216,70113,1,0
328,136,70446,5,0
384,128,70668,1,0
352,80,70890,1,0
352,80,71001,2,4,B|248:72|200:128|192:192|192:192,1,192.5,0|0
80,192,72224,6,0,B|56:232,2,55
136,216,72890,1,4
256,192,73335,1,4
376,168,73779,1,4
376,168,74113,1,4
376,168,74446,1,4
152,248,75335,5,0
200,280,75557,1,0
320,280,76001,1,0
368,248,76224,1,0
416,136,76668,1,0
312,80,77113,6,0,B|280:64|240:88|240:96,4,55
432,104,78446,1,0
448,160,78668,1,0
256,208,78890,12,4,81779
