osu file format v12

[General]
AudioFilename: Re-Sublimity.mp3
AudioLeadIn: 3000
PreviewTime: 53934
Countdown: 0
SampleSet: Soft
StackLeniency: 0.7
Mode: 3
LetterboxInBreaks: 0
SpecialStyle: 0
WidescreenStoryboard: 1

[Editor]
DistanceSpacing: 0.8
BeatDivisor: 4
GridSize: 8
TimelineZoom: 1

[Metadata]
Title:Re-Sublimity (TV Size)
TitleUnicode:Re-Sublimity (TV Size)
Artist:KOTOKO
ArtistUnicode:KOTOKO
Creator:- R u m i a -
Version:Lv.28
Source:Kannazuki no Miko
Tags:Opening yuri Kazuya Takase Tomoyuki Nakazawa Techno
BeatmapID:375819
BeatmapSetID:152779

[Difficulty]
HPDrainRate:8
CircleSize:7
OverallDifficulty:7
ApproachRate:8
SliderMultiplier:1.92
SliderTickRate:1

[Events]
//Background and Video events
0,0,"BG.jpg",0,0
//Break Periods
//Storyboard Layer 0 (Background)
//Storyboard Layer 1 (Fail)
//Storyboard Layer 2 (Pass)
//Storyboard Layer 3 (Foreground)
//Storyboard Sound Samples
//Background Colour Transformations
3,100,163,162,255

[TimingPoints]
712,444.444444444444,4,2,1,30,1,0
712,-125,4,2,1,30,0,0
9600,-80,4,2,1,30,0,0
11378,-100,4,2,1,30,0,0
54045,-100,4,2,1,30,0,1
82489,-100,4,2,1,30,0,0
84267,-100,4,2,2,30,0,0

[Colours]
Combo1 : 70,242,13
Combo2 : 11,146,244
Combo3 : 236,247,136

[HitObjects]
182,192,712,5,0,0:0:0:0:
36,192,712,1,0,0:0:0:0:
256,192,934,1,0,2:0:0:0:
402,192,1156,1,0,0:0:0:0:
256,192,1378,1,0,0:0:0:0:
475,192,1600,1,0,0:0:0:0:
329,192,1600,1,0,0:0:0:0:
256,192,1823,1,0,0:0:0:0:
109,192,2045,1,0,0:0:0:0:
256,192,2267,1,0,0:0:0:0:
402,192,2489,1,0,0:0:0:0:
329,192,2489,1,0,0:0:0:0:
256,192,2711,1,0,0:0:0:0:
182,192,2934,1,0,0:0:0:0:
402,192,3156,1,0,0:0:0:0:
475,192,3156,1,0,0:0:0:0:
256,192,3378,1,0,0:0:0:0:
329,192,3600,1,0,0:0:0:0:
402,192,3600,1,0,0:0:0:0:
182,192,3823,1,0,0:0:0:0:
256,192,4045,1,0,0:0:0:0:
329,192,4045,1,0,0:0:0:0:
182,192,4267,1,0,0:0:0:0:
109,192,4267,1,0,0:0:0:0:
329,192,4489,1,0,0:0:0:0:
475,192,4711,1,0,0:0:0:0:
329,192,4934,1,0,0:0:0:0:
256,192,5156,1,0,0:0:0:0:
109,192,5156,1,0,0:0:0:0:
475,192,5378,1,0,0:0:0:0:
402,192,5600,128,0,5823:0:0:0:0:
256,192,5823,128,0,6045:0:0:0:0:
36,192,6045,1,0,0:0:0:0:
329,192,6045,1,0,0:0:0:0:
402,192,6267,1,0,0:0:0:0:
256,192,6489,1,0,0:0:0:0:
475,192,6711,1,0,0:0:0:0:
182,192,6711,1,0,0:0:0:0:
256,192,6934,1,0,0:0:0:0:
109,192,7045,1,0,0:0:0:0:
36,192,7156,1,0,0:0:0:0:
329,192,7267,1,0,0:0:0:0:
109,192,7489,1,0,0:0:0:0:
36,192,7600,1,0,0:0:0:0:
256,192,7823,1,0,0:0:0:0:
475,192,7823,1,0,0:0:0:0:
109,192,8045,1,0,0:0:0:0:
402,192,8267,1,0,0:0:0:0:
109,192,8489,1,0,0:0:0:0:
182,192,8711,1,0,0:0:0:0:
402,192,8711,1,0,0:0:0:0:
256,192,9156,1,0,0:0:0:0:
475,192,9156,128,0,9600:0:0:0:0:
109,192,9378,128,0,9600:0:0:0:0:
256,192,9600,1,8,0:0:0:0:
402,192,9823,1,0,0:0:0:0:
182,192,10045,1,0,0:0:0:0:
36,192,10045,1,0,0:0:0:0:
329,192,10267,1,0,0:0:0:0:
182,192,10378,1,0,0:0:0:0:
256,192,10489,1,0,0:0:0:0:
402,192,10489,1,0,0:0:0:0:
109,192,10600,1,0,0:0:0:0:
36,192,10711,1,0,0:0:0:0:
182,192,10823,1,0,0:0:0:0:
256,192,10934,1,0,0:0:0:0:
475,192,10934,1,0,0:0:0:0:
402,192,11045,1,0,0:0:0:0:
109,192,11156,1,0,0:0:0:0:
329,192,11156,1,0,0:0:0:0:
256,192,11378,1,8,0:0:0:0:
475,192,11378,1,0,0:0:0:0:
36,192,11378,1,0,0:0:0:0:
182,192,11600,1,0,0:0:0:0:
329,192,11600,1,0,0:0:0:0:
475,192,11823,1,8,0:0:0:0:
402,192,11934,1,0,0:0:0:0:
256,192,11934,1,0,0:0:0:0:
182,192,12045,1,0,0:0:0:0:
36,192,12267,128,0,12489:0:0:0:0:
329,192,12267,1,8,0:0:0:0:
402,192,12267,1,0,0:0:0:0:
182,192,12489,1,0,0:0:0:0:
256,192,12600,1,0,0:0:0:0:
36,192,12711,128,0,12934:0:0:0:0:
329,192,12711,1,8,0:0:0:0:
402,192,12711,1,0,0:0:0:0:
475,192,12934,128,0,13156:0:0:0:0:
182,192,12934,1,8,0:0:0:0:
329,192,13045,1,8,0:0:0:0:
182,192,13156,1,8,0:0:0:0:
36,192,13378,128,0,13600:0:0:0:0:
402,192,13378,1,0,0:0:0:0:
182,192,13600,1,0,0:0:0:0:
475,192,13600,128,0,13823:0:0:0:0:
36,192,13823,128,0,14045:0:0:0:0:
402,192,13823,1,0,0:0:0:0:
182,192,14045,1,8,0:0:0:0:
329,192,14267,1,8,0:0:0:0:
402,192,14267,128,0,14489:0:0:0:0:
256,192,14378,1,0,0:0:0:0:
109,192,14378,1,0,0:0:0:0:
182,192,14489,1,0,0:0:0:0:
36,192,14489,1,0,0:0:0:0:
329,192,14600,1,0,0:0:0:0:
256,192,14711,128,0,14934:0:0:0:0:
182,192,14711,1,0,0:0:0:0:
475,192,14934,1,0,0:0:0:0:
182,192,14934,1,8,0:0:0:0:
109,192,15045,1,0,0:0:0:0:
36,192,15156,1,0,0:0:0:0:
109,192,15267,1,0,0:0:0:0:
475,192,15378,1,0,0:0:0:0:
329,192,15378,1,8,0:0:0:0:
182,192,15489,1,0,0:0:0:0:
36,192,15600,1,0,0:0:0:0:
256,192,15711,1,0,0:0:0:0:
475,192,15823,1,0,0:0:0:0:
109,192,15823,1,8,0:0:0:0:
329,192,15934,1,0,0:0:0:0:
182,192,16045,1,0,0:0:0:0:
402,192,16156,1,0,0:0:0:0:
475,192,16267,1,0,0:0:0:0:
109,192,16267,128,0,16489:0:0:0:0:
256,192,16267,1,8,0:0:0:0:
36,192,16267,1,0,0:0:0:0:
329,192,16489,128,0,16711:0:0:0:0:
475,192,16489,1,0,0:0:0:0:
36,192,16489,1,0,0:0:0:0:
475,192,16711,1,0,0:0:0:0:
36,192,16711,1,0,0:0:0:0:
182,192,16711,1,8,0:0:0:0:
402,192,16934,128,0,17156:0:0:0:0:
256,192,16934,1,0,0:0:0:0:
109,192,17156,128,0,17378:0:0:0:0:
182,192,17156,1,8,0:0:0:0:
256,192,17378,128,0,17600:0:0:0:0:
475,192,17378,1,0,0:0:0:0:
329,192,17600,1,8,0:0:0:0:
36,192,17600,1,0,0:0:0:0:
402,192,17711,1,0,0:0:0:0:
256,192,17823,1,8,0:0:0:0:
109,192,17934,1,8,0:0:0:0:
182,192,18045,1,8,0:0:0:0:
475,192,18045,1,0,0:0:0:0:
329,192,18156,1,0,0:0:0:0:
182,192,18267,1,0,0:0:0:0:
36,192,18267,1,8,0:0:0:0:
475,192,18489,1,4,0:0:0:0:
36,192,18489,1,8,0:0:0:0:
329,192,18489,128,0,18711:0:0:0:0:
256,192,18711,1,0,0:0:0:0:
182,192,18823,1,0,0:0:0:0:
109,192,18934,1,0,0:0:0:0:
402,192,18934,1,8,0:0:0:0:
329,192,19045,1,0,0:0:0:0:
182,192,19156,1,0,0:0:0:0:
36,192,19156,1,0,0:0:0:0:
402,192,19378,1,8,0:0:0:0:
329,192,19489,1,0,0:0:0:0:
182,192,19600,1,0,0:0:0:0:
256,192,19711,1,0,0:0:0:0:
329,192,19823,1,0,0:0:0:0:
475,192,19823,1,8,0:0:0:0:
36,192,19934,1,0,0:0:0:0:
109,192,20045,1,0,0:0:0:0:
256,192,20156,1,0,0:0:0:0:
182,192,20267,1,8,0:0:0:0:
36,192,20267,1,0,0:0:0:0:
256,192,20378,1,0,0:0:0:0:
329,192,20489,1,0,0:0:0:0:
475,192,20489,1,0,0:0:0:0:
182,192,20711,1,8,0:0:0:0:
256,192,20823,1,0,0:0:0:0:
402,192,20823,1,0,0:0:0:0:
475,192,20934,1,0,0:0:0:0:
182,192,21045,1,0,0:0:0:0:
36,192,21156,1,8,0:0:0:0:
256,192,21267,1,0,0:0:0:0:
36,192,21378,1,0,0:0:0:0:
256,192,21489,1,0,0:0:0:0:
109,192,21600,1,8,0:0:0:0:
475,192,21600,1,0,0:0:0:0:
329,192,21711,1,0,0:0:0:0:
109,192,21823,1,8,0:0:0:0:
329,192,21934,1,0,0:0:0:0:
475,192,22045,1,8,0:0:0:0:
182,192,22156,1,0,0:0:0:0:
109,192,22267,1,0,0:0:0:0:
329,192,22378,1,0,0:0:0:0:
475,192,22489,1,8,0:0:0:0:
256,192,22489,1,0,0:0:0:0:
182,192,22600,1,0,0:0:0:0:
36,192,22711,1,0,0:0:0:0:
256,192,22823,1,0,0:0:0:0:
402,192,22934,1,8,0:0:0:0:
329,192,23045,1,0,0:0:0:0:
256,192,23156,1,0,0:0:0:0:
182,192,23267,1,0,0:0:0:0:
109,192,23378,1,8,0:0:0:0:
36,192,23378,1,0,0:0:0:0:
182,192,23489,1,0,0:0:0:0:
329,192,23600,1,0,0:0:0:0:
256,192,23711,1,0,0:0:0:0:
182,192,23823,1,8,0:0:0:0:
36,192,23823,1,0,0:0:0:0:
475,192,23823,1,0,0:0:0:0:
109,192,24045,1,0,0:0:0:0:
182,192,24100,1,0,0:0:0:0:
256,192,24156,1,0,0:0:0:0:
329,192,24211,1,0,0:0:0:0:
402,192,24267,1,0,0:0:0:0:
109,192,24378,1,0,0:0:0:0:
182,192,24434,1,0,0:0:0:0:
256,192,24489,1,0,0:0:0:0:
329,192,24545,1,0,0:0:0:0:
402,192,24600,1,0,0:0:0:0:
475,192,24711,1,8,0:0:0:0:
109,192,24823,1,8,0:0:0:0:
402,192,24934,1,8,0:0:0:0:
36,192,25045,1,8,0:0:0:0:
256,192,25156,1,8,0:0:0:0:
36,192,25267,1,8,0:0:0:0:
329,192,25378,1,8,0:0:0:0:
109,192,25489,1,8,0:0:0:0:
402,192,25600,1,4,0:0:0:0:
256,192,25600,1,0,0:0:0:0:
36,192,25600,1,0,0:0:0:0:
329,192,25823,1,0,0:0:0:0:
109,192,26045,1,8,0:0:0:0:
475,192,26045,1,0,0:0:0:0:
329,192,26267,1,0,0:0:0:0:
256,192,26378,1,0,0:0:0:0:
182,192,26489,1,0,0:0:0:0:
36,192,26489,1,8,0:0:0:0:
256,192,26600,1,0,0:0:0:0:
329,192,26711,1,0,0:0:0:0:
256,192,26823,1,0,0:0:0:0:
475,192,26934,1,0,0:0:0:0:
109,192,26934,1,8,0:0:0:0:
329,192,27156,1,0,0:0:0:0:
182,192,27267,1,0,0:0:0:0:
36,192,27378,1,8,0:0:0:0:
109,192,27489,1,0,0:0:0:0:
182,192,27600,1,0,0:0:0:0:
256,192,27711,1,0,0:0:0:0:
329,192,27823,1,8,0:0:0:0:
475,192,27823,1,0,0:0:0:0:
256,192,27934,1,0,0:0:0:0:
182,192,28045,1,0,0:0:0:0:
109,192,28156,1,0,0:0:0:0:
36,192,28267,1,0,0:0:0:0:
329,192,28267,1,8,0:0:0:0:
256,192,28378,1,0,0:0:0:0:
109,192,28489,1,0,0:0:0:0:
402,192,28489,1,0,0:0:0:0:
329,192,28600,1,0,0:0:0:0:
475,192,28711,1,0,0:0:0:0:
182,192,28711,1,8,0:0:0:0:
329,192,28823,1,0,0:0:0:0:
109,192,28934,1,0,0:0:0:0:
256,192,29045,1,0,0:0:0:0:
109,192,29156,1,8,0:0:0:0:
36,192,29267,1,0,0:0:0:0:
256,192,29378,1,0,0:0:0:0:
402,192,29378,1,0,0:0:0:0:
182,192,29600,1,8,0:0:0:0:
329,192,29600,1,0,0:0:0:0:
402,192,29711,1,0,0:0:0:0:
109,192,29823,1,0,0:0:0:0:
256,192,29934,1,0,0:0:0:0:
182,192,30045,1,0,0:0:0:0:
36,192,30045,1,8,0:0:0:0:
256,192,30156,1,0,0:0:0:0:
329,192,30267,1,0,0:0:0:0:
475,192,30267,1,0,0:0:0:0:
256,192,30378,1,0,0:0:0:0:
182,192,30489,1,0,0:0:0:0:
36,192,30489,1,8,0:0:0:0:
109,192,30711,1,0,0:0:0:0:
256,192,30711,1,0,0:0:0:0:
182,192,30934,128,0,31156:0:0:0:0:
329,192,30934,128,8,31156:0:0:0:0:
256,192,31156,1,0,0:0:0:0:
182,192,31267,128,0,31489:0:0:0:0:
329,192,31267,128,0,31489:0:0:0:0:
109,192,31378,1,8,0:0:0:0:
402,192,31378,1,0,0:0:0:0:
182,192,31600,128,0,31823:0:0:0:0:
329,192,31600,128,0,31823:0:0:0:0:
256,192,31600,1,0,0:0:0:0:
36,192,31823,1,8,0:0:0:0:
475,192,31934,1,8,0:0:0:0:
36,192,32045,1,8,0:0:0:0:
402,192,32267,1,8,0:0:0:0:
109,192,32267,1,0,0:0:0:0:
109,192,32489,1,8,0:0:0:0:
402,192,32600,1,8,0:0:0:0:
329,192,32711,1,0,0:0:0:0:
182,192,32711,1,4,0:0:0:0:
256,192,32711,1,8,0:0:0:0:
402,192,32934,1,0,0:0:0:0:
182,192,33156,1,8,0:0:0:0:
36,192,33156,1,0,0:0:0:0:
329,192,33267,1,0,0:0:0:0:
475,192,33378,1,0,0:0:0:0:
329,192,33489,1,0,0:0:0:0:
182,192,33600,1,8,0:0:0:0:
329,192,33711,1,0,0:0:0:0:
475,192,33823,1,0,0:0:0:0:
329,192,33934,1,0,0:0:0:0:
182,192,34045,1,8,0:0:0:0:
36,192,34045,1,0,0:0:0:0:
329,192,34156,1,0,0:0:0:0:
109,192,34267,1,0,0:0:0:0:
256,192,34378,1,0,0:0:0:0:
402,192,34489,1,8,0:0:0:0:
182,192,34600,1,0,0:0:0:0:
329,192,34711,1,0,0:0:0:0:
475,192,34934,1,8,0:0:0:0:
36,192,34934,1,0,0:0:0:0:
402,192,35045,1,0,0:0:0:0:
256,192,35156,1,0,0:0:0:0:
109,192,35267,1,0,0:0:0:0:
329,192,35378,1,8,0:0:0:0:
182,192,35489,1,0,0:0:0:0:
402,192,35600,1,0,0:0:0:0:
256,192,35711,1,0,0:0:0:0:
109,192,35823,1,8,0:0:0:0:
36,192,35823,1,0,0:0:0:0:
182,192,36045,1,0,0:0:0:0:
256,192,36156,1,0,0:0:0:0:
329,192,36267,1,0,0:0:0:0:
475,192,36267,1,8,0:0:0:0:
256,192,36489,1,0,0:0:0:0:
182,192,36711,1,8,0:0:0:0:
36,192,36711,1,0,0:0:0:0:
329,192,36823,1,0,0:0:0:0:
402,192,36934,1,0,0:0:0:0:
256,192,37045,1,0,0:0:0:0:
36,192,37156,1,8,0:0:0:0:
182,192,37267,1,0,0:0:0:0:
402,192,37378,1,0,0:0:0:0:
329,192,37489,1,0,0:0:0:0:
475,192,37600,1,0,0:0:0:0:
36,192,37600,1,4,0:0:0:0:
256,192,37600,1,8,0:0:0:0:
402,192,37823,1,0,0:0:0:0:
182,192,37823,1,8,0:0:0:0:
109,192,38045,1,8,0:0:0:0:
36,192,38045,1,4,0:0:0:0:
329,192,38045,1,0,0:0:0:0:
182,192,38267,1,8,0:0:0:0:
329,192,38378,1,0,0:0:0:0:
109,192,38489,1,8,0:0:0:0:
256,192,38600,1,0,0:0:0:0:
36,192,38711,1,0,0:0:0:0:
182,192,38823,1,0,0:0:0:0:
402,192,38934,1,8,0:0:0:0:
475,192,38934,1,0,0:0:0:0:
36,192,39045,1,8,0:0:0:0:
402,192,39156,1,8,0:0:0:0:
475,192,39156,1,0,0:0:0:0:
36,192,39267,1,8,0:0:0:0:
402,192,39378,1,8,0:0:0:0:
475,192,39378,1,0,0:0:0:0:
109,192,39489,1,0,0:0:0:0:
36,192,39489,1,8,0:0:0:0:
475,192,39600,1,0,0:0:0:0:
402,192,39600,1,8,0:0:0:0:
109,192,39711,1,0,0:0:0:0:
36,192,39711,1,8,0:0:0:0:
182,192,39823,1,4,0:0:0:0:
256,192,39823,1,8,0:0:0:0:
329,192,39823,1,0,0:0:0:0:
402,192,40045,1,0,0:0:0:0:
256,192,40156,1,0,0:0:0:0:
182,192,40267,1,8,0:0:0:0:
36,192,40267,1,0,0:0:0:0:
329,192,40489,1,0,0:0:0:0:
182,192,40600,1,0,0:0:0:0:
402,192,40711,1,8,0:0:0:0:
256,192,40823,1,0,0:0:0:0:
109,192,40934,1,0,0:0:0:0:
256,192,41045,1,0,0:0:0:0:
329,192,41156,1,0,0:0:0:0:
475,192,41156,1,8,0:0:0:0:
256,192,41267,1,0,0:0:0:0:
182,192,41378,1,0,0:0:0:0:
109,192,41489,1,0,0:0:0:0:
402,192,41489,1,0,0:0:0:0:
36,192,41600,1,8,0:0:0:0:
402,192,41600,1,0,0:0:0:0:
109,192,41711,1,0,0:0:0:0:
182,192,41823,1,0,0:0:0:0:
256,192,41934,1,0,0:0:0:0:
329,192,42045,1,8,0:0:0:0:
475,192,42045,1,0,0:0:0:0:
109,192,42156,1,0,0:0:0:0:
182,192,42267,1,0,0:0:0:0:
256,192,42378,1,0,0:0:0:0:
329,192,42489,1,8,0:0:0:0:
475,192,42489,1,0,0:0:0:0:
36,192,42489,1,0,0:0:0:0:
402,192,42711,1,4,0:0:0:0:
256,192,42711,1,0,0:0:0:0:
329,192,42934,1,8,0:0:0:0:
475,192,42934,1,0,0:0:0:0:
109,192,42934,1,0,0:0:0:0:
36,192,43045,1,0,0:0:0:0:
109,192,43156,1,0,0:0:0:0:
182,192,43267,1,0,0:0:0:0:
256,192,43378,1,4,0:0:0:0:
402,192,43378,1,8,0:0:0:0:
36,192,43378,1,0,0:0:0:0:
329,192,43600,1,0,0:0:0:0:
475,192,43711,1,0,0:0:0:0:
256,192,43823,1,0,0:0:0:0:
109,192,43823,1,8,0:0:0:0:
329,192,43934,1,0,0:0:0:0:
402,192,44045,1,0,0:0:0:0:
329,192,44156,1,0,0:0:0:0:
182,192,44267,1,0,0:0:0:0:
36,192,44267,1,8,0:0:0:0:
256,192,44378,1,0,0:0:0:0:
329,192,44489,1,0,0:0:0:0:
402,192,44600,1,0,0:0:0:0:
256,192,44711,1,0,0:0:0:0:
109,192,44711,1,8,0:0:0:0:
329,192,44823,1,0,0:0:0:0:
402,192,44934,1,0,0:0:0:0:
475,192,45045,1,0,0:0:0:0:
182,192,45156,1,0,0:0:0:0:
36,192,45156,1,8,0:0:0:0:
329,192,45267,1,0,0:0:0:0:
256,192,45378,1,0,0:0:0:0:
109,192,45378,1,8,0:0:0:0:
402,192,45489,1,0,0:0:0:0:
182,192,45600,1,8,0:0:0:0:
329,192,45600,1,0,0:0:0:0:
475,192,45711,1,0,0:0:0:0:
109,192,45823,1,0,0:0:0:0:
36,192,45934,1,0,0:0:0:0:
256,192,46045,1,8,0:0:0:0:
402,192,46045,1,0,0:0:0:0:
182,192,46267,1,0,0:0:0:0:
329,192,46267,1,8,0:0:0:0:
36,192,46267,1,0,0:0:0:0:
329,192,46489,1,8,0:0:0:0:
475,192,46489,1,0,0:0:0:0:
182,192,46600,1,0,0:0:0:0:
109,192,46711,1,0,0:0:0:0:
182,192,46823,1,0,0:0:0:0:
256,192,46934,1,0,0:0:0:0:
402,192,46934,1,8,0:0:0:0:
36,192,47156,1,0,0:0:0:0:
182,192,47378,1,0,0:0:0:0:
329,192,47378,1,8,0:0:0:0:
475,192,47378,1,0,0:0:0:0:
109,192,47489,1,0,0:0:0:0:
36,192,47600,1,0,0:0:0:0:
109,192,47711,1,0,0:0:0:0:
256,192,47823,1,0,0:0:0:0:
402,192,47823,1,8,0:0:0:0:
182,192,47934,1,0,0:0:0:0:
109,192,48045,1,0,0:0:0:0:
256,192,48156,1,0,0:0:0:0:
329,192,48267,1,8,0:0:0:0:
475,192,48267,1,0,0:0:0:0:
182,192,48378,1,0,0:0:0:0:
36,192,48489,1,0,0:0:0:0:
256,192,48600,1,0,0:0:0:0:
109,192,48711,1,0,0:0:0:0:
329,192,48711,1,8,0:0:0:0:
182,192,48934,1,0,0:0:0:0:
256,192,49045,1,0,0:0:0:0:
329,192,49156,1,8,0:0:0:0:
475,192,49156,1,0,0:0:0:0:
109,192,49378,1,0,0:0:0:0:
182,192,49489,1,0,0:0:0:0:
256,192,49600,1,0,0:0:0:0:
402,192,49600,1,8,0:0:0:0:
36,192,49823,1,0,0:0:0:0:
109,192,49934,1,0,0:0:0:0:
182,192,50045,1,0,0:0:0:0:
329,192,50045,1,8,0:0:0:0:
256,192,50267,1,4,0:0:0:0:
475,192,50267,1,0,0:0:0:0:
36,192,50267,1,0,0:0:0:0:
109,192,50489,1,0,0:0:0:0:
402,192,50489,1,4,0:0:0:0:
256,192,50711,1,0,0:0:0:0:
36,192,50934,1,0,0:0:0:0:
329,192,50934,1,8,0:0:0:0:
109,192,51045,1,0,0:0:0:0:
402,192,51045,1,0,0:0:0:0:
475,192,51156,1,0,0:0:0:0:
182,192,51156,1,0,0:0:0:0:
402,192,51378,1,0,0:0:0:0:
329,192,51378,1,8,0:0:0:0:
36,192,51378,1,0,0:0:0:0:
109,192,51378,1,4,0:0:0:0:
182,192,51600,1,0,0:0:0:0:
475,192,51600,1,0,0:0:0:0:
402,192,51823,1,0,0:0:0:0:
36,192,51823,1,8,0:0:0:0:
36,192,52045,1,8,0:0:0:0:
402,192,52045,1,0,0:0:0:0:
109,192,52267,1,8,0:0:0:0:
475,192,52267,1,0,0:0:0:0:
109,192,52489,1,8,0:0:0:0:
475,192,52489,1,0,0:0:0:0:
182,192,52711,1,8,0:0:0:0:
402,192,52711,1,0,0:0:0:0:
182,192,52934,1,8,0:0:0:0:
402,192,52934,1,0,0:0:0:0:
329,192,53156,1,8,0:0:0:0:
36,192,53267,1,0,0:0:0:0:
329,192,53378,1,0,0:0:0:0:
36,192,53489,1,8,0:0:0:0:
109,192,53489,1,0,0:0:0:0:
402,192,53600,1,0,0:0:0:0:
475,192,53600,1,8,0:0:0:0:
109,192,53711,1,0,0:0:0:0:
36,192,53711,1,8,0:0:0:0:
402,192,53823,1,0,0:0:0:0:
475,192,53823,1,8,0:0:0:0:
109,192,53934,1,0,0:0:0:0:
36,192,53934,1,8,0:0:0:0:
329,192,54045,1,4,0:0:0:0:
256,192,54045,128,0,55823:0:0:0:0:
402,192,54045,1,0,0:0:0:0:
475,192,54045,1,8,0:0:0:0:
182,192,54045,128,0,54156:0:0:0:0:
36,192,54156,128,0,54267:0:0:0:0:
329,192,54267,128,0,54378:0:0:0:0:
475,192,54489,128,0,54600:0:0:0:0:
109,192,54489,1,8,0:0:0:0:
402,192,54600,128,0,54711:0:0:0:0:
109,192,54711,128,0,54823:0:0:0:0:
36,192,54823,128,0,54934:0:0:0:0:
182,192,54934,1,8,0:0:0:0:
475,192,54934,128,0,55045:0:0:0:0:
329,192,55045,128,0,55156:0:0:0:0:
182,192,55156,128,0,55267:0:0:0:0:
36,192,55267,128,0,55378:0:0:0:0:
109,192,55378,1,8,0:0:0:0:
402,192,55378,128,0,55489:0:0:0:0:
329,192,55489,128,0,55600:0:0:0:0:
182,192,55600,128,0,55711:0:0:0:0:
109,192,55711,128,0,55823:0:0:0:0:
475,192,55823,128,0,57600:0:0:0:0:
329,192,55823,128,0,55934:0:0:0:0:
36,192,55823,1,8,0:0:0:0:
182,192,55934,128,0,56045:0:0:0:0:
402,192,56045,128,0,56156:0:0:0:0:
256,192,56156,128,0,56267:0:0:0:0:
109,192,56267,1,8,0:0:0:0:
329,192,56267,128,0,56378:0:0:0:0:
182,192,56378,128,0,56489:0:0:0:0:
256,192,56489,128,0,56600:0:0:0:0:
329,192,56600,128,0,56711:0:0:0:0:
36,192,56711,1,8,0:0:0:0:
182,192,56711,128,0,56823:0:0:0:0:
256,192,56823,128,0,56934:0:0:0:0:
329,192,56934,128,0,57045:0:0:0:0:
402,192,57045,128,0,57156:0:0:0:0:
109,192,57156,1,8,0:0:0:0:
329,192,57156,128,0,57267:0:0:0:0:
256,192,57267,128,0,57378:0:0:0:0:
182,192,57378,128,0,57489:0:0:0:0:
329,192,57489,128,0,57600:0:0:0:0:
36,192,57600,1,8,0:0:0:0:
402,192,57600,128,0,59378:0:0:0:0:
256,192,57600,1,0,0:0:0:0:
109,192,57823,1,0,0:0:0:0:
256,192,58045,1,0,0:0:0:0:
475,192,58045,1,8,0:0:0:0:
182,192,58156,1,0,0:0:0:0:
36,192,58267,1,0,0:0:0:0:
109,192,58378,1,0,0:0:0:0:
256,192,58489,1,8,0:0:0:0:
329,192,58600,1,0,0:0:0:0:
475,192,58711,1,0,0:0:0:0:
182,192,58711,128,0,58823:0:0:0:0:
36,192,58823,128,0,58934:0:0:0:0:
256,192,58934,128,8,59045:0:0:0:0:
329,192,58934,1,4,0:0:0:0:
109,192,59045,128,0,59156:0:0:0:0:
475,192,59156,1,0,0:0:0:0:
329,192,59156,1,0,0:0:0:0:
256,192,59267,1,0,0:0:0:0:
475,192,59378,1,4,0:0:0:0:
182,192,59378,1,0,0:0:0:0:
36,192,59378,128,0,59489:0:0:0:0:
256,192,59489,128,0,59600:0:0:0:0:
475,192,59600,128,0,59711:0:0:0:0:
109,192,59711,128,0,59823:0:0:0:0:
256,192,59823,128,0,59934:0:0:0:0:
36,192,59823,1,0,0:0:0:0:
402,192,59934,128,0,60045:0:0:0:0:
182,192,60045,128,0,60156:0:0:0:0:
256,192,60156,128,0,60267:0:0:0:0:
329,192,60267,128,0,60378:0:0:0:0:
109,192,60267,1,0,0:0:0:0:
256,192,60378,128,0,60489:0:0:0:0:
182,192,60489,128,0,60600:0:0:0:0:
402,192,60600,128,0,60711:0:0:0:0:
256,192,60711,128,8,60823:0:0:0:0:
36,192,60711,1,4,0:0:0:0:
109,192,60823,128,0,60934:0:0:0:0:
475,192,60934,128,0,61045:0:0:0:0:
256,192,61045,128,0,61156:0:0:0:0:
36,192,61156,1,4,0:0:0:0:
402,192,61156,1,0,0:0:0:0:
182,192,61156,1,8,0:0:0:0:
109,192,61156,128,0,62934:0:0:0:0:
329,192,61378,1,0,0:0:0:0:
475,192,61378,1,0,0:0:0:0:
402,192,61489,1,0,0:0:0:0:
329,192,61600,1,0,0:0:0:0:
182,192,61600,1,8,0:0:0:0:
256,192,61711,1,0,0:0:0:0:
402,192,61823,1,0,0:0:0:0:
36,192,62045,1,8,0:0:0:0:
329,192,62045,128,0,62156:0:0:0:0:
475,192,62156,128,0,62267:0:0:0:0:
256,192,62267,128,0,62378:0:0:0:0:
402,192,62378,128,0,62489:0:0:0:0:
182,192,62489,128,0,62600:0:0:0:0:
36,192,62489,1,8,0:0:0:0:
329,192,62600,128,0,62711:0:0:0:0:
475,192,62711,128,0,62823:0:0:0:0:
256,192,62823,128,0,62934:0:0:0:0:
36,192,62934,1,8,0:0:0:0:
402,192,62934,128,0,64711:0:0:0:0:
329,192,62934,128,0,63045:0:0:0:0:
182,192,63045,128,0,63156:0:0:0:0:
36,192,63156,128,0,63267:0:0:0:0:
256,192,63267,128,0,63378:0:0:0:0:
475,192,63378,1,8,0:0:0:0:
109,192,63378,128,0,63489:0:0:0:0:
329,192,63489,128,0,63600:0:0:0:0:
182,192,63600,128,0,63711:0:0:0:0:
36,192,63711,128,0,63823:0:0:0:0:
475,192,63823,1,8,0:0:0:0:
109,192,63823,128,0,63934:0:0:0:0:
182,192,63934,128,0,64045:0:0:0:0:
109,192,64045,128,0,64156:0:0:0:0:
182,192,64156,128,0,64267:0:0:0:0:
475,192,64267,1,8,0:0:0:0:
256,192,64267,128,0,64378:0:0:0:0:
182,192,64378,128,0,64489:0:0:0:0:
256,192,64489,128,0,64600:0:0:0:0:
329,192,64600,128,0,64711:0:0:0:0:
475,192,64711,1,8,0:0:0:0:
36,192,64711,128,0,66489:0:0:0:0:
109,192,64711,1,0,0:0:0:0:
182,192,64711,128,0,64823:0:0:0:0:
329,192,64823,128,0,64934:0:0:0:0:
475,192,64934,128,0,65045:0:0:0:0:
182,192,65156,128,0,65267:0:0:0:0:
109,192,65156,1,4,0:0:0:0:
256,192,65156,1,8,0:0:0:0:
329,192,65267,128,0,65378:0:0:0:0:
475,192,65378,128,0,65489:0:0:0:0:
182,192,65600,128,0,65711:0:0:0:0:
109,192,65600,1,8,0:0:0:0:
329,192,65711,128,0,65823:0:0:0:0:
475,192,65823,128,0,65934:0:0:0:0:
109,192,66045,1,8,0:0:0:0:
256,192,66045,1,4,0:0:0:0:
329,192,66267,1,0,0:0:0:0:
182,192,66267,1,8,0:0:0:0:
256,192,66489,1,8,0:0:0:0:
402,192,66489,1,0,0:0:0:0:
182,192,66600,1,8,0:0:0:0:
109,192,66711,1,8,0:0:0:0:
256,192,66934,1,0,0:0:0:0:
475,192,66934,1,8,0:0:0:0:
182,192,67045,1,0,0:0:0:0:
109,192,67156,1,0,0:0:0:0:
402,192,67156,1,8,0:0:0:0:
182,192,67267,1,0,0:0:0:0:
256,192,67378,1,0,0:0:0:0:
475,192,67378,1,8,0:0:0:0:
329,192,67489,1,8,0:0:0:0:
402,192,67600,1,8,0:0:0:0:
256,192,67600,1,0,0:0:0:0:
182,192,67711,1,8,0:0:0:0:
475,192,67823,1,8,0:0:0:0:
109,192,67823,1,4,0:0:0:0:
36,192,67823,1,0,0:0:0:0:
329,192,67934,1,0,0:0:0:0:
256,192,68045,1,8,0:0:0:0:
182,192,68156,1,8,0:0:0:0:
402,192,68267,1,4,0:0:0:0:
36,192,68267,1,0,0:0:0:0:
256,192,68267,128,0,70045:0:0:0:0:
109,192,68267,1,8,0:0:0:0:
329,192,68267,128,0,68378:0:0:0:0:
475,192,68378,128,0,68489:0:0:0:0:
182,192,68489,128,0,68600:0:0:0:0:
36,192,68711,128,0,68822:0:0:0:0:
402,192,68711,1,8,0:0:0:0:
109,192,68822,128,0,68933:0:0:0:0:
402,192,68933,128,0,69045:0:0:0:0:
475,192,69045,128,0,69156:0:0:0:0:
329,192,69156,1,8,0:0:0:0:
36,192,69156,128,0,69267:0:0:0:0:
182,192,69267,128,0,69378:0:0:0:0:
329,192,69378,128,0,69489:0:0:0:0:
475,192,69489,128,0,69600:0:0:0:0:
402,192,69600,1,8,0:0:0:0:
109,192,69600,128,0,69711:0:0:0:0:
182,192,69711,128,0,69822:0:0:0:0:
329,192,69822,128,0,69933:0:0:0:0:
402,192,69933,128,0,70045:0:0:0:0:
36,192,70045,128,0,71822:0:0:0:0:
182,192,70045,128,0,70156:0:0:0:0:
475,192,70045,1,8,0:0:0:0:
329,192,70156,128,0,70267:0:0:0:0:
109,192,70267,128,0,70378:0:0:0:0:
256,192,70378,128,0,70489:0:0:0:0:
402,192,70489,1,8,0:0:0:0:
182,192,70489,128,0,70600:0:0:0:0:
329,192,70600,128,0,70711:0:0:0:0:
256,192,70711,128,0,70822:0:0:0:0:
182,192,70822,128,0,70933:0:0:0:0:
475,192,70933,1,8,0:0:0:0:
329,192,70933,128,0,71045:0:0:0:0:
256,192,71045,128,0,71156:0:0:0:0:
182,192,71156,128,0,71267:0:0:0:0:
109,192,71267,128,0,71378:0:0:0:0:
402,192,71378,1,8,0:0:0:0:
182,192,71378,128,0,71489:0:0:0:0:
256,192,71489,128,0,71600:0:0:0:0:
329,192,71600,128,0,71711:0:0:0:0:
182,192,71711,128,0,71822:0:0:0:0:
109,192,71822,128,0,73600:0:0:0:0:
475,192,71823,1,8,0:0:0:0:
329,192,71823,128,0,71934:0:0:0:0:
475,192,72045,128,0,72156:0:0:0:0:
36,192,72267,1,8,0:0:0:0:
182,192,72267,128,0,72378:0:0:0:0:
329,192,72378,128,0,72489:0:0:0:0:
475,192,72489,128,0,72600:0:0:0:0:
402,192,72600,128,0,72711:0:0:0:0:
256,192,72711,1,8,0:0:0:0:
182,192,72823,128,0,72934:0:0:0:0:
36,192,72933,1,0,0:0:0:0:
329,192,72934,128,0,73045:0:0:0:0:
475,192,73045,128,0,73156:0:0:0:0:
256,192,73156,128,8,73267:0:0:0:0:
182,192,73156,1,4,0:0:0:0:
402,192,73267,128,0,73378:0:0:0:0:
182,192,73378,1,0,0:0:0:0:
256,192,73489,1,0,0:0:0:0:
36,192,73600,1,8,0:0:0:0:
329,192,73600,1,4,0:0:0:0:
475,192,73600,128,0,73711:0:0:0:0:
256,192,73711,128,0,73823:0:0:0:0:
36,192,73823,128,8,73934:0:0:0:0:
402,192,73934,128,8,74045:0:0:0:0:
256,192,74045,128,0,74156:0:0:0:0:
475,192,74045,1,8,0:0:0:0:
109,192,74156,128,0,74267:0:0:0:0:
329,192,74267,128,0,74378:0:0:0:0:
256,192,74378,128,0,74489:0:0:0:0:
182,192,74489,128,0,74600:0:0:0:0:
402,192,74489,1,8,0:0:0:0:
256,192,74600,128,0,74711:0:0:0:0:
329,192,74711,128,0,74823:0:0:0:0:
109,192,74822,128,0,74933:0:0:0:0:
256,192,74933,128,0,75045:0:0:0:0:
475,192,74933,1,8,0:0:0:0:
182,192,74934,1,0,0:0:0:0:
402,192,75045,128,0,75156:0:0:0:0:
36,192,75156,128,8,75267:0:0:0:0:
256,192,75267,128,8,75378:0:0:0:0:
475,192,75378,1,4,0:0:0:0:
109,192,75378,1,0,0:0:0:0:
329,192,75378,1,8,0:0:0:0:
402,192,75378,128,0,77156:0:0:0:0:
182,192,75600,1,0,0:0:0:0:
36,192,75600,1,0,0:0:0:0:
109,192,75711,1,0,0:0:0:0:
256,192,75823,1,0,0:0:0:0:
475,192,75823,1,8,0:0:0:0:
329,192,75823,128,0,75934:0:0:0:0:
182,192,75934,128,0,76045:0:0:0:0:
36,192,76045,128,0,76156:0:0:0:0:
329,192,76156,128,0,76267:0:0:0:0:
475,192,76267,1,8,0:0:0:0:
182,192,76267,128,0,76378:0:0:0:0:
36,192,76378,128,0,76489:0:0:0:0:
256,192,76489,128,0,76600:0:0:0:0:
109,192,76600,128,0,76711:0:0:0:0:
329,192,76711,128,0,76822:0:0:0:0:
475,192,76711,1,8,0:0:0:0:
182,192,76822,128,0,76933:0:0:0:0:
36,192,76933,128,0,77045:0:0:0:0:
256,192,77045,128,0,77156:0:0:0:0:
475,192,77156,1,8,0:0:0:0:
109,192,77156,128,0,78933:0:0:0:0:
182,192,77156,128,0,77267:0:0:0:0:
329,192,77267,128,0,77378:0:0:0:0:
475,192,77378,128,0,77489:0:0:0:0:
256,192,77489,128,0,77600:0:0:0:0:
36,192,77600,1,8,0:0:0:0:
402,192,77600,128,0,77711:0:0:0:0:
182,192,77711,128,0,77822:0:0:0:0:
329,192,77822,128,0,77933:0:0:0:0:
475,192,77933,128,0,78045:0:0:0:0:
36,192,78045,1,8,0:0:0:0:
402,192,78045,128,0,78156:0:0:0:0:
329,192,78156,128,0,78267:0:0:0:0:
402,192,78267,128,0,78378:0:0:0:0:
329,192,78378,128,0,78489:0:0:0:0:
36,192,78489,1,8,0:0:0:0:
256,192,78489,128,0,78600:0:0:0:0:
329,192,78600,128,0,78711:0:0:0:0:
256,192,78711,128,8,78822:0:0:0:0:
182,192,78822,128,0,78933:0:0:0:0:
36,192,78933,1,8,0:0:0:0:
475,192,78933,128,0,80711:0:0:0:0:
402,192,78933,1,8,0:0:0:0:
329,192,78933,128,0,79045:0:0:0:0:
36,192,79156,128,0,79267:0:0:0:0:
329,192,79378,128,0,79489:0:0:0:0:
402,192,79378,1,8,0:0:0:0:
256,192,79378,1,4,0:0:0:0:
36,192,79600,128,0,79711:0:0:0:0:
329,192,79822,128,0,79933:0:0:0:0:
402,192,79822,1,8,0:0:0:0:
182,192,79933,128,0,80045:0:0:0:0:
36,192,80045,128,0,80156:0:0:0:0:
182,192,80156,128,0,80267:0:0:0:0:
402,192,80267,128,8,80378:0:0:0:0:
109,192,80267,1,4,0:0:0:0:
256,192,80378,128,0,80489:0:0:0:0:
36,192,80489,128,8,80600:0:0:0:0:
182,192,80600,128,0,80711:0:0:0:0:
329,192,80711,128,8,80823:0:0:0:0:
109,192,80711,1,4,0:0:0:0:
256,192,80934,1,0,0:0:0:0:
475,192,81156,128,0,81267:0:0:0:0:
109,192,81267,128,0,81378:0:0:0:0:
329,192,81378,128,0,81489:0:0:0:0:
475,192,81489,128,0,81600:0:0:0:0:
36,192,81600,128,0,81711:0:0:0:0:
256,192,81711,128,0,81823:0:0:0:0:
402,192,81823,128,0,81934:0:0:0:0:
329,192,82045,128,0,82156:0:0:0:0:
475,192,82156,128,0,82267:0:0:0:0:
402,192,82267,128,0,82378:0:0:0:0:
182,192,82378,128,0,82489:0:0:0:0:
109,192,82489,1,8,0:0:0:0:
36,192,82489,1,4,0:0:0:0:
329,192,82489,1,0,0:0:0:0:
402,192,82600,1,0,0:0:0:0:
475,192,82711,1,0,0:0:0:0:
256,192,82711,1,0,0:0:0:0:
329,192,82934,1,0,0:0:0:0:
36,192,82934,1,0,0:0:0:0:
402,192,83045,1,0,0:0:0:0:
109,192,83045,1,0,0:0:0:0:
36,192,83267,1,0,0:0:0:0:
329,192,83267,1,0,0:0:0:0:
402,192,83378,1,0,0:0:0:0:
109,192,83378,1,0,0:0:0:0:
475,192,83489,1,0,0:0:0:0:
182,192,83489,1,0,0:0:0:0:
402,192,83600,1,0,0:0:0:0:
109,192,83600,1,0,0:0:0:0:
329,192,83711,1,0,0:0:0:0:
36,192,83711,1,0,0:0:0:0:
109,192,83823,1,0,0:0:0:0:
402,192,83823,1,0,0:0:0:0:
182,192,83934,1,0,0:0:0:0:
475,192,83934,1,0,0:0:0:0:
402,192,84045,1,0,0:0:0:0:
109,192,84045,1,0,0:0:0:0:
329,192,84156,1,0,0:0:0:0:
36,192,84156,1,0,0:0:0:0:
402,192,84267,1,0,0:0:0:0:
109,192,84267,1,0,0:0:0:0:
182,192,84378,1,0,0:0:0:0:
36,192,84489,1,0,0:0:0:0:
329,192,84489,128,0,84711:0:0:0:0:
402,192,84711,128,0,84934:0:0:0:0:
109,192,84711,1,8,0:0:0:0:
256,192,84711,1,0,0:0:0:0:
36,192,84823,1,8,0:0:0:0:
182,192,84934,1,8,0:0:0:0:
329,192,84934,1,0,0:0:0:0:
109,192,85045,1,8,0:0:0:0:
402,192,85156,1,0,0:0:0:0:
256,192,85156,1,8,0:0:0:0:
182,192,85267,1,8,0:0:0:0:
329,192,85378,1,8,0:0:0:0:
475,192,85378,1,0,0:0:0:0:
256,192,85489,1,8,0:0:0:0:
182,192,85600,1,8,0:0:0:0:
36,192,85600,1,0,0:0:0:0:
402,192,85600,1,0,0:0:0:0:
329,192,85711,1,8,0:0:0:0:
402,192,85823,1,0,0:0:0:0:
182,192,85823,1,8,0:0:0:0:
36,192,85823,1,0,0:0:0:0:
256,192,85934,1,8,0:0:0:0:
475,192,86045,1,0,0:0:0:0:
402,192,86045,1,4,0:0:0:0:
109,192,86045,1,8,0:0:0:0:
36,192,86045,1,0,0:0:0:0:
