osu file format v12

[General]
AudioFilename: Re-Sublimity.mp3
AudioLeadIn: 3000
PreviewTime: 53934
Countdown: 0
SampleSet: Soft
StackLeniency: 0.7
Mode: 3
LetterboxInBreaks: 0
SpecialStyle: 0
WidescreenStoryboard: 1

[Editor]
DistanceSpacing: 0.8
BeatDivisor: 4
GridSize: 8
TimelineZoom: 1

[Metadata]
Title:Re-Sublimity (TV Size)
TitleUnicode:Re-Sublimity (TV Size)
Artist:KOTOKO
ArtistUnicode:KOTOKO
Creator:- R u m i a -
Version:Lv.16
Source:Kannazuki no Miko
Tags:Opening yuri Kazuya Takase Tomoyuki Nakazawa Techno
BeatmapID:375817
BeatmapSetID:152779

[Difficulty]
HPDrainRate:7
CircleSize:7
OverallDifficulty:7
ApproachRate:8
SliderMultiplier:1.92
SliderTickRate:1

[Events]
//Background and Video events
0,0,"BG.jpg",0,0
//Break Periods
//Storyboard Layer 0 (Background)
//Storyboard Layer 1 (Fail)
//Storyboard Layer 2 (Pass)
//Storyboard Layer 3 (Foreground)
//Storyboard Sound Samples
//Background Colour Transformations
3,100,163,162,255

[TimingPoints]
712,444.444444444444,4,2,1,30,1,0
11378,-100,4,2,1,30,0,0
54045,-100,4,2,1,30,0,1
82489,-100,4,2,1,30,0,0
84267,-100,4,2,2,30,0,0

[Colours]
Combo1 : 70,242,13
Combo2 : 11,146,244
Combo3 : 236,247,136

[HitObjects]
329,192,712,5,0,0:0:0:0:
109,192,934,1,0,0:0:0:0:
256,192,1156,1,0,0:0:0:0:
109,192,1378,1,0,0:0:0:0:
475,192,1600,1,0,0:0:0:0:
109,192,1823,1,0,0:0:0:0:
256,192,2045,1,0,0:0:0:0:
109,192,2267,1,0,0:0:0:0:
402,192,2489,1,0,0:0:0:0:
109,192,2711,1,0,0:0:0:0:
256,192,2934,1,0,0:0:0:0:
475,192,3156,1,0,0:0:0:0:
256,192,3378,1,0,0:0:0:0:
402,192,3600,1,0,0:0:0:0:
182,192,3823,1,0,0:0:0:0:
329,192,4045,1,0,0:0:0:0:
256,192,4267,1,0,0:0:0:0:
36,192,4489,1,0,0:0:0:0:
182,192,4711,1,0,0:0:0:0:
36,192,4934,1,0,0:0:0:0:
475,192,5156,1,0,0:0:0:0:
36,192,5378,1,0,0:0:0:0:
182,192,5600,1,0,0:0:0:0:
36,192,5823,1,0,0:0:0:0:
256,192,6045,1,0,0:0:0:0:
402,192,6267,1,0,0:0:0:0:
109,192,6489,1,0,0:0:0:0:
475,192,6711,1,0,0:0:0:0:
182,192,6934,1,0,0:0:0:0:
402,192,7156,1,0,0:0:0:0:
109,192,7378,1,0,0:0:0:0:
329,192,7600,1,0,0:0:0:0:
256,192,7823,1,0,0:0:0:0:
109,192,8045,1,0,0:0:0:0:
329,192,8267,1,0,0:0:0:0:
182,192,8489,1,0,0:0:0:0:
475,192,8711,1,0,0:0:0:0:
256,192,9156,1,0,0:0:0:0:
475,192,9378,1,0,0:0:0:0:
329,192,9600,1,8,0:0:0:0:
475,192,9823,1,0,0:0:0:0:
256,192,10045,1,0,0:0:0:0:
36,192,10045,1,0,0:0:0:0:
402,192,10267,1,0,0:0:0:0:
329,192,10378,1,0,0:0:0:0:
256,192,10489,1,0,0:0:0:0:
109,192,10711,1,0,0:0:0:0:
329,192,10934,1,0,0:0:0:0:
475,192,10934,1,0,0:0:0:0:
256,192,11045,1,0,0:0:0:0:
182,192,11156,1,0,0:0:0:0:
402,192,11378,1,8,0:0:0:0:
36,192,11378,1,0,0:0:0:0:
182,192,11600,1,0,0:0:0:0:
329,192,11823,1,8,0:0:0:0:
475,192,11823,1,0,0:0:0:0:
182,192,11934,1,0,0:0:0:0:
36,192,12267,128,8,12489:0:0:0:0:
256,192,12489,1,0,0:0:0:0:
182,192,12711,128,8,12934:0:0:0:0:
402,192,12711,1,0,0:0:0:0:
475,192,12934,128,8,13156:0:0:0:0:
329,192,13156,1,8,0:0:0:0:
182,192,13378,1,0,0:0:0:0:
256,192,13600,128,0,13823:0:0:0:0:
36,192,13600,1,0,0:0:0:0:
475,192,13823,128,0,14045:0:0:0:0:
182,192,14045,1,8,0:0:0:0:
256,192,14267,1,8,0:0:0:0:
402,192,14378,1,0,0:0:0:0:
182,192,14600,1,0,0:0:0:0:
329,192,14711,1,0,0:0:0:0:
475,192,14934,1,8,0:0:0:0:
256,192,15156,1,0,0:0:0:0:
182,192,15378,1,8,0:0:0:0:
36,192,15378,1,8,0:0:0:0:
329,192,15489,1,0,0:0:0:0:
402,192,15823,1,8,0:0:0:0:
256,192,16267,128,8,16489:0:0:0:0:
36,192,16489,128,0,16711:0:0:0:0:
182,192,16711,128,8,16934:0:0:0:0:
329,192,16934,128,0,17156:0:0:0:0:
36,192,17156,1,8,0:0:0:0:
475,192,17156,1,8,0:0:0:0:
36,192,17378,1,0,0:0:0:0:
475,192,17378,1,0,0:0:0:0:
36,192,17600,1,8,0:0:0:0:
475,192,17600,1,0,0:0:0:0:
256,192,17823,1,8,0:0:0:0:
109,192,17934,1,8,0:0:0:0:
329,192,18156,1,0,0:0:0:0:
182,192,18267,1,8,0:0:0:0:
475,192,18489,1,12,0:0:0:0:
36,192,18489,1,8,0:0:0:0:
182,192,18711,1,0,0:0:0:0:
329,192,18934,1,8,0:0:0:0:
182,192,19156,1,0,0:0:0:0:
329,192,19378,1,8,0:0:0:0:
182,192,19600,1,0,0:0:0:0:
329,192,19823,1,8,0:0:0:0:
182,192,20045,1,0,0:0:0:0:
402,192,20267,1,8,0:0:0:0:
109,192,20489,1,0,0:0:0:0:
402,192,20711,1,8,0:0:0:0:
109,192,20934,1,0,0:0:0:0:
402,192,21156,1,8,0:0:0:0:
109,192,21378,1,0,0:0:0:0:
402,192,21600,1,8,0:0:0:0:
109,192,21823,1,8,0:0:0:0:
329,192,21934,1,0,0:0:0:0:
475,192,22045,1,8,0:0:0:0:
109,192,22267,1,0,0:0:0:0:
329,192,22378,1,0,0:0:0:0:
36,192,22711,1,0,0:0:0:0:
256,192,22823,1,0,0:0:0:0:
475,192,22934,1,8,0:0:0:0:
329,192,23045,1,0,0:0:0:0:
182,192,23156,1,0,0:0:0:0:
36,192,23267,1,0,0:0:0:0:
256,192,23378,1,8,0:0:0:0:
109,192,23489,1,0,0:0:0:0:
329,192,23600,1,0,0:0:0:0:
475,192,23823,1,8,0:0:0:0:
36,192,23823,1,0,0:0:0:0:
256,192,24045,1,0,0:0:0:0:
182,192,24267,1,0,0:0:0:0:
109,192,24489,1,0,0:0:0:0:
36,192,24711,1,8,0:0:0:0:
109,192,24823,1,8,0:0:0:0:
182,192,24934,1,8,0:0:0:0:
329,192,25156,1,8,0:0:0:0:
402,192,25267,1,8,0:0:0:0:
475,192,25378,1,8,0:0:0:0:
256,192,25600,1,4,0:0:0:0:
36,192,25600,1,0,0:0:0:0:
329,192,25823,1,0,0:0:0:0:
109,192,26045,1,8,0:0:0:0:
36,192,26045,1,0,0:0:0:0:
402,192,26267,1,0,0:0:0:0:
182,192,26489,1,8,0:0:0:0:
329,192,26711,1,0,0:0:0:0:
475,192,26934,1,8,0:0:0:0:
402,192,26934,1,8,0:0:0:0:
109,192,27156,1,0,0:0:0:0:
329,192,27378,1,8,0:0:0:0:
109,192,27600,1,0,0:0:0:0:
329,192,27823,1,8,0:0:0:0:
475,192,27823,1,0,0:0:0:0:
182,192,28045,1,0,0:0:0:0:
402,192,28267,1,8,0:0:0:0:
182,192,28489,1,0,0:0:0:0:
402,192,28711,1,8,0:0:0:0:
475,192,28711,1,8,0:0:0:0:
182,192,28934,1,0,0:0:0:0:
329,192,29156,1,8,0:0:0:0:
182,192,29267,1,0,0:0:0:0:
36,192,29378,1,0,0:0:0:0:
402,192,29600,1,8,0:0:0:0:
109,192,29711,1,0,0:0:0:0:
256,192,29823,1,0,0:0:0:0:
329,192,30045,1,8,0:0:0:0:
475,192,30045,1,8,0:0:0:0:
402,192,30267,1,0,0:0:0:0:
329,192,30489,1,8,0:0:0:0:
182,192,30489,1,8,0:0:0:0:
402,192,30711,1,0,0:0:0:0:
475,192,30934,1,8,0:0:0:0:
256,192,30934,1,8,0:0:0:0:
256,192,31267,1,0,0:0:0:0:
475,192,31267,1,0,0:0:0:0:
256,192,31600,1,0,0:0:0:0:
475,192,31600,1,0,0:0:0:0:
36,192,31823,1,8,0:0:0:0:
182,192,31934,1,8,0:0:0:0:
329,192,32045,1,8,0:0:0:0:
475,192,32267,1,8,0:0:0:0:
36,192,32267,1,8,0:0:0:0:
256,192,32489,1,8,0:0:0:0:
109,192,32711,1,8,0:0:0:0:
402,192,32711,1,4,0:0:0:0:
256,192,32934,1,0,0:0:0:0:
36,192,33156,1,8,0:0:0:0:
475,192,33156,1,0,0:0:0:0:
256,192,33378,1,0,0:0:0:0:
329,192,33600,1,8,0:0:0:0:
256,192,33823,1,0,0:0:0:0:
36,192,34045,1,8,0:0:0:0:
475,192,34045,1,0,0:0:0:0:
256,192,34267,1,0,0:0:0:0:
182,192,34489,1,8,0:0:0:0:
329,192,34711,1,0,0:0:0:0:
36,192,34934,1,8,0:0:0:0:
182,192,34934,1,0,0:0:0:0:
329,192,35156,1,0,0:0:0:0:
475,192,35378,1,8,0:0:0:0:
329,192,35600,1,0,0:0:0:0:
182,192,35823,1,8,0:0:0:0:
36,192,35823,1,0,0:0:0:0:
329,192,36045,1,0,0:0:0:0:
475,192,36267,1,8,0:0:0:0:
109,192,36489,1,0,0:0:0:0:
402,192,36711,1,8,0:0:0:0:
256,192,36711,1,0,0:0:0:0:
109,192,36934,1,0,0:0:0:0:
475,192,37156,1,8,0:0:0:0:
109,192,37378,1,0,0:0:0:0:
402,192,37600,1,8,0:0:0:0:
256,192,37600,1,4,0:0:0:0:
109,192,37823,1,8,0:0:0:0:
256,192,38045,1,8,0:0:0:0:
402,192,38045,1,4,0:0:0:0:
329,192,38489,1,8,0:0:0:0:
182,192,38489,1,0,0:0:0:0:
36,192,38711,1,0,0:0:0:0:
402,192,38934,1,8,0:0:0:0:
182,192,38934,1,0,0:0:0:0:
329,192,39156,1,8,0:0:0:0:
109,192,39156,1,0,0:0:0:0:
256,192,39378,1,8,0:0:0:0:
36,192,39378,1,0,0:0:0:0:
109,192,39600,1,8,0:0:0:0:
329,192,39600,1,8,0:0:0:0:
182,192,39823,1,12,0:0:0:0:
402,192,39823,1,8,0:0:0:0:
36,192,40267,1,8,0:0:0:0:
475,192,40267,1,0,0:0:0:0:
329,192,40711,1,8,0:0:0:0:
256,192,40823,1,0,0:0:0:0:
182,192,40934,1,0,0:0:0:0:
109,192,41045,1,0,0:0:0:0:
36,192,41156,1,8,0:0:0:0:
475,192,41156,1,8,0:0:0:0:
256,192,41378,1,0,0:0:0:0:
109,192,41600,128,8,43378:0:0:0:0:
329,192,41600,1,0,0:0:0:0:
329,192,42045,1,8,0:0:0:0:
329,192,42489,1,8,0:0:0:0:
329,192,42934,1,8,0:0:0:0:
36,192,43378,128,12,45156:0:0:0:0:
182,192,43378,1,8,0:0:0:0:
475,192,43378,1,0,0:0:0:0:
182,192,43823,1,8,0:0:0:0:
182,192,44267,1,8,0:0:0:0:
182,192,44711,1,8,0:0:0:0:
256,192,45156,128,8,46934:0:0:0:0:
402,192,45156,1,8,0:0:0:0:
402,192,45600,1,8,0:0:0:0:
402,192,46045,1,8,0:0:0:0:
402,192,46489,1,8,0:0:0:0:
329,192,46934,1,8,0:0:0:0:
109,192,46934,1,8,0:0:0:0:
475,192,46934,128,0,48711:0:0:0:0:
109,192,47378,1,8,0:0:0:0:
109,192,47823,1,8,0:0:0:0:
329,192,47823,1,8,0:0:0:0:
329,192,48045,1,0,0:0:0:0:
109,192,48267,1,8,0:0:0:0:
256,192,48711,1,8,0:0:0:0:
256,192,49156,1,8,0:0:0:0:
256,192,49600,1,8,0:0:0:0:
109,192,49600,1,8,0:0:0:0:
109,192,49823,1,0,0:0:0:0:
256,192,50045,1,8,0:0:0:0:
402,192,50267,1,4,0:0:0:0:
182,192,50267,1,0,0:0:0:0:
256,192,50489,1,4,0:0:0:0:
475,192,50489,1,4,0:0:0:0:
182,192,50711,1,0,0:0:0:0:
36,192,50934,1,8,0:0:0:0:
182,192,51156,1,0,0:0:0:0:
36,192,51378,1,8,0:0:0:0:
475,192,51378,1,8,0:0:0:0:
182,192,51600,1,0,0:0:0:0:
36,192,51823,1,8,0:0:0:0:
36,192,52045,1,8,0:0:0:0:
36,192,52267,1,8,0:0:0:0:
475,192,52489,1,8,0:0:0:0:
475,192,52711,1,8,0:0:0:0:
475,192,52934,1,8,0:0:0:0:
329,192,53156,1,8,0:0:0:0:
36,192,53378,1,0,0:0:0:0:
182,192,53489,1,8,0:0:0:0:
329,192,53600,1,8,0:0:0:0:
475,192,53711,1,8,0:0:0:0:
329,192,53823,1,8,0:0:0:0:
182,192,53934,1,8,0:0:0:0:
36,192,54045,1,12,0:0:0:0:
475,192,54045,1,8,0:0:0:0:
182,192,54267,1,0,0:0:0:0:
329,192,54489,1,8,0:0:0:0:
475,192,54489,1,0,0:0:0:0:
182,192,54711,1,0,0:0:0:0:
36,192,54934,1,8,0:0:0:0:
402,192,55156,1,0,0:0:0:0:
182,192,55378,1,8,0:0:0:0:
36,192,55378,1,0,0:0:0:0:
402,192,55600,1,0,0:0:0:0:
256,192,55823,1,8,0:0:0:0:
182,192,56045,1,0,0:0:0:0:
329,192,56267,1,8,0:0:0:0:
475,192,56267,1,0,0:0:0:0:
36,192,56489,1,0,0:0:0:0:
182,192,56711,1,8,0:0:0:0:
329,192,56934,1,0,0:0:0:0:
475,192,56934,1,0,0:0:0:0:
402,192,57156,1,8,0:0:0:0:
256,192,57156,1,0,0:0:0:0:
182,192,57378,1,0,0:0:0:0:
329,192,57378,1,0,0:0:0:0:
475,192,57600,1,8,0:0:0:0:
36,192,57823,1,0,0:0:0:0:
182,192,58045,1,0,0:0:0:0:
329,192,58045,1,8,0:0:0:0:
36,192,58267,1,0,0:0:0:0:
256,192,58489,1,8,0:0:0:0:
36,192,58711,1,0,0:0:0:0:
182,192,58934,1,8,0:0:0:0:
329,192,58934,1,4,0:0:0:0:
402,192,59156,1,0,0:0:0:0:
256,192,59378,1,4,0:0:0:0:
36,192,59378,1,0,0:0:0:0:
109,192,59823,1,0,0:0:0:0:
329,192,59823,1,0,0:0:0:0:
182,192,60267,1,0,0:0:0:0:
402,192,60267,1,0,0:0:0:0:
402,192,60711,1,8,0:0:0:0:
182,192,60711,1,4,0:0:0:0:
329,192,60934,1,0,0:0:0:0:
109,192,60934,1,4,0:0:0:0:
256,192,61156,1,4,0:0:0:0:
36,192,61156,1,8,0:0:0:0:
329,192,61378,1,0,0:0:0:0:
402,192,61600,1,8,0:0:0:0:
475,192,61600,1,8,0:0:0:0:
109,192,61823,1,0,0:0:0:0:
329,192,62045,1,8,0:0:0:0:
109,192,62267,1,0,0:0:0:0:
402,192,62489,1,8,0:0:0:0:
475,192,62489,1,8,0:0:0:0:
109,192,62711,1,0,0:0:0:0:
256,192,62823,1,0,0:0:0:0:
109,192,62934,1,0,0:0:0:0:
475,192,63045,1,0,0:0:0:0:
329,192,63156,1,0,0:0:0:0:
182,192,63378,1,8,0:0:0:0:
36,192,63378,1,0,0:0:0:0:
475,192,63600,1,0,0:0:0:0:
109,192,63823,1,8,0:0:0:0:
402,192,64045,1,0,0:0:0:0:
182,192,64267,1,8,0:0:0:0:
36,192,64267,1,0,0:0:0:0:
475,192,64489,1,0,0:0:0:0:
256,192,64711,1,8,0:0:0:0:
109,192,64934,1,0,0:0:0:0:
329,192,65156,1,8,0:0:0:0:
475,192,65156,1,4,0:0:0:0:
256,192,65267,1,0,0:0:0:0:
182,192,65378,1,0,0:0:0:0:
402,192,65600,1,8,0:0:0:0:
109,192,65823,1,0,0:0:0:0:
329,192,66045,1,8,0:0:0:0:
475,192,66045,1,4,0:0:0:0:
475,192,66267,1,8,0:0:0:0:
182,192,66489,1,8,0:0:0:0:
36,192,66489,1,0,0:0:0:0:
256,192,66600,1,8,0:0:0:0:
329,192,66711,1,8,0:0:0:0:
109,192,66934,1,8,0:0:0:0:
182,192,67045,1,0,0:0:0:0:
256,192,67156,1,8,0:0:0:0:
36,192,67378,1,8,0:0:0:0:
109,192,67489,1,8,0:0:0:0:
182,192,67600,1,8,0:0:0:0:
256,192,67711,1,8,0:0:0:0:
329,192,67823,1,8,0:0:0:0:
475,192,67823,1,4,0:0:0:0:
402,192,68045,1,8,0:0:0:0:
256,192,68045,1,0,0:0:0:0:
329,192,68267,1,12,0:0:0:0:
182,192,68267,1,8,0:0:0:0:
36,192,68489,1,0,0:0:0:0:
256,192,68711,1,8,0:0:0:0:
402,192,68711,1,8,0:0:0:0:
109,192,68934,1,0,0:0:0:0:
329,192,69156,1,8,0:0:0:0:
182,192,69378,1,0,0:0:0:0:
329,192,69600,1,8,0:0:0:0:
475,192,69600,1,0,0:0:0:0:
109,192,69823,1,0,0:0:0:0:
402,192,70045,1,8,0:0:0:0:
36,192,70267,1,0,0:0:0:0:
182,192,70489,1,8,0:0:0:0:
329,192,70489,1,0,0:0:0:0:
475,192,70711,1,0,0:0:0:0:
109,192,70934,1,8,0:0:0:0:
402,192,71156,1,0,0:0:0:0:
182,192,71378,1,8,0:0:0:0:
36,192,71378,1,0,0:0:0:0:
256,192,71600,1,0,0:0:0:0:
329,192,71823,1,0,0:0:0:0:
402,192,71823,128,0,73600:0:0:0:0:
475,192,72045,1,0,0:0:0:0:
182,192,72267,1,8,0:0:0:0:
36,192,72267,1,0,0:0:0:0:
256,192,72378,1,0,0:0:0:0:
329,192,72489,1,0,0:0:0:0:
182,192,72711,1,8,0:0:0:0:
256,192,72823,1,0,0:0:0:0:
329,192,72934,1,0,0:0:0:0:
182,192,73156,1,8,0:0:0:0:
36,192,73156,1,4,0:0:0:0:
109,192,73600,1,8,0:0:0:0:
256,192,73600,1,4,0:0:0:0:
182,192,74045,1,8,0:0:0:0:
329,192,74045,1,8,0:0:0:0:
256,192,74489,1,8,0:0:0:0:
402,192,74489,1,8,0:0:0:0:
329,192,74934,1,8,0:0:0:0:
475,192,74934,1,8,0:0:0:0:
256,192,75156,1,8,0:0:0:0:
36,192,75378,128,12,77156:0:0:0:0:
402,192,75378,1,0,0:0:0:0:
182,192,75600,1,0,0:0:0:0:
329,192,75823,1,8,0:0:0:0:
475,192,75823,1,8,0:0:0:0:
182,192,76045,1,0,0:0:0:0:
109,192,76267,1,8,0:0:0:0:
256,192,76489,1,0,0:0:0:0:
329,192,76711,1,8,0:0:0:0:
475,192,76711,1,8,0:0:0:0:
182,192,76934,1,0,0:0:0:0:
402,192,77156,1,8,0:0:0:0:
256,192,77378,1,0,0:0:0:0:
475,192,77600,1,8,0:0:0:0:
329,192,77600,1,0,0:0:0:0:
256,192,77711,1,0,0:0:0:0:
182,192,77823,1,0,0:0:0:0:
109,192,77934,1,0,0:0:0:0:
36,192,78045,1,8,0:0:0:0:
256,192,78045,1,0,0:0:0:0:
109,192,78267,1,0,0:0:0:0:
329,192,78267,1,0,0:0:0:0:
182,192,78489,1,8,0:0:0:0:
402,192,78489,1,0,0:0:0:0:
256,192,78711,1,8,0:0:0:0:
475,192,78711,1,0,0:0:0:0:
329,192,78934,1,8,0:0:0:0:
109,192,79156,1,0,0:0:0:0:
329,192,79378,1,12,0:0:0:0:
475,192,79378,1,8,0:0:0:0:
36,192,79600,1,0,0:0:0:0:
182,192,79823,1,8,0:0:0:0:
329,192,80045,1,0,0:0:0:0:
182,192,80267,1,8,0:0:0:0:
36,192,80267,1,4,0:0:0:0:
109,192,80489,1,8,0:0:0:0:
256,192,80489,1,0,0:0:0:0:
182,192,80711,1,8,0:0:0:0:
329,192,80711,1,4,0:0:0:0:
475,192,80934,1,0,0:0:0:0:
182,192,81156,1,0,0:0:0:0:
36,192,81267,1,0,0:0:0:0:
329,192,81378,1,0,0:0:0:0:
475,192,81489,1,0,0:0:0:0:
402,192,81711,1,0,0:0:0:0:
256,192,81823,1,0,0:0:0:0:
182,192,82045,1,0,0:0:0:0:
36,192,82045,1,0,0:0:0:0:
256,192,82156,1,0,0:0:0:0:
329,192,82267,1,0,0:0:0:0:
402,192,82378,1,0,0:0:0:0:
475,192,82489,1,8,0:0:0:0:
256,192,82489,1,4,0:0:0:0:
36,192,82711,1,0,0:0:0:0:
109,192,82711,1,0,0:0:0:0:
256,192,82934,1,0,0:0:0:0:
402,192,82934,1,0,0:0:0:0:
475,192,83045,1,0,0:0:0:0:
182,192,83267,1,0,0:0:0:0:
36,192,83378,1,0,0:0:0:0:
329,192,83489,1,0,0:0:0:0:
475,192,83600,1,0,0:0:0:0:
256,192,83711,1,0,0:0:0:0:
109,192,83823,1,0,0:0:0:0:
329,192,83934,1,0,0:0:0:0:
182,192,84045,1,0,0:0:0:0:
402,192,84156,1,0,0:0:0:0:
256,192,84267,1,0,0:0:0:0:
36,192,84267,1,0,0:0:0:0:
329,192,84378,1,0,0:0:0:0:
402,192,84489,1,0,0:0:0:0:
475,192,84600,1,0,0:0:0:0:
182,192,84711,1,8,0:0:0:0:
36,192,84711,1,8,0:0:0:0:
329,192,84823,1,8,0:0:0:0:
182,192,84934,1,8,0:0:0:0:
36,192,84934,1,0,0:0:0:0:
329,192,85045,1,8,0:0:0:0:
182,192,85156,1,8,0:0:0:0:
36,192,85156,1,8,0:0:0:0:
256,192,85267,1,8,0:0:0:0:
329,192,85378,1,8,0:0:0:0:
475,192,85378,1,0,0:0:0:0:
256,192,85489,1,8,0:0:0:0:
329,192,85600,1,8,0:0:0:0:
475,192,85600,1,0,0:0:0:0:
256,192,85711,1,8,0:0:0:0:
182,192,85823,1,8,0:0:0:0:
36,192,85823,1,8,0:0:0:0:
402,192,85823,1,0,0:0:0:0:
256,192,85934,1,8,0:0:0:0:
329,192,86045,1,8,0:0:0:0:
475,192,86045,1,4,0:0:0:0:
109,192,86045,1,0,0:0:0:0:
