osu file format v5

[General]
AudioFilename: Princess Brave!.mp3
AudioLeadIn: 0
PreviewTime: -1
Countdown: 1
SampleSet: Normal

[Metadata]
Title:Princess Brave!
Artist:KOTOKO
Creator:James
Version:Normal

[Difficulty]
HPDrainRate:0
CircleSize:4
OverallDifficulty:4
SliderMultiplier:2.6
SliderTickRate:4

[Events]
//Background and Video events
//Break Periods
2,67297,75881
2,130763,136190
2,137710,145979
//Storyboard Layer 0 (Background)
//Storyboard Layer 1 (Failing)
//Storyboard Layer 2 (Passing)
//Storyboard Layer 3 (Foreground)
//Storyboard Sound Samples
//Background Colour Transformations
3,100,255,255,255

[TimingPoints]
1420,631.512472371329,4,1,0,100

[HitObjects]
56,56,11524,1,0
168,88,11839,2,0,B|216:96|296:160|328:248|240:296|104:336,2,390
152,184,14050,1,0
256,136,14366,2,0,B|362:87|464:200|400:328|248:368|144:344,1,455
64,360,15786,1,0
256,136,16576,5,0
136,136,16892,1,2
136,248,17207,1,0
136,248,17365,1,0
136,248,17523,1,2
256,248,17839,1,0
368,248,18155,1,2
480,248,18470,1,0
480,248,18628,1,0
480,248,18786,1,2
480,128,19102,5,0
408,40,19418,1,2
328,128,19733,1,0
248,40,20049,1,2
168,128,20365,1,0
88,40,20681,1,2
88,40,20839,1,2
88,40,20996,1,2
128,272,21628,6,0,B|416:272,3,260
384,72,24154,2,0,B|96:72,3,260
120,304,26680,1,2
120,304,26996,1,0
120,304,27312,1,2
352,304,27943,1,2
352,304,28259,1,0
352,304,28575,1,2
352,184,29206,5,0
232,184,29522,1,2
112,184,29838,1,0
112,64,30153,1,2
232,64,30469,1,0
352,64,30785,1,2
472,64,31101,1,2
472,184,31416,1,2
472,304,31732,5,0
240,304,32364,1,0
8,304,32995,1,0
16,72,33627,1,0
248,72,34258,1,0
480,72,34890,1,0
480,304,35521,1,0
248,304,36153,1,0
248,72,36784,5,0
128,72,37100,1,2
128,184,37416,1,0
128,184,37574,1,0
128,184,37731,1,2
128,304,38047,1,0
248,304,38363,1,2
248,184,38679,1,0
248,184,38837,1,0
248,184,38994,1,2
368,184,39310,5,0
368,64,39626,1,2
488,64,39942,1,0
488,64,40100,1,0
488,64,40258,1,2
488,184,40573,1,0
488,304,40889,1,2
368,304,41205,1,0
368,304,41363,1,0
368,304,41521,1,2
256,192,41836,12,4,44362
256,72,46257,6,0,B|256:160,3,65
256,256,47046,1,2
256,256,47204,1,2
136,256,47520,2,0,B|136:192,3,65
136,72,48309,1,2
136,72,48467,1,2
256,72,48783,2,0,B|296:72,3,65
440,72,49572,2,2,B|440:216|432:296|416:280|456:272|104:272,1,455
256,56,51309,6,0,B|256:128,3,65
256,240,52098,1,2
256,240,52256,1,2
376,240,52572,2,0,B|376:168,3,65
376,56,53361,1,2
376,56,53519,1,2
256,56,53835,2,0,B|176:56,3,65
72,56,54624,2,2,B|72:160|40:152|96:138|216:144|208:120|200:248,1,260
208,328,55572,1,6
392,104,56361,5,0
272,104,56677,1,0
272,224,56993,1,0
392,224,57308,1,0
392,104,57624,1,0
272,104,57940,1,0
272,224,58256,2,0,B|176:224,8,65
384,224,59834,1,0
384,104,60150,2,0,B|144:104,1,195
72,104,60940,1,0
72,104,61097,1,0
72,224,61413,5,0
192,224,61729,1,2
312,224,62045,1,0
424,224,62360,1,2
424,104,62676,1,0
424,104,62834,1,0
424,104,62992,1,2
312,104,63308,1,0
192,104,63623,1,2
72,104,63939,1,0
72,104,64097,1,0
72,104,64255,1,2
72,224,64571,5,0
72,224,64729,1,0
72,224,64887,1,2
72,336,65202,1,0
72,336,65360,1,0
72,336,65518,1,2
192,336,65834,1,0
192,336,65992,1,0
192,336,66150,1,2
304,336,66465,1,0
304,336,66623,1,0
304,336,66781,1,2
424,336,67097,1,4
176,48,77201,6,0,B|40:48|40:16|72:16|52:204|8:192|-10:229|336:146|232:141|183:135|151:356|200:352|215:320|152:320|344:320,1,585
432,320,78938,1,0
448,200,79253,1,0
464,48,79727,6,0,C|336:48|344:160|232:168|240:304|120:312,1,585
40,312,81464,1,0
40,312,81779,1,0
40,136,82253,5,0
160,136,82569,1,2
280,136,82885,1,0
280,136,83042,1,0
280,136,83200,1,2
280,256,83516,1,0
400,256,83832,1,2
400,136,84148,1,0
400,136,84306,1,0
400,136,84463,1,2
400,16,84779,5,0
280,16,85095,1,2
160,16,85411,1,0
160,16,85569,1,0
160,16,85726,1,2
160,136,86042,1,0
160,136,86200,1,0
160,136,86358,1,2
160,256,86674,1,0
160,256,86832,1,0
160,256,86989,1,2
256,256,87305,6,0,C|430:240|264:184|434:150|224:120,1,715
136,112,89358,1,0
136,288,89831,2,0,C|370:278|382:159|264:152|256:48,1,585
136,56,91568,1,0
136,56,91884,1,0
136,232,92357,5,0
256,232,92673,1,0
376,232,92989,1,0
288,80,93462,2,0,C|192:80,4,65
256,368,94883,5,0
256,248,95199,1,2
256,128,95515,1,0
256,8,95831,1,2
256,8,96146,5,0
256,128,96462,1,2
256,248,96778,1,0
256,368,97094,1,2
368,336,97409,5,0
368,104,98041,1,0
136,104,98672,1,0
136,336,99304,1,0
368,336,99935,1,0
368,104,100567,1,0
136,104,101198,1,0
136,336,101830,1,0
136,104,102461,5,0
368,104,103093,1,0
368,336,103725,1,0
136,336,104356,1,0
40,264,104672,2,2,C|111:46|300:105|272:296|452:324|480:72,1,1040
256,192,107514,12,4,110040
144,72,111934,2,0,C|224:72,3,65
328,72,112724,1,2
384,72,112881,1,2
384,192,113197,2,0,C|280:192,3,65
200,192,113987,1,2
144,192,114144,1,2
144,312,114460,2,0,C|224:312,3,65
328,312,115250,2,2,C|392:312,4,65
208,312,116197,1,2
392,88,116986,6,0,C|320:88,3,65
208,88,117776,1,2
152,88,117934,1,2
152,200,118249,2,0,C|240:200,3,65
336,200,119039,1,2
392,200,119197,1,2
392,312,119512,2,2,C|206:282|224:80,2,390
416,80,122038,5,0
296,80,122354,1,0
176,80,122670,1,0
232,184,122986,1,0
112,184,123301,1,0
168,288,123617,1,0
48,288,123933,2,2,C|40:152|56:64|176:32|328:32|440:40|488:40,1,650
464,160,125827,2,2,C|296:160|216:160|160:168|168:240|168:280,1,390
288,248,127090,1,0
288,248,127406,1,0
400,256,127722,2,2,C|472:104|420:70|272:72,1,325
216,72,128827,1,0
96,72,129143,2,2,C|64:240|96:304|224:312|456:312,1,585
256,192,137510,5,4
96,304,147299,6,0,C|320:304,1,195
408,304,148088,1,2
408,304,148246,1,2
416,184,148562,2,0,C|200:184,1,195
104,184,149351,1,2
104,184,149509,1,2
104,64,149825,2,0,C|320:64,1,195
416,64,150614,2,2,C|411:219|312:264|179:254,1,390
376,72,152351,5,0
376,72,152509,1,2
376,72,152667,1,0
376,72,152825,1,2
256,72,153140,1,2
256,72,153298,1,2
136,72,153614,5,0
136,72,153772,1,2
136,72,153930,1,0
136,72,154088,1,2
136,184,154403,1,2
136,184,154561,1,2
256,184,154877,5,0
256,184,155035,1,2
256,184,155193,1,0
256,184,155351,1,2
368,184,155666,1,0
368,184,155824,1,2
368,184,155982,1,0
368,184,156140,1,2
368,184,156298,1,0
368,184,156614,1,2
104,304,157403,5,0
216,328,157719,1,0
192,208,158035,1,0
304,224,158350,1,0
288,104,158666,1,0
392,56,158982,1,0
432,168,159298,2,0,C|416:312|194:303|59:303|56:160,1,650
64,48,161192,2,0,C|472:48,1,390
448,160,162455,5,0
328,160,162771,1,2
208,160,163087,1,0
88,168,163402,1,2
88,288,163718,1,0
88,288,163876,1,0
88,288,164034,1,2
208,288,164350,1,0
208,288,164508,1,0
208,288,164665,1,2
320,296,164981,1,0
320,296,165139,1,0
320,296,165297,1,2
440,288,165613,1,0
440,288,165771,1,0
440,288,165928,1,2
256,192,166244,12,0,167507
168,56,167823,2,0,C|340:55|306:156|193:143|192:328,2,585
256,192,170981,12,4,173191
