osu file format v12

[General]
AudioFilename: Presto.mp3
AudioLeadIn: 0
PreviewTime: 67095
Countdown: 0
SampleSet: Soft
StackLeniency: 0.7
Mode: 0
LetterboxInBreaks: 0
WidescreenStoryboard: 0

[Editor]
DistanceSpacing: 1.2
BeatDivisor: 2
GridSize: 4
TimelineZoom: 1.9

[Metadata]
Title:Presto
TitleUnicode:Presto
Artist:KOTOKO
ArtistUnicode:KOTOKO
Creator:[Minakami Yuki]
Version:Normal
Source:はつゆきさくら
Tags:hatsuyuki sakura eroge galgame opening SAGA PLANETS DarknessAngel konei
BeatmapID:357737
BeatmapSetID:142433

[Difficulty]
HPDrainRate:2
CircleSize:3
OverallDifficulty:3
ApproachRate:4
SliderMultiplier:1.2
SliderTickRate:1

[Events]
//Background and Video events
0,0,"bg1.jpg",0,0
//Break Periods
2,33474,39581
2,163897,170258
//Storyboard Layer 0 (Background)
//Storyboard Layer 1 (Fail)
//Storyboard Layer 2 (Pass)
//Storyboard Layer 3 (Foreground)
//Storyboard Sound Samples
//Background Colour Transformations
3,100,163,162,255
3,100,163,162,255

[TimingPoints]
732,508.474576271186,4,2,1,40,1,0
40901,-100,4,2,1,60,0,0
57935,-100,4,2,1,50,0,0
63782,-100,4,2,1,70,0,0
66325,-100,4,1,1,60,0,0
68104,508.474576271186,4,2,1,100,1,0
68104,-100,4,2,2,70,0,1
83866,-100,4,2,2,70,0,0
84375,-100,4,2,2,70,0,1
98612,-100,4,3,2,70,0,0
98866,-100,4,3,2,70,0,1
98993,-100,4,2,1,40,0,0
100392,-100,4,2,0,40,0,0
100646,-100,4,2,1,60,0,0
116917,-100,4,2,1,60,0,0
122765,-100,4,2,1,70,0,0
125307,-100,4,1,1,60,0,0
127087,-100,4,2,2,70,0,1
142849,-100,4,2,2,70,0,0
143358,-100,4,2,2,70,0,1
157595,-100,4,2,2,60,0,0
159629,-100,4,2,1,60,0,0
162680,-100,4,2,1,60,0,0
195985,-100,4,2,0,60,0,0
203612,-100,4,2,1,60,0,0
228527,-100,4,2,1,70,0,1
244798,-100,4,2,0,60,0,0

[Colours]
Combo1 : 255,155,255
Combo2 : 155,155,255
Combo3 : 255,143,89

[HitObjects]
96,97,16494,6,0,L|114:159,1,60,0|0,0:0|0:0,0:0:0:0:
155,212,17003,2,0,P|244:251|357:176,1,240,2|0,0:3|0:0,0:0:0:0:
243,93,18528,6,0,L|170:81,1,60
112,94,19037,2,0,P|39:155|52:289,1,240,2|0,0:3|0:0,0:0:0:0:
195,300,20562,6,0,L|188:233,1,60,0|0,0:0|0:0,0:0:0:0:
204,170,21070,2,0,P|284:90|400:135,1,240,2|0,0:3|0:0,0:0:0:0:
320,250,22596,6,0,L|248:276,1,60
192,267,23104,2,0,P|108:191|151:87,1,240,2|0,0:3|0:0,0:0:0:0:
288,45,24630,6,0,L|355:37,1,60,0|0,0:0|0:0,0:0:0:0:
413,67,25138,2,0,P|434:121|416:177,1,120,2|0,0:3|0:0,0:0:0:0:
368,233,25901,2,0,L|308:240,1,60,0|0,0:0|0:0,0:0:0:0:
193,152,26664,6,0,L|130:142,1,60,0|0,0:0|0:0,0:0:0:0:
63,159,27172,2,0,P|21:200|16:259,1,120,2|0,0:0|0:0,0:0:0:0:
47,323,27935,2,0,L|106:332,1,60,0|0,0:0|0:0,0:0:0:0:
246,298,28698,6,0,L|228:238,1,60,0|0,0:0|0:0,0:0:0:0:
241,169,29206,2,0,P|306:73|342:251,1,420,2|0,0:3|0:0,0:0:0:0:
256,192,31240,12,2,33274,0:0:0:0:
277,155,40901,6,0,L|292:217,1,60,8|8,0:0|0:0,0:0:0:0:
354,247,41409,1,4,0:0:0:0:
453,142,41918,2,0,L|438:83,2,60,0|8|0,0:0|0:0|0:0,0:0:0:0:
437,285,42935,6,0,L|382:330,1,60,0|8,0:0|0:0,0:0:0:0:
318,319,43443,1,0,0:0:0:0:
174,301,43952,2,0,L|119:346,2,60,0|8|0,0:0|0:0|0:0,0:0:0:0:
227,167,44969,6,0,L|239:98,2,60,0|8|0,0:0|0:0|0:0,0:0:0:0:
93,114,45986,1,0,0:0:0:0:
34,155,46240,2,0,L|23:214,1,60,8|0,0:0|0:0,0:0:0:0:
108,329,47003,6,0,L|187:342,2,60,0|8|0,0:0|0:0|0:0,0:0:0:0:
239,269,48020,2,0,L|318:282,2,60,0|8|0,0:0|0:0|0:0,0:0:0:0:
374,220,49037,5,0,0:0:0:0:
429,266,49291,2,0,L|424:332,1,60,8|4,0:0|0:0,0:0:0:0:
281,308,50054,2,0,L|285:248,2,60,0|8|0,0:0|0:0|0:0,0:0:0:0:
170,215,51070,6,0,L|165:274,2,60,0|8|0,0:0|0:0|0:0,0:0:0:0:
34,165,52087,1,0,0:0:0:0:
93,125,52342,2,0,L|97:65,1,60,8|0,0:0|0:0,0:0:0:0:
237,95,53104,6,0,L|282:55,1,60,0|8,0:0|0:0,0:0:0:0:
353,46,53613,2,0,P|430:95|440:187,1,180,2|8,0:0|0:0,0:0:0:0:
373,303,54884,2,0,L|387:366,2,60,8|0|8,0:0|0:0|0:0,0:0:0:0:
311,265,55647,6,0,P|229:252|156:326,1,180,2|8,0:0|0:0,0:0:0:0:
52,216,56918,2,0,L|68:273,2,60,8|0|8,0:0|0:0|0:0,0:0:0:0:
35,145,57681,1,8,0:0:0:0:
86,94,57935,6,0,L|270:111,1,180,2|0,0:0|0:0,0:0:0:0:
405,143,59206,2,0,P|423:213|398:264,1,120,0|2,0:0|0:0,0:0:0:0:
130,338,60731,2,0,L|89:156,1,180,0|8,0:0|0:0,0:0:0:0:
180,49,62003,6,0,L|363:75,1,180,2|0,0:0|0:0,0:0:0:0:
455,345,63782,6,0,P|429:262|454:176,1,180,4|8,1:0|0:0,0:0:0:0:
374,55,65054,2,0,L|305:37,2,60,8|0|8,0:0|0:0|0:0,0:0:0:0:
414,114,65816,1,4,1:0:0:0:
338,236,66325,6,0,L|354:297,2,60,0|0|0,0:0|0:0|0:0,0:0:0:0:
265,234,67087,1,0,0:0:0:0:
195,215,67342,2,0,L|163:269,2,60,0|0|0,0:0|0:0|0:0,0:0:0:0:
193,141,68104,6,0,P|296:88|405:129,1,240,4|8,0:0|0:0,0:0:0:0:
305,234,69629,1,8,0:0:0:0:
211,343,70137,6,0,P|95:329|28:234,1,240,10|8,0:0|0:0,0:0:0:0:
170,204,71663,1,8,0:0:0:0:
85,87,72171,6,0,L|14:67,2,60,12|0|8,0:0|0:0|0:0,0:0:0:0:
228,79,73188,2,0,P|287:76|355:105,1,120,8|8,0:0|0:0,0:0:0:0:
485,122,74205,6,0,L|502:57,2,60,10|0|8,0:0|0:0|0:0,0:0:0:0:
419,250,75222,2,0,P|359:252|303:231,1,120,8|8,0:0|0:0,0:0:0:0:
194,137,76239,6,0,P|165:189|166:250,1,120,12|8,0:0|0:0,0:0:0:0:
215,300,77002,1,0,0:0:0:0:
284,281,77256,2,0,P|313:229|312:168,1,120,8|8,0:0|0:0,0:0:0:0:
263,116,78019,1,0,0:0:0:0:
194,137,78273,6,0,P|135:151|64:134,2,120,10|8|8,0:0|0:0|0:0,0:0:0:0:
324,76,79798,1,8,0:0:0:0:
423,180,80307,6,0,P|427:238|396:288,2,120,12|8|8,0:0|0:0|0:0,0:0:0:0:
324,76,81832,1,8,0:0:0:0:
291,218,82341,6,0,L|274:293,2,60,10|0|8,0:0|0:0|0:0,0:0:0:0:
361,201,83103,1,0,0:0:0:0:
420,160,83358,2,0,L|479:181,2,60,8|0|8,0:0|0:0|0:0,0:0:0:0:
295,84,84375,6,0,P|180:74|95:154,1,240,12|8,0:0|0:0,0:0:0:0:
228,209,85900,1,8,0:0:0:0:
366,245,86409,6,0,P|448:163|441:46,1,240,8|8,0:0|0:0,0:0:0:0:
312,110,87934,1,8,0:0:0:0:
265,246,88442,6,0,L|280:320,2,60,10|0|8,0:0|0:0|0:0,0:0:0:0:
132,303,89459,2,0,L|119:365,2,60,8|0|8,0:0|0:0|0:0,0:0:0:0:
29,201,90476,6,0,P|19:125|48:80,1,120,12|8,0:0|0:0,0:0:0:0:
170,31,91493,1,8,0:0:0:0:
264,139,92002,2,0,L|345:155,1,60,8|0,0:0|0:0,0:0:0:0:
395,149,92510,6,0,P|417:95|403:37,1,120,12|8,0:0|0:0,0:0:0:0:
267,86,93527,2,0,P|244:140|258:198,1,120,8|8,0:0|0:0,0:0:0:0:
396,238,94544,6,0,B|445:265|489:244|489:244|481:268,1,120,10|8,0:0|0:0,0:0:0:0:
380,367,95561,2,0,B|331:340|287:361|287:361|295:337,1,120,8|8,0:0|0:0,0:0:0:0:
325,198,96578,6,0,L|345:142,2,60,8|0|8,0:0|0:0|0:0,0:0:0:0:
268,242,97341,1,0,0:0:0:0:
199,265,97595,2,0,L|143:245,2,60,8|0|8,0:0|0:0|0:0,0:0:0:0:
268,242,98358,1,0,0:0:0:0:
232,179,98612,6,0,L|206:125,1,60,4|4,0:0|0:0,0:0:0:0:
206,124,100392,5,4,0:0:0:0:
64,147,100900,2,0,L|52:211,2,60,0|8|0,0:0|0:0|0:0,0:0:0:0:
148,266,101917,5,0,0:0:0:0:
205,222,102171,2,0,L|282:240,1,60,8|0,0:0|0:0,0:0:0:0:
344,355,102934,2,0,L|285:341,2,60,0|8|0,0:0|0:0|0:0,0:0:0:0:
468,281,103951,6,0,L|453:209,1,60,0|8,0:0|0:0,0:0:0:0:
476,153,104459,1,0,0:0:0:0:
372,53,104968,2,0,L|384:111,2,60,0|8|0,0:0|0:0|0:0,0:0:0:0:
228,42,105985,6,0,L|165:47,2,60,0|8|0,0:0|0:0|0:0,0:0:0:0:
133,150,107002,2,0,L|192:145,2,60,0|8|0,0:0|0:0|0:0,0:0:0:0:
41,261,108019,6,0,L|45:320,1,60,0|8,0:0|0:0,0:0:0:0:
112,347,108527,1,4,0:0:0:0:
208,239,109036,2,0,L|267:234,2,60,0|8|0,0:0|0:0|0:0,0:0:0:0:
333,309,110053,6,0,L|374:252,1,60,0|8,0:0|0:0,0:0:0:0:
361,188,110561,1,2,0:0:0:0:
463,289,111070,2,0,L|427:337,2,60,0|8|0,0:0|0:0|0:0,0:0:0:0:
455,145,112087,6,0,L|405:93,1,60,0|8,0:0|0:0,0:0:0:0:
347,72,112595,2,0,B|270:66|231:139|231:139|198:94,1,180,4|8,0:0|0:0,0:0:0:0:
67,80,113866,2,0,L|1:110,2,60,0|0|8,0:0|0:0|0:0,0:0:0:0:
120,128,114629,6,0,B|179:209|179:209|216:229|259:220,1,180,2|8,0:0|0:0,0:0:0:0:
394,177,115900,2,0,P|400:147|415:121,2,60,0|0|8,0:0|0:0|0:0,0:0:0:0:
437,234,116663,1,0,0:0:0:0:
455,303,116917,6,0,P|373:339|283:338,1,180,4|0,0:0|0:0,0:0:0:0:
143,314,118188,2,0,P|84:314|34:345,1,120,0|2,0:0|0:0,0:0:0:0:
293,220,119714,2,0,P|315:131|273:41,1,180,0|8,0:0|0:0,0:0:0:0:
169,141,120985,6,0,P|172:229|233:302,1,180,2|0,0:0|0:0,0:0:0:0:
477,155,122765,6,0,P|391:174|310:139,1,180,4|8,0:0|0:0,0:0:0:0:
187,64,124036,2,0,L|135:27,2,60,8|0|8,0:0|0:0|0:0,0:0:0:0:
187,136,124798,1,4,0:0:0:0:
67,217,125307,6,0,L|22:266,2,60,0|0|0,0:0|0:0|0:0,0:0:0:0:
130,250,126070,1,0,0:0:0:0:
201,251,126324,2,0,L|219:320,2,60,0|0|0,0:0|0:0|0:0,0:0:0:0:
262,212,127087,6,0,B|315:150|269:44|269:44|335:71,1,240,12|8,0:0|0:0,0:0:0:0:
470,56,128612,1,8,0:0:0:0:
398,180,129120,6,0,B|345:242|391:348|391:348|325:321,1,240,10|8,0:0|0:0,0:0:0:0:
190,336,130646,1,8,0:0:0:0:
55,285,131154,6,0,L|19:213,2,60,12|0|8,0:0|0:0|0:0,0:0:0:0:
115,154,132171,2,0,L|58:38,1,120,8|8,0:0|0:0,0:0:0:0:
206,42,133188,6,0,L|279:57,2,60,10|0|8,0:0|0:0|0:0,0:0:0:0:
297,152,134205,2,0,L|428:180,1,120,8|8,0:0|0:0,0:0:0:0:
459,233,134968,1,0,0:0:0:0:
453,304,135222,6,0,P|395:329|329:316,1,120,12|8,0:0|0:0,0:0:0:0:
296,264,135985,1,0,0:0:0:0:
244,213,136239,2,0,P|185:205|131:230,1,120,8|8,0:0|0:0,0:0:0:0:
79,280,137002,1,0,0:0:0:0:
24,233,137256,6,0,L|32:92,2,120,10|8|8,0:0|0:0|0:0,0:0:0:0:
135,141,138781,1,8,0:0:0:0:
242,45,139290,2,0,L|101:37,2,120,12|8|8,0:0|0:0|0:0,0:0:0:0:
375,99,140815,1,8,0:0:0:0:
463,212,141324,6,0,L|499:155,2,60,10|0|8,0:0|0:0|0:0,0:0:0:0:
394,233,142087,1,0,0:0:0:0:
330,266,142341,2,0,L|297:316,2,60,8|0|8,0:0|0:0|0:0,0:0:0:0:
282,129,143358,6,0,P|190:74|66:118,1,240,12|8,0:0|0:0,0:0:0:0:
167,220,144883,1,8,0:0:0:0:
291,290,145392,6,0,P|359:196|475:186,1,240,10|8,0:0|0:0,0:0:0:0:
430,324,146917,1,8,0:0:0:0:
291,290,147426,6,0,L|225:309,2,60,10|0|8,0:0|0:0|0:0,0:0:0:0:
256,151,148442,2,0,L|189:133,2,60,8|0|8,0:0|0:0|0:0,0:0:0:0:
178,28,149459,6,0,P|124:51|90:99,1,120,12|8,0:0|0:0,0:0:0:0:
86,243,150476,1,8,0:0:0:0:
209,317,150985,2,0,L|291:329,1,60,8|0,0:0|0:0,0:0:0:0:
341,329,151493,6,0,L|464:286,1,120,12|8,0:0|0:0,0:0:0:0:
461,145,152510,2,0,L|347:184,1,120,8|8,0:0|0:0,0:0:0:0:
206,214,153527,6,0,P|146:214|96:183,1,120,10|8,0:0|0:0,0:0:0:0:
188,73,154544,2,0,P|247:72|297:103,1,120,8|8,0:0|0:0,0:0:0:0:
356,235,155561,6,0,L|380:309,2,60,8|0|8,0:0|0:0|0:0,0:0:0:0:
219,280,156578,2,0,L|243:354,2,60,8|0|8,0:0|0:0|0:0,0:0:0:0:
113,181,157595,6,0,L|89:107,2,60,12|0|8,0:0|0:0|0:0,0:0:0:0:
250,136,158612,2,0,L|226:62,2,60,8|0|8,0:0|0:0|0:0,0:0:0:0:
364,222,159629,6,0,P|422:224|471:190,1,120,2|8,0:0|0:0,0:0:0:0:
492,120,160392,1,0,0:0:0:0:
280,162,161154,2,0,L|275:221,2,60,8|0|0,0:0|0:0|0:0,0:0:0:0:
214,33,162171,1,8,0:0:0:0:
78,83,162680,6,0,L|67:202,1,120,2|8,0:0|0:0,0:0:0:0:
107,340,163697,1,0,0:0:0:0:
326,327,171578,6,0,P|386:194|325:62,1,300,4|0,0:0|0:0,0:0:0:0:
180,68,173358,1,8,0:0:0:0:
180,68,173612,6,0,P|120:201|181:333,1,300,2|0,0:0|0:0,0:0:0:0:
326,327,175392,1,8,0:0:0:0:
326,327,175646,6,0,B|372:262|494:303|494:303|456:243|482:191,1,300,2|0,0:0|0:0,0:0:0:0:
447,52,177426,1,8,0:0:0:0:
375,57,177680,6,0,L|319:107,1,60,2|0,0:0|0:0,0:0:0:0:
264,127,178188,2,0,L|245:193,2,60,0|8|0,0:0|0:0|0:0,0:0:0:0:
57,64,179459,1,8,0:0:0:0:
42,207,179968,6,0,P|48:265|89:307,1,120,10|8,0:0|0:0,0:0:0:0:
182,197,180985,2,0,P|175:138|134:96,1,120,8|8,0:0|0:0,0:0:0:0:
274,129,182002,6,0,P|280:187|321:229,1,120,8|8,0:0|0:0,0:0:0:0:
414,119,183019,2,0,P|407:60|366:18,1,120,8|8,0:0|0:0,0:0:0:0:
224,46,184036,6,0,B|128:62|128:62|114:80,1,120,12|8,0:0|0:0,0:0:0:0:
87,221,185053,2,0,B|183:205|183:205|196:186,1,120,8|8,0:0|0:0,0:0:0:0:
318,110,186070,6,0,B|354:131|354:131|365:208,1,120,10|8,0:0|0:0,0:0:0:0:
285,328,187087,2,0,B|249:307|249:307|237:229,1,120,8|8,0:0|0:0,0:0:0:0:
254,159,187849,1,0,0:0:0:0:
221,93,188103,6,0,P|109:75|39:166,1,240,12|8,0:0|0:0,0:0:0:0:
122,284,189629,2,0,L|163:345,1,60,8|0,0:0|0:0,0:0:0:0:
227,341,190137,6,0,P|339:359|409:268,1,240,10|8,0:0|0:0,0:0:0:0:
373,128,191663,2,0,L|332:67,1,60,8|0,0:0|0:0,0:0:0:0:
270,54,192171,6,0,P|212:47|158:71,1,120,12|8,0:0|0:0,0:0:0:0:
115,209,193188,2,0,P|173:216|227:192,1,120,0|8,0:0|0:0,0:0:0:0:
341,103,194205,6,0,L|369:162,1,60,10|0,0:0|0:0,0:0:0:0:
432,187,194714,2,0,L|410:248,1,60,8|0,0:0|0:0,0:0:0:0:
441,309,195222,2,0,L|495:283,2,60,8|0|8,0:0|0:0|0:0,0:0:0:0:
373,333,195985,6,0,P|284:340|206:288,1,180,4|8,0:0|0:0,0:0:0:0:
211,220,197002,1,0,0:0:0:0:
333,143,197510,2,0,L|349:85,1,60,0|8,0:0|0:0,0:0:0:0:
299,32,198019,6,0,P|212:24|145:80,1,180,2|8,0:0|0:0,0:0:0:0:
116,146,199036,1,0,0:0:0:0:
82,286,199544,2,0,L|142:335,1,60,8|8,0:0|0:0,0:0:0:0:
200,327,200053,6,0,P|270:286|366:315,1,180,2|8,0:0|0:0,0:0:0:0:
409,363,201070,1,0,0:0:0:0:
471,232,201578,2,0,L|479:157,1,60,0|8,0:0|0:0,0:0:0:0:
452,104,202087,6,0,B|396:64|396:64|332:80|287:53,1,180,2|8,0:0|0:0,0:0:0:0:
224,20,203103,1,0,0:0:0:0:
85,60,203612,6,0,L|97:122,1,60,8|8,0:0|0:0,0:0:0:0:
62,182,204120,1,4,0:0:0:0:
89,323,204629,2,0,L|159:349,2,60,0|8|0,0:0|0:0|0:0,0:0:0:0:
224,272,205646,6,0,L|294:298,1,60,0|8,0:0|0:0,0:0:0:0:
328,346,206154,1,2,0:0:0:0:
454,278,206663,2,0,L|464:203,2,60,0|8|0,0:0|0:0|0:0,0:0:0:0:
361,167,207680,5,8,0:0:0:0:
407,111,207934,2,0,L|417:36,1,60,8|2,0:0|0:0,0:0:0:0:
281,104,208697,2,0,L|273:163,2,60,0|8|0,0:0|0:0|0:0,0:0:0:0:
138,82,209714,6,0,L|65:105,2,60,0|8|2,0:0|0:0|0:0,0:0:0:0:
147,225,210731,2,0,L|74:248,2,60,0|8|0,0:0|0:0|0:0,0:0:0:0:
218,236,211493,6,0,L|275:217,2,60,0|8|0,0:0|0:0|0:0,0:0:0:0:
256,192,212256,12,8,215053,0:0:0:0:
300,230,215561,6,0,L|281:172,2,60,0|8|8,0:0|0:0|0:0,0:0:0:0:
256,192,216324,12,8,219120,0:0:0:0:
294,148,219629,6,0,L|236:166,2,60,0|8|8,0:0|0:0|0:0,0:0:0:0:
256,192,220392,12,8,223188,0:0:0:0:
212,154,223697,6,0,L|230:211,2,60,0|8|8,0:0|0:0|0:0,0:0:0:0:
256,192,224459,12,8,227256,0:0:0:0:
218,236,228019,6,0,L|275:217,1,60,8|8,0:0|0:0,0:0:0:0:
327,168,228527,1,4,0:0:0:0:
459,222,229036,2,0,L|479:292,2,60,0|8|0,0:0|0:0|0:0,0:0:0:0:
467,150,229798,1,0,0:0:0:0:
439,83,230053,6,0,L|377:58,2,60,0|8|2,0:0|0:0|0:0,0:0:0:0:
299,121,231070,1,0,0:0:0:0:
250,174,231324,2,0,L|243:244,1,60,8|0,0:0|0:0,0:0:0:0:
187,279,231832,1,0,0:0:0:0:
122,310,232087,6,0,L|49:300,2,60,8|8|2,0:0|0:0|0:0,0:0:0:0:
259,353,233103,1,0,0:0:0:0:
307,300,233358,2,0,L|366:308,2,60,8|0|0,0:0|0:0|0:0,0:0:0:0:
273,236,234120,6,0,L|213:227,2,60,0|8|2,0:0|0:0|0:0,0:0:0:0:
393,156,235137,2,0,L|384:215,2,60,0|8|0,0:0|0:0|0:0,0:0:0:0:
444,105,235900,1,0,0:0:0:0:
414,39,236154,6,0,L|354:31,1,60,8|8,0:0|0:0,0:0:0:0:
292,67,236663,1,4,0:0:0:0:
151,100,237171,2,0,L|91:92,2,60,0|8|0,0:0|0:0|0:0,0:0:0:0:
191,159,237934,1,0,0:0:0:0:
132,201,238188,6,0,L|122:278,1,60,0|8,0:0|0:0,0:0:0:0:
72,310,238697,1,2,0:0:0:0:
205,363,239205,2,0,L|264:370,2,60,0|8|0,0:0|0:0|0:0,0:0:0:0:
172,298,239968,1,0,0:0:0:0:
227,252,240222,6,0,L|291:198,1,60,8|8,0:0|0:0,0:0:0:0:
335,177,240731,2,0,L|394:184,1,60,2|0,0:0|0:0,0:0:0:0:
454,226,241239,2,0,L|466:289,2,60,0|8|0,0:0|0:0|0:0,0:0:0:0:
441,82,242256,6,0,L|375:58,1,60,0|8,0:0|0:0,0:0:0:0:
314,46,242765,2,0,P|228:86|202:171,1,180,2|8,0:0|0:0,0:0:0:0:
225,229,243781,1,0,0:0:0:0:
368,211,244290,1,8,0:0:0:0:
326,348,244798,6,0,P|223:320|151:357,1,180,4|8,0:0|0:0,0:0:0:0:
22,304,246070,2,0,L|10:182,1,120,0|8,0:0|0:0,0:0:0:0:
125,98,247087,6,0,L|136:217,1,120,2|8,0:0|0:0,0:0:0:0:
265,280,248103,2,0,L|341:296,1,60,0|8,0:0|0:0,0:0:0:0:
396,302,248612,6,0,P|449:255|396:92,1,240,8|8,0:0|0:0,0:0:0:0:
280,63,250137,1,0,0:0:0:0:
153,131,250646,2,0,L|137:209,1,60,8|2,0:0|0:0,0:0:0:0:
243,291,251409,2,0,L|255:232,2,60,0|8|0,0:0|0:0|0:0,0:0:0:0:
278,354,252171,6,0,L|334:335,2,60,0|8|8,0:0|0:0|0:0,0:0:0:0:
205,354,252934,2,0,P|118:341|59:271,1,180,4|8,0:0|0:0,0:0:0:0:
190,213,254205,2,0,L|317:165,1,120,0|8,0:0|0:0,0:0:0:0:
429,238,255222,6,0,L|302:286,1,120,2|8,0:0|0:0,0:0:0:0:
172,273,256239,2,0,L|124:218,1,60,0|8,0:0|0:0,0:0:0:0:
99,164,256748,6,0,B|111:115|165:89|165:89|237:112|317:75,1,240,8|8,0:0|0:0,0:0:0:0:
437,41,258273,1,0,0:0:0:0:
462,181,258781,2,0,L|454:245,1,60,8|4,0:0|0:0,0:0:0:0:
310,244,259544,6,0,L|302:308,2,60,0|8|0,0:0|0:0|0:0,0:0:0:0:
269,184,260307,2,0,L|208:162,1,60,0|8,0:0|0:0,0:0:0:0:
155,120,260815,1,8,0:0:0:0:
145,48,261070,5,4,0:0:0:0:
