osu file format v12

[General]
AudioFilename: Presto.mp3
AudioLeadIn: 0
PreviewTime: 67095
Countdown: 0
SampleSet: Soft
StackLeniency: 0.7
Mode: 0
LetterboxInBreaks: 0
WidescreenStoryboard: 0

[Editor]
Bookmarks: 258520
DistanceSpacing: 1.2
BeatDivisor: 4
GridSize: 4
TimelineZoom: 1

[Metadata]
Title:Presto
TitleUnicode:Presto
Artist:KOTOKO
ArtistUnicode:KOTOKO
Creator:[Minakami Yuki]
Version:Hard
Source:はつゆきさくら
Tags:hatsuyuki sakura eroge galgame opening SAGA PLANETS DarknessAngel konei
BeatmapID:354687
BeatmapSetID:142433

[Difficulty]
HPDrainRate:6
CircleSize:4
OverallDifficulty:6
ApproachRate:7
SliderMultiplier:1.6
SliderTickRate:2

[Events]
//Background and Video events
0,0,"bg1.jpg",0,0
//Break Periods
2,33474,40001
2,163897,170678
//Storyboard Layer 0 (Background)
//Storyboard Layer 1 (Fail)
//Storyboard Layer 2 (Pass)
//Storyboard Layer 3 (Foreground)
//Storyboard Sound Samples
//Background Colour Transformations
3,100,163,162,255

[TimingPoints]
732,508.474576271186,4,2,1,40,1,0
33274,-100,4,2,1,60,0,0
57935,-133.333333333333,4,2,1,50,0,0
63782,-100,4,2,1,70,0,0
66325,-100,4,1,1,60,0,0
68104,508.474576271186,4,2,1,40,1,0
68104,-83.3333333333333,4,2,2,70,0,1
76493,-83.3333333333333,4,2,1,70,0,1
76748,-83.3333333333333,4,2,2,70,0,1
77510,-83.3333333333333,4,2,1,70,0,1
77765,-83.3333333333333,4,2,2,70,0,1
80561,-83.3333333333333,4,2,1,70,0,1
80688,-83.3333333333333,4,2,2,70,0,1
81578,-83.3333333333333,4,2,1,70,0,1
81705,-83.3333333333333,4,2,2,70,0,1
83866,-83.3333333333333,4,2,2,70,0,0
84375,-83.3333333333333,4,2,2,70,0,1
92765,-83.3333333333333,4,2,1,70,0,1
92892,-83.3333333333333,4,2,2,70,0,1
93781,-83.3333333333333,4,2,1,70,0,1
93909,-83.3333333333333,4,2,2,70,0,1
98612,-100,4,3,2,70,0,0
98866,-100,4,3,2,70,0,1
98993,-100,4,2,1,40,0,0
100392,-100,4,2,1,60,0,0
116917,-133.333333333333,4,2,1,60,0,0
122765,-100,4,2,1,70,0,0
125307,-100,4,1,1,60,0,0
127087,-83.3333333333333,4,2,2,70,0,1
135476,-83.3333333333333,4,2,1,70,0,1
135603,-83.3333333333333,4,2,2,70,0,1
136493,-83.3333333333333,4,2,1,70,0,1
136620,-83.3333333333333,4,2,2,70,0,1
139544,-83.3333333333333,4,2,1,70,0,1
139671,-83.3333333333333,4,2,2,70,0,1
140561,-83.3333333333333,4,2,1,70,0,1
140688,-83.3333333333333,4,2,2,70,0,1
142849,-83.3333333333333,4,2,2,70,0,0
143358,-83.3333333333333,4,2,2,70,0,1
151748,-83.3333333333333,4,2,1,70,0,1
151875,-83.3333333333333,4,2,2,70,0,1
152765,-83.3333333333333,4,2,1,70,0,1
152892,-83.3333333333333,4,2,2,70,0,1
157595,-100,4,2,2,60,0,0
159629,-133.333333333333,4,2,1,60,0,0
162680,-100,4,2,1,60,0,0
184036,-100,4,2,0,60,0,0
184163,-100,4,2,1,60,0,0
188103,-100,4,2,0,60,0,0
188231,-100,4,2,1,60,0,0
190137,-100,4,2,0,60,0,0
190265,-100,4,2,1,60,0,0
192171,-100,4,2,0,60,0,0
192298,-100,4,2,1,60,0,0
195985,-133.333333333333,4,2,0,60,0,0
203612,-100,4,2,1,60,0,0
228527,-83.3333333333333,4,2,1,70,0,1
244798,-100,4,2,0,60,0,0

[Colours]
Combo1 : 255,155,255
Combo2 : 155,155,255
Combo3 : 255,143,89

[HitObjects]
81,87,16494,5,0,0:0:0:0:
157,62,16748,1,0,0:0:0:0:
237,63,17003,6,0,P|282:74|306:99,1,80,2|0,0:3|0:0,0:0:0:0:
239,142,17511,1,0,0:0:0:0:
311,175,17765,1,0,0:0:0:0:
391,174,18020,2,0,P|436:161|463:132,1,80
391,94,18528,6,0,L|355:14,2,80,0|0|2,0:0|0:0|0:0,0:0:0:0:
391,174,19291,1,0,0:0:0:0:
401,253,19545,2,0,L|434:333,2,80
326,222,20308,1,0,0:0:0:0:
248,202,20562,1,0,0:0:0:0:
170,219,20816,1,0,0:0:0:0:
94,246,21070,6,0,L|124:322,1,80,2|0,0:0|0:0,0:0:0:0:
170,219,21579,2,0,L|140:135,1,80
81,93,22087,1,0,0:0:0:0:
42,163,22342,1,0,0:0:0:0:
65,239,22596,2,0,L|116:306,1,80
178,349,23104,6,0,P|216:358|263:350,1,80,2|0,0:0|0:0,0:0:0:0:
326,314,23613,1,0,0:0:0:0:
365,244,23867,1,0,0:0:0:0:
342,168,24121,2,0,L|291:101,1,80
228,58,24630,1,0,0:0:0:0:
149,74,24884,1,0,0:0:0:0:
81,116,25138,6,0,P|69:170|76:199,1,80,2|0,0:3|0:0,0:0:0:0:
122,257,25647,2,0,L|214:273,1,80
280,261,26155,2,0,P|292:207|285:178,1,80
222,136,26664,1,0,0:0:0:0:
206,214,26918,1,0,0:0:0:0:
287,183,27172,6,0,P|324:171|363:177,1,80,2|0,0:0|0:0,0:0:0:0:
432,218,27681,1,0,0:0:0:0:
448,296,27935,1,0,0:0:0:0:
390,352,28189,2,0,P|352:364|313:357,1,80
246,314,28698,1,0,0:0:0:0:
246,314,28952,1,0,0:0:0:0:
315,359,29206,6,0,B|332:367|368:366|389:353|389:353|386:293|430:229|473:229,1,240,2|0,0:0|0:0,0:0:0:0:
507,157,30223,1,0,0:0:0:0:
472,83,30477,2,0,P|399:54|323:72,1,160,2|0,0:0|0:2,0:2:0:0:
270,133,31240,5,2,0:0:0:0:
270,133,31367,1,0,0:0:0:0:
270,133,31494,2,0,P|287:218|231:277,1,160
133,251,32257,2,0,P|116:166|172:107,1,160,2|0,0:0|0:0,0:0:0:0:
202,192,33020,1,0,0:0:0:0:
176,316,33274,5,2,0:0:0:0:
331,58,40901,5,8,0:0:0:0:
331,58,41155,1,8,0:0:0:0:
385,136,41409,6,0,L|380:222,1,80,4|0,0:0|0:0,0:0:0:0:
418,304,41918,2,0,P|454:348|482:358,2,80,2|8|0,0:0|0:0|0:0,0:0:0:0:
418,304,42935,1,2,0:0:0:0:
326,275,43189,1,8,0:0:0:0:
230,266,43443,6,0,P|192:264|153:281,1,80
90,352,43952,2,0,P|53:368|14:365,2,80,2|8|0,0:0|0:0|0:0,0:0:0:0:
37,271,44715,1,0,0:0:0:0:
19,176,44969,1,2,0:0:0:0:
50,85,45223,1,8,0:0:0:0:
141,54,45477,6,0,L|239:77,1,80
265,155,45986,2,0,P|276:192|268:239,2,80,2|8|0,0:0|0:0|0:0,0:0:0:0:
265,155,47003,1,2,0:0:0:0:
177,195,47257,1,8,0:0:0:0:
180,290,47511,6,0,P|213:311|252:317,1,80
327,257,48020,2,0,P|366:262|399:284,2,80,2|8|0,0:0|0:0|0:0,0:0:0:0:
333,353,48782,1,0,0:0:0:0:
425,379,49037,1,2,0:0:0:0:
500,318,49291,1,8,0:0:0:0:
507,222,49545,6,0,L|497:140,1,80,4|0,0:0|0:0,0:0:0:0:
439,65,50054,2,0,P|402:50|362:55,2,80,2|8|0,0:0|0:0|0:0,0:0:0:0:
439,65,51070,1,2,0:0:0:0:
391,148,51325,1,8,0:0:0:0:
317,86,51579,6,0,L|231:96,1,80
142,104,52087,1,2,0:0:0:0:
114,195,52342,1,8,0:0:0:0:
176,269,52596,2,0,P|212:292|248:294,1,80
339,263,53104,1,2,0:0:0:0:
339,263,53359,1,8,0:0:0:0:
249,294,53613,6,0,B|227:297|193:291|175:265|175:265|147:233|104:227|54:239|24:290,1,240,2|8,0:0|0:0,0:0:0:0:
111,333,54630,1,0,0:0:0:0:
102,237,54884,2,0,B|91:165|24:158|24:158|55:117,1,160,8|8,0:0|0:0,0:0:0:0:
136,91,55647,5,0,0:0:0:0:
136,91,55774,1,0,0:0:0:0:
136,91,55901,2,0,P|174:100|213:92,1,80,0|8,0:0|0:0,0:0:0:0:
287,31,56409,2,0,P|325:23|364:32,1,80,8|8,0:0|0:0,0:0:0:0:
417,112,56918,1,0,0:0:0:0:
385,203,57172,1,8,0:0:0:0:
475,234,57426,1,8,0:0:0:0:
507,143,57681,1,8,0:0:0:0:
385,203,57935,6,0,L|343:324,1,120.000004577637,2|8,0:0|0:0,0:0:0:0:
401,361,58698,1,0,0:0:0:0:
259,331,59206,1,0,0:0:0:0:
231,264,59460,1,8,0:0:0:0:
228,192,59715,6,0,P|244:143|320:118,1,120.000004577637,2|0,0:0|0:0,0:0:0:0:
300,187,60477,1,8,0:0:0:0:
228,192,60731,2,0,P|179:175|154:99,1,120.000004577637
189,55,61494,1,8,0:0:0:0:
228,115,61748,5,0,0:0:0:0:
174,162,62003,2,0,L|113:211,2,60.0000022888184,2|0|8,0:0|0:0|0:0,0:0:0:0:
242,185,62765,2,0,P|285:191|354:157,1,120.000004577637,2|0,0:0|0:0,0:0:0:0:
400,105,63528,1,8,0:0:0:0:
400,105,63782,6,0,P|446:161|430:251,1,160,4|0,1:0|0:0,0:0:0:0:
374,318,64545,1,8,0:0:0:0:
278,325,64799,1,0,0:0:0:0:
278,325,64926,1,0,0:0:0:0:
278,325,65054,2,0,L|196:310,1,80,8|0,0:0|0:0,0:0:0:0:
123,251,65562,1,8,0:0:0:0:
42,302,65816,2,0,P|20:333|19:381,1,80,4|0,1:0|0:0,0:0:0:0:
112,363,66325,5,0,0:0:0:0:
204,337,66579,1,0,0:0:0:0:
256,256,66833,1,0,0:0:0:0:
267,161,67087,2,0,L|243:82,1,80
349,220,67596,2,0,L|372:296,1,80
256,256,68104,6,0,P|197:239|163:242,2,95.9999970703126,4|0|8,0:0|0:0|0:0,0:0:0:0:
346,289,68866,2,0,P|439:281|498:209,1,191.999994140625
489,112,69629,2,0,P|466:71|428:42,1,95.9999970703126,8|0,0:0|0:0,0:0:0:0:
397,133,70137,5,10,0:0:0:0:
319,190,70392,1,0,0:0:0:0:
227,158,70646,1,8,0:0:0:0:
146,211,70900,2,0,P|135:120|206:61,1,191.999994140625
291,102,71663,2,0,P|316:142|318:190,1,95.9999970703126,8|0,0:0|0:0,0:0:0:0:
261,264,72171,5,12,0:0:0:0:
286,356,72426,1,0,0:0:0:0:
354,288,72680,1,8,0:0:0:0:
261,264,72934,2,0,P|214:266|169:282,1,95.9999970703126,0|8,0:0|0:0,0:0:0:0:
91,339,73442,2,0,P|46:355|-1:356,2,95.9999970703126,0|8|0,0:0|0:0|0:0,0:0:0:0:
143,258,74205,5,10,0:0:0:0:
154,162,74459,2,0,L|130:66,1,95.9999970703126,0|8,0:0|0:0,0:0:0:0:
43,108,74968,2,0,L|66:201,1,95.9999970703126,0|8,0:0|0:0,0:0:0:0:
143,258,75476,1,0,0:0:0:0:
232,222,75731,1,8,0:0:0:0:
324,247,75985,1,0,0:0:0:0:
415,212,76239,6,0,P|459:140|436:35,1,191.999994140625,12|8,0:0|0:0,0:0:0:0:
346,14,77002,1,0,0:0:0:0:
256,48,77256,2,0,P|212:120|235:225,1,191.999994140625,8|8,0:0|0:0,0:0:0:0:
152,293,78019,1,0,0:0:0:0:
152,293,78146,1,0,0:0:0:0:
152,293,78273,6,0,P|105:299|62:278,1,95.9999970703126,10|0,0:0|0:0,0:0:0:0:
21,192,78781,1,8,0:0:0:0:
62,105,79036,2,0,P|105:84|152:91,1,95.9999970703126,0|8,0:0|0:0,0:0:0:0:
224,154,79544,1,0,0:0:0:0:
263,241,79798,2,0,L|272:340,1,95.9999970703126,8|0,0:0|0:0,0:0:0:0:
482,185,80307,6,0,P|404:134|317:165,1,191.999994140625,12|8,0:0|0:0,0:0:0:0:
299,259,81070,1,0,0:0:0:0:
391,233,81324,2,0,P|396:152|310:77,1,191.999994140625,8|8,0:0|0:0,0:0:0:0:
228,108,82087,1,0,0:0:0:0:
228,108,82214,1,0,0:0:0:0:
228,108,82341,6,0,P|179:87|152:51,1,95.9999970703126,10|0,0:0|0:0,0:0:0:0:
241,15,82849,1,8,0:0:0:0:
313,77,83103,2,0,L|329:177,1,95.9999970703126,0|8,0:0|0:0,0:0:0:0:
404,230,83612,1,0,0:0:0:0:
476,167,83866,1,8,0:0:0:0:
456,73,84120,1,0,0:0:0:0:
313,77,84375,6,0,P|348:124|403:134,2,95.9999970703126,12|0|8,0:0|0:0|0:0,0:0:0:0:
223,41,85137,2,0,P|154:42|59:129,1,191.999994140625
108,203,85900,2,0,P|125:258|112:310,1,95.9999970703126,8|0,0:0|0:0,0:0:0:0:
29,260,86409,5,8,0:0:0:0:
108,203,86663,1,0,0:0:0:0:
203,217,86917,1,8,0:0:0:0:
278,275,87171,2,0,P|355:288|443:225,1,191.999994140625
494,142,87934,2,0,P|450:126|404:135,1,95.9999970703126,8|0,0:0|0:0,0:0:0:0:
348,213,88442,5,12,0:0:0:0:
443,224,88697,1,0,0:0:0:0:
494,142,88951,1,8,0:0:0:0:
442,62,89205,2,0,P|409:94|399:141,1,95.9999970703126,0|8,0:0|0:0,0:0:0:0:
443,225,89714,2,0,P|433:271|399:304,2,95.9999970703126,0|8|0,0:0|0:0|0:0,0:0:0:0:
309,339,90476,6,0,L|209:325,1,95.9999970703126,12|0,0:0|0:0,0:0:0:0:
138,266,90985,1,8,0:0:0:0:
59,209,91239,2,0,P|39:251|46:298,1,95.9999970703126,0|8,0:0|0:0,0:0:0:0:
123,356,91748,1,0,0:0:0:0:
213,325,92002,2,0,P|233:282|226:235,1,95.9999970703126,8|0,0:0|0:0,0:0:0:0:
167,76,92510,6,0,L|138:266,1,191.999994140625,12|8,0:0|0:0,0:0:0:0:
231,290,93273,1,0,0:0:0:0:
207,195,93527,2,0,P|118:171|46:231,1,191.999994140625,8|8,0:0|0:0,0:0:0:0:
138,266,94290,1,0,0:0:0:0:
231,290,94544,6,0,P|289:286|322:265,1,95.9999970703126,10|0,0:0|0:0,0:0:0:0:
364,351,95053,2,0,P|402:307|410:268,1,95.9999970703126,8|0,0:0|0:0,0:0:0:0:
503,294,95561,2,0,P|498:236|478:203,1,95.9999970703126,8|0,0:0|0:0,0:0:0:0:
411,136,96070,2,0,P|388:94|387:46,1,95.9999970703126,8|0,0:0|0:0,0:0:0:0:
292,33,96578,6,0,P|246:46|212:79,1,95.9999970703126,8|0,0:0|0:0,0:0:0:0:
145,11,97087,2,0,P|122:52|121:100,1,95.9999970703126,8|0,0:0|0:0,0:0:0:0:
25,100,97595,2,0,P|38:145|71:179,1,95.9999970703126,8|0,0:0|0:0,0:0:0:0:
2,245,98103,2,0,P|43:267|91:268,1,95.9999970703126,8|0,0:0|0:0,0:0:0:0:
184,242,98612,5,4,0:0:0:0:
262,186,98866,1,4,0:0:0:0:
262,186,99883,5,0,0:0:0:0:
184,242,100137,1,0,0:0:0:0:
354,212,100392,6,0,P|389:228|429:231,1,80,4|0,0:0|0:0,0:0:0:0:
495,159,100900,2,0,P|505:121|497:82,2,80,0|8|0,0:0|0:0|0:0,0:0:0:0:
408,118,101663,1,0,0:0:0:0:
390,212,101917,1,0,0:0:0:0:
317,151,102171,1,8,0:0:0:0:
226,119,102426,6,0,P|220:159|232:197,1,80,2|0,0:0|0:0,0:0:0:0:
194,285,102934,2,0,P|155:296|116:290,2,80,0|8|0,0:0|0:0|0:0,0:0:0:0:
279,241,103697,1,0,0:0:0:0:
369,209,103951,2,0,P|407:197|446:203,1,80,0|8,0:0|0:0,0:0:0:0:
413,294,104459,6,0,P|374:305|335:299,1,80,2|0,0:0|0:0,0:0:0:0:
241,277,104968,2,0,P|210:315|204:355,2,80,0|8|0,0:0|0:0|0:0,0:0:0:0:
317,218,105731,1,0,0:0:0:0:
389,155,105985,6,0,P|408:108|404:72,2,80,0|8|0,0:0|0:0|0:0,0:0:0:0:
311,97,106748,1,0,0:0:0:0:
226,52,107002,2,0,P|179:33|143:37,2,80,0|8|0,0:0|0:0|0:0,0:0:0:0:
168,130,107765,1,0,0:0:0:0:
60,181,108019,2,0,L|75:103,1,80,0|8,0:0|0:0,0:0:0:0:
43,337,108527,6,0,P|120:350|190:315,1,160,6|0,0:0|0:0,0:0:0:0:
238,232,109290,1,8,0:0:0:0:
324,273,109544,1,0,0:0:0:0:
418,257,109798,1,0,0:0:0:0:
476,333,110053,2,0,P|441:351|401:350,1,80,0|8,0:0|0:0,0:0:0:0:
321,297,110561,6,0,P|321:215|382:159,1,160,2|0,0:0|0:0,0:0:0:0:
468,175,111324,1,8,0:0:0:0:
418,257,111578,1,0,0:0:0:0:
327,224,111832,1,0,0:0:0:0:
230,230,112087,2,0,P|192:238|159:261,1,80,0|8,0:0|0:0,0:0:0:0:
13,265,112595,6,0,P|87:291|159:261,1,160,4|0,0:0|0:0,0:0:0:0:
203,175,113358,1,8,0:0:0:0:
246,88,113612,2,0,P|283:77|323:83,1,80
400,149,114120,2,0,P|390:187|396:227,1,80,0|8,0:0|0:0,0:0:0:0:
426,319,114629,1,0,0:0:0:0:
426,319,114756,1,0,0:0:0:0:
426,319,114883,6,0,P|470:333|511:325,1,80,2|0,0:0|0:0,0:0:0:0:
472,237,115392,2,0,P|428:223|387:231,1,80,8|0,0:0|0:0,0:0:0:0:
302,252,115900,1,0,0:0:0:0:
233,319,116154,1,0,0:0:0:0:
184,236,116409,1,8,0:0:0:0:
115,303,116663,1,8,0:0:0:0:
233,319,116917,6,0,L|108:302,1,120.000004577637,4|8,0:0|0:0,0:0:0:0:
54,343,117680,1,0,0:0:0:0:
45,199,118188,1,0,0:0:0:0:
75,133,118442,1,8,0:0:0:0:
131,87,118697,6,0,P|187:71|237:101,1,120.000004577637,2|0,0:0|0:0,0:0:0:0:
272,164,119459,1,8,0:0:0:0:
261,235,119714,2,0,P|317:218|343:166,1,120.000004577637
334,95,120476,1,8,0:0:0:0:
395,57,120731,1,0,0:0:0:0:
464,77,120985,6,0,L|505:132,2,60.0000022888184,2|0|8,0:0|0:0|0:0,0:0:0:0:
395,57,121748,2,0,P|342:38|272:57,1,120.000004577637,2|0,0:0|0:0,0:0:0:0:
221,91,122510,1,8,0:0:0:0:
221,91,122765,6,0,L|212:193,1,80,4|0,0:0|0:0,0:0:0:0:
209,266,123273,1,0,0:0:0:0:
300,237,123527,1,8,0:0:0:0:
295,332,123781,1,0,0:0:0:0:
295,332,123909,1,0,0:0:0:0:
295,332,124036,2,0,L|389:351,1,80,8|0,0:0|0:0,0:0:0:0:
469,338,124544,1,8,0:0:0:0:
499,245,124798,2,0,P|508:207|500:168,1,80,4|0,0:0|0:0,0:0:0:0:
456,82,125307,5,0,0:0:0:0:
372,35,125561,1,0,0:0:0:0:
276,24,125815,1,0,0:0:0:0:
191,68,126070,2,0,L|174:160,1,80
71,257,126578,2,0,L|86:179,1,80
182,332,127087,6,0,P|142:357|95:353,2,95.9999970703126,12|0|8,0:0|0:0|0:0,0:0:0:0:
255,269,127849,2,0,P|325:230|439:253,1,191.999994140625
484,328,128612,2,0,P|443:341|390:333,1,95.9999970703126,8|0,0:0|0:0,0:0:0:0:
431,248,129120,5,10,0:0:0:0:
490,172,129375,1,0,0:0:0:0:
414,112,129629,1,8,0:0:0:0:
362,193,129883,2,0,P|320:123|370:26,1,191.999994140625
459,32,130646,2,0,P|447:78|414:111,1,95.9999970703126,8|0,0:0|0:0,0:0:0:0:
318,113,131154,5,12,0:0:0:0:
236,62,131409,1,0,0:0:0:0:
144,91,131663,1,8,0:0:0:0:
50,69,131917,2,0,P|49:116|74:156,1,95.9999970703126,0|8,0:0|0:0,0:0:0:0:
150,215,132426,2,0,P|184:247|195:293,2,95.9999970703126,0|8|0,0:0|0:0|0:0,0:0:0:0:
96,294,133188,5,10,0:0:0:0:
45,212,133442,2,0,L|81:110,1,95.9999970703126,0|8,0:0|0:0,0:0:0:0:
193,61,133951,2,0,L|162:152,1,95.9999970703126,0|8,0:0|0:0,0:0:0:0:
196,241,134459,1,0,0:0:0:0:
275,294,134714,1,8,0:0:0:0:
370,301,134968,1,0,0:0:0:0:
442,238,135222,6,0,P|368:178|275:182,1,191.999994140625,12|8,0:0|0:0,0:0:0:0:
196,241,135985,1,0,0:0:0:0:
100,255,136239,2,0,P|40:181|44:88,1,191.999994140625,8|8,0:0|0:0,0:0:0:0:
124,35,137002,1,0,0:0:0:0:
124,35,137129,1,0,0:0:0:0:
124,35,137256,6,0,P|167:54|192:94,1,95.9999970703126,10|0,0:0|0:0,0:0:0:0:
256,165,137765,1,8,0:0:0:0:
319,94,138019,2,0,P|344:54|388:35,1,95.9999970703126,0|8,0:0|0:0,0:0:0:0:
411,128,138527,1,0,0:0:0:0:
346,197,138781,2,0,L|256:165,1,95.9999970703126,8|0,0:0|0:0,0:0:0:0:
103,239,139290,6,0,P|162:167|256:165,1,191.999994140625,12|8,0:0|0:0,0:0:0:0:
209,265,140053,1,0,0:0:0:0:
103,239,140307,2,0,P|31:179|28:86,1,191.999994140625,8|8,0:0|0:0,0:0:0:0:
110,35,141070,1,0,0:0:0:0:
110,35,141197,1,0,0:0:0:0:
110,35,141324,6,0,L|195:93,1,95.9999970703126,10|0,0:0|0:0,0:0:0:0:
229,176,141832,1,8,0:0:0:0:
221,271,142087,2,0,P|177:322|132:327,1,95.9999970703126,0|8,0:0|0:0,0:0:0:0:
56,309,142595,1,0,0:0:0:0:
40,214,142849,1,8,0:0:0:0:
105,143,143103,1,0,0:0:0:0:
229,241,143358,6,0,P|275:231|313:202,2,95.9999970703126,12|0|8,0:0|0:0|0:0,0:0:0:0:
240,145,144120,2,0,P|330:113|403:180,1,191.999994140625
428,259,144883,2,0,P|421:306|393:343,1,95.9999970703126,8|0,0:0|0:0,0:0:0:0:
298,356,145392,5,10,0:0:0:0:
238,280,145646,1,0,0:0:0:0:
333,268,145900,1,8,0:0:0:0:
273,192,146154,2,0,P|192:198|141:293,1,191.999994140625
62,342,146917,2,0,P|37:302|39:245,1,95.9999970703126,8|0,0:0|0:0,0:0:0:0:
117,203,147426,5,10,0:0:0:0:
210,222,147680,1,0,0:0:0:0:
278,154,147934,1,8,0:0:0:0:
246,62,148188,2,0,P|205:38|158:37,1,95.9999970703126,0|8,0:0|0:0,0:0:0:0:
71,80,148697,2,0,P|56:124|66:170,2,95.9999970703126,0|8|0,0:0|0:0|0:0,0:0:0:0:
137,236,149459,6,0,P|147:282|131:326,1,95.9999970703126,12|0,0:0|0:0,0:0:0:0:
49,276,149968,1,8,0:0:0:0:
58,180,150222,2,0,P|97:146|148:142,1,95.9999970703126,0|8,0:0|0:0,0:0:0:0:
232,162,150731,1,0,0:0:0:0:
324,186,150985,2,0,P|370:178|405:146,1,95.9999970703126,8|0,0:0|0:0,0:0:0:0:
232,162,151493,6,0,L|210:355,1,191.999994140625,12|8,0:0|0:0,0:0:0:0:
305,340,152256,1,0,0:0:0:0:
305,340,152510,2,0,L|327:147,1,191.999994140625,8|8,0:0|0:0,0:0:0:0:
388,75,153273,1,0,0:0:0:0:
482,78,153527,6,0,P|470:123|435:156,1,95.9999970703126,10|0,0:0|0:0,0:0:0:0:
498,227,154036,2,0,P|457:250|409:248,1,95.9999970703126,8|0,0:0|0:0,0:0:0:0:
403,344,154544,2,0,P|358:332|325:297,1,95.9999970703126,8|0,0:0|0:0,0:0:0:0:
254,362,155053,2,0,P|230:321|232:273,1,95.9999970703126,8|0,0:0|0:0,0:0:0:0:
324,296,155561,6,0,P|357:331|403:344,1,95.9999970703126,8|0,0:0|0:0,0:0:0:0:
409,248,156070,2,0,P|456:250|498:227,1,95.9999970703126,8|0,0:0|0:0,0:0:0:0:
434,156,156578,2,0,P|469:123|482:78,1,95.9999970703126,8|0,0:0|0:0,0:0:0:0:
396,35,157087,2,0,P|361:67|348:113,1,95.9999970703126,8|0,0:0|0:0,0:0:0:0:
375,205,157595,5,12,0:0:0:0:
456,255,157849,1,0,0:0:0:0:
375,205,158103,2,0,L|296:235,1,80,8|0,0:0|0:0,0:0:0:0:
205,214,158612,1,8,0:0:0:0:
162,127,158866,1,0,0:0:0:0:
205,214,159120,2,0,L|184:307,1,80,8|0,0:0|0:0,0:0:0:0:
91,301,159629,6,0,L|121:174,1,120.000004577637,2|8,0:0|0:0,0:0:0:0:
51,117,160392,2,0,L|22:233,1,120.000004577637
91,301,161154,1,8,0:0:0:0:
181,268,161409,1,0,0:0:0:0:
276,279,161663,2,0,P|330:301|359:352,1,120.000004577637,0|8,0:0|0:0,0:0:0:0:
266,376,162426,1,0,0:0:0:0:
276,279,162680,6,0,L|284:199,1,80,2|0,0:0|0:0,0:0:0:0:
386,138,163188,2,0,L|378:218,1,80,8|0,0:0|0:0,0:0:0:0:
298,69,163697,1,0,3:0:0:0:
280,134,171578,6,0,P|352:103|430:127,1,160,6|0,0:0|0:0,0:0:0:0:
470,210,172341,2,0,P|482:247|477:286,1,80,8|0,0:0|0:0,0:0:0:0:
413,358,172849,1,0,0:0:0:0:
321,327,173103,1,0,0:0:0:0:
386,256,173358,1,8,0:0:0:0:
321,327,173612,6,0,P|256:346|168:300,1,160,2|0,0:0|0:0,0:0:0:0:
172,213,174375,2,0,P|182:174|177:135,1,80,8|0,0:0|0:0,0:0:0:0:
120,57,174883,1,0,0:0:0:0:
29,89,175137,1,0,0:0:0:0:
86,167,175392,1,8,0:0:0:0:
177,135,175646,6,0,P|255:130|323:170,1,160,2|0,0:0|0:0,0:0:0:0:
358,268,176409,2,0,P|346:305|317:333,1,80,8|0,0:0|0:0,0:0:0:0:
265,253,176917,1,0,0:0:0:0:
250,158,177171,1,0,0:0:0:0:
311,84,177426,1,8,0:0:0:0:
342,174,177680,6,0,P|381:181|420:173,1,80,2|0,0:0|0:0,0:0:0:0:
311,84,178188,2,0,P|271:76|232:84,2,80,0|8|0,0:0|0:0|0:0,0:0:0:0:
394,132,178951,1,0,0:0:0:0:
377,226,179205,1,0,0:0:0:0:
460,272,179459,1,8,0:0:0:0:
443,366,179714,1,0,0:0:0:0:
346,350,179968,6,0,P|307:345|268:353,1,80,14|0,0:0|0:0,0:0:0:0:
169,278,180476,2,0,P|208:283|247:275,1,80,8|0,0:0|0:0,0:0:0:0:
336,241,180985,2,0,P|312:208|279:186,1,80,8|0,0:0|0:0,0:0:0:0:
186,161,181493,1,8,0:0:0:0:
103,209,181748,1,0,0:0:0:0:
41,282,182002,6,0,P|17:251|8:213,1,80,8|0,0:0|0:0,0:0:0:0:
128,293,182510,2,0,P|152:324|161:363,1,80,8|0,0:0|0:0,0:0:0:0:
233,282,183019,2,0,P|208:250|199:211,1,80,8|0,0:0|0:0,0:0:0:0:
227,119,183527,1,8,0:0:0:0:
307,67,183781,1,0,0:0:0:0:
402,67,184036,6,0,P|457:121|453:198,2,160,12|8|8,0:0|0:0|0:0,0:0:0:0:
369,157,185307,2,0,P|360:195|368:234,1,80,0|8,0:0|0:0,0:0:0:0:
443,294,185815,1,0,0:0:0:0:
453,198,186070,5,10,0:0:0:0:
438,104,186324,1,0,0:0:0:0:
363,40,186578,2,0,P|324:35|285:42,1,80,8|0,0:0|0:0,0:0:0:0:
221,114,187087,1,8,0:0:0:0:
129,84,187341,1,0,0:0:0:0:
129,84,187468,1,0,0:0:0:0:
129,84,187595,1,8,0:0:0:0:
54,144,187849,1,0,0:0:0:0:
114,218,188103,6,0,P|129:292|81:358,2,160,12|8|8,0:0|0:0|0:0,0:0:0:0:
35,273,189375,1,0,0:0:0:0:
128,294,189629,1,8,0:0:0:0:
216,258,189883,1,0,0:0:0:0:
285,192,190137,6,0,P|308:117|263:44,2,160,10|8|8,0:0|0:0|0:0,0:0:0:0:
212,128,191409,1,0,0:0:0:0:
120,98,191663,1,8,0:0:0:0:
47,160,191917,1,0,0:0:0:0:
99,240,192171,6,0,P|141:280|250:283,1,160,12|8,0:0|0:0,0:0:0:0:
307,219,192934,2,0,P|385:218|446:267,1,160
350,321,193697,1,8,0:0:0:0:
307,219,193951,1,0,0:0:0:0:
238,287,194205,5,10,0:0:0:0:
202,197,194459,2,0,P|168:217|147:250,2,80,0|8|0,0:0|0:0|0:0,0:0:0:0:
307,219,195222,1,8,0:0:0:0:
395,181,195476,1,0,0:0:0:0:
436,94,195731,1,8,0:0:0:0:
397,5,195985,6,0,L|270:56,1,120.000004577637,4|0,0:0|0:0,0:0:0:0:
225,124,196748,1,8,0:0:0:0:
225,124,197002,1,0,0:0:0:0:
135,294,197510,1,0,0:0:0:0:
135,294,197765,1,8,0:0:0:0:
44,327,198019,6,0,P|39:269|73:220,1,120.000004577637,2|0,0:0|0:0,0:0:0:0:
163,187,198781,1,8,0:0:0:0:
258,188,199036,2,0,L|322:198,1,60.0000022888184
382,268,199544,1,8,0:0:0:0:
382,268,199798,1,8,0:0:0:0:
430,349,200053,6,0,P|468:305|473:246,1,120.000004577637,2|0,0:0|0:0,0:0:0:0:
402,180,200815,2,0,L|332:195,1,60.0000022888184,8|0,0:0|0:0,0:0:0:0:
251,166,201324,1,2,0:0:0:0:
173,223,201578,2,0,L|183:288,1,60.0000022888184,0|8,0:0|0:0,0:0:0:0:
95,170,202087,6,0,P|116:107|175:77,1,120.000004577637,2|2,0:0|0:0,0:0:0:0:
244,124,202849,1,8,0:0:0:0:
244,124,203103,1,0,0:0:0:0:
397,5,203612,2,0,L|436:75,1,80,8|8,0:0|0:0,0:0:0:0:
465,166,204120,6,0,B|444:217|444:217|489:263|466:333,1,160,4|0,0:0|0:0,0:0:0:0:
377,286,204883,2,0,P|337:285|296:302,1,80,8|0,0:0|0:0,0:0:0:0:
221,352,205392,2,0,P|207:314|208:275,1,80
251,188,205900,1,8,0:0:0:0:
373,139,206154,6,0,B|359:153|355:205|396:246|396:246|377:286,1,160,2|0,0:0|0:0,0:0:0:0:
296,335,206917,2,0,P|332:368|368:378,1,80,8|0,0:0|0:0,0:0:0:0:
449,342,207426,1,0,0:0:0:0:
500,260,207680,1,8,0:0:0:0:
459,173,207934,1,8,0:0:0:0:
367,204,208188,6,0,P|291:221|221:185,1,160,2|0,0:0|0:0,0:0:0:0:
124,174,208951,2,0,P|128:213|148:247,1,80,8|0,0:0|0:0,0:0:0:0:
267,322,209459,2,0,P|264:283|244:249,1,80
148,247,209968,1,8,0:0:0:0:
267,322,210222,6,0,P|341:347|409:309,1,160,2|0,0:0|0:0,0:0:0:0:
444,220,210985,1,8,0:0:0:0:
441,123,211239,2,0,P|401:132|368:160,1,80
332,244,211748,1,8,0:0:0:0:
332,244,212002,1,8,0:0:0:0:
264,313,212256,6,0,P|190:338|115:314,1,160,4|0,0:0|0:0,0:0:0:0:
53,239,213019,2,0,P|40:202|44:163,1,80,8|0,0:0|0:0,0:0:0:0:
195,143,213527,2,0,P|169:174|134:191,1,80
42,65,214036,2,0,P|82:72|114:96,1,80,8|0,0:0|0:0,0:0:0:0:
195,143,214544,6,0,P|272:155|344:122,1,160,2|8,0:0|0:0,0:0:0:0:
438,143,215307,1,0,0:0:0:0:
396,229,215561,2,0,L|381:322,1,80,0|8,0:0|0:0,0:0:0:0:
478,293,216070,1,8,0:0:0:0:
396,229,216324,6,0,P|320:207|249:239,1,160,2|0,0:0|0:0,0:0:0:0:
184,310,217087,2,0,P|148:327|108:328,1,80,8|0,0:0|0:0,0:0:0:0:
106,157,217595,2,0,P|123:193|125:233,1,80
30,217,218103,1,8,0:0:0:0:
48,82,218358,6,0,P|83:64|123:63,1,80,2|0,0:0|0:0,0:0:0:0:
199,122,218866,2,0,P|238:120|274:103,2,80,0|8|0,0:0|0:0|0:0,0:0:0:0:
215,27,219629,1,0,0:0:0:0:
310,20,219883,1,8,0:0:0:0:
359,101,220137,1,8,0:0:0:0:
331,192,220392,6,0,P|317:269|370:335,1,160,2|0,0:0|0:0,0:0:0:0:
485,243,221154,2,0,P|447:235|409:247,1,80,8|0,0:0|0:0,0:0:0:0:
331,192,221663,2,0,P|313:156|279:135,1,80
254,260,222171,2,0,P|271:295|305:316,1,80,8|0,0:0|0:0,0:0:0:0:
156,328,222680,6,0,P|140:252|72:213,1,160,2|8,0:0|0:0,0:0:0:0:
64,309,223442,1,0,0:0:0:0:
156,328,223697,1,0,0:0:0:0:
250,307,223951,1,8,0:0:0:0:
250,307,224078,1,0,0:0:0:0:
250,307,224205,1,8,0:0:0:0:
322,244,224459,6,0,B|374:204|353:129|353:129|379:148,1,160,2|0,0:0|0:0,0:0:0:0:
444,219,225222,2,0,L|422:302,1,80,8|0,0:0|0:0,0:0:0:0:
301,321,225731,2,0,L|322:244,1,80
267,166,226239,1,8,0:0:0:0:
179,127,226493,6,0,P|123:127|90:144,2,80,2|0|0,0:0|0:0|0:0,0:0:0:0:
267,166,227256,2,0,P|323:166|356:149,2,80,8|0|0,0:0|0:0|0:0,0:0:0:0:
179,127,228019,1,8,0:0:0:0:
297,75,228273,1,8,0:0:0:0:
443,141,228527,6,0,P|440:188|418:231,1,95.9999970703126,4|0,0:0|0:0,0:0:0:0:
332,274,229036,1,0,0:0:0:0:
262,207,229290,1,8,0:0:0:0:
349,165,229544,2,0,L|451:138,1,95.9999970703126
297,94,230053,2,0,L|204:118,1,95.9999970703126,0|8,0:0|0:0,0:0:0:0:
154,335,230561,6,0,P|97:262|124:174,1,191.999994140625,2|0,0:0|0:0,0:0:0:0:
281,218,231324,1,8,0:0:0:0:
257,311,231578,1,0,0:0:0:0:
190,247,231832,1,0,0:0:0:0:
281,217,232087,2,0,P|325:201|373:202,1,95.9999970703126,8|8,0:0|0:0,0:0:0:0:
508,293,232595,6,0,P|463:309|416:309,1,95.9999970703126,2|0,0:0|0:0,0:0:0:0:
373,202,233103,1,0,0:0:0:0:
477,149,233358,1,8,0:0:0:0:
422,47,233612,2,0,P|361:35|317:52,1,95.9999970703126
255,105,234120,1,0,0:0:0:0:
281,217,234375,1,8,0:0:0:0:
375,128,234629,6,0,P|374:72|348:22,1,95.9999970703126,2|0,0:0|0:0,0:0:0:0:
255,105,235137,2,0,P|253:164|283:211,2,95.9999970703126,0|8|0,0:0|0:0|0:0,0:0:0:0:
345,137,235900,1,0,0:0:0:0:
318,268,236154,1,8,0:0:0:0:
193,318,236409,1,8,0:0:0:0:
65,275,236663,6,0,P|28:191|92:108,1,191.999994140625,4|0,0:0|0:0,0:0:0:0:
174,118,237426,1,8,0:0:0:0:
123,198,237680,1,0,0:0:0:0:
78,113,237934,1,0,0:0:0:0:
133,30,238188,2,0,P|180:25|225:40,1,95.9999970703126,0|8,0:0|0:0,0:0:0:0:
404,65,238697,6,0,P|311:80|225:40,1,191.999994140625,2|0,0:0|0:0,0:0:0:0:
174,118,239459,1,8,0:0:0:0:
108,188,239714,2,0,L|91:282,1,95.9999970703126
186,268,240222,2,0,L|169:362,1,95.9999970703126,8|8,0:0|0:0,0:0:0:0:
90,282,240731,6,0,P|184:267|268:310,1,191.999994140625,2|0,0:0|0:0,0:0:0:0:
363,327,241493,1,8,0:0:0:0:
413,244,241748,2,0,P|428:200|420:153,1,95.9999970703126
340,101,242256,2,0,P|325:146|333:193,1,95.9999970703126,0|8,0:0|0:0,0:0:0:0:
423,70,242765,6,0,P|352:13|268:49,1,191.999994140625,2|0,0:0|0:0,0:0:0:0:
219,132,243527,1,8,0:0:0:0:
195,225,243781,1,0,0:0:0:0:
195,225,243909,1,0,3:0:0:0:
195,225,244036,2,0,L|226:329,1,95.9999970703126,0|8,3:0|0:0,0:0:0:0:
128,338,244544,1,8,0:0:0:0:
195,225,244798,6,0,P|250:193|359:216,1,160,4|0,0:0|0:0,0:0:0:0:
408,274,245561,1,8,0:0:0:0:
130,296,246070,1,2,0:0:0:0:
57,230,246324,2,0,P|46:191|56:139,1,80,0|8,0:0|0:0,0:0:0:0:
92,69,246832,1,0,0:0:0:0:
191,73,247087,6,0,P|255:82|332:24,2,160,2|8|0,0:0|0:0|0:0,0:0:0:0:
92,69,248358,1,8,0:0:0:0:
50,153,248612,2,0,P|46:193|57:230,1,80,8|0,0:0|0:0,0:0:0:0:
130,296,249120,5,2,0:0:0:0:
222,270,249375,1,0,0:0:0:0:
317,280,249629,2,0,P|296:206|225:173,2,160,8|0|8,0:0|0:0|0:0,0:0:0:0:
222,269,250900,6,0,P|259:202|335:187,1,160,2|0,0:0|0:0,0:0:0:0:
425,222,251663,1,8,0:0:0:0:
498,160,251917,1,0,0:0:0:0:
489,63,252171,2,0,P|461:36|423:24,2,80,0|8|8,0:0|0:0|0:0,0:0:0:0:
410,118,252934,6,0,P|330:113|272:165,1,160,4|0,0:0|0:0,0:0:0:0:
361,200,253697,2,0,P|379:244|408:267,1,80,8|0,0:0|0:0,0:0:0:0:
344,341,254205,2,0,P|387:359|424:355,1,80
282,272,254714,2,0,P|247:255|207:256,1,80,8|0,0:0|0:0,0:0:0:0:
101,329,255222,6,0,L|129:163,1,160,2|8,0:0|0:0,0:0:0:0:
85,84,255985,1,0,0:0:0:0:
49,171,256239,2,0,P|88:179|127:171,1,80,0|8,0:0|0:0,0:0:0:0:
211,124,256748,1,8,0:0:0:0:
301,92,257002,6,0,B|358:54|433:89|433:89|448:137,1,160,2|0,0:0|0:0,0:0:0:0:
450,205,257765,2,0,L|463:293,1,80,8|0,0:0|0:0,0:0:0:0:
357,232,258273,2,0,L|369:312,1,80
264,258,258781,1,8,0:0:0:0:
263,258,259036,6,4,P|229:277|190:281,1,80,4|0,0:0|0:0,0:0:0:0:
60,223,259544,2,0,P|94:203|134:201,2,80,0|8|0,0:0|0:0|0:0,0:0:0:0:
130,330,260307,1,0,0:0:0:0:
210,277,260561,1,8,0:0:0:0:
246,171,260815,1,8,0:0:0:0:
224,44,261070,5,4,0:0:0:0:
