osu file format v5

[General]
AudioFilename: Omoide wa Kaze no Naka de.mp3
AudioLeadIn: 0
PreviewTime: -1
Countdown: 1
SampleSet: Soft
StackLeniency: 0.7
Mode: 0
LetterboxInBreaks: 1

[Metadata]
Title:Omoide wa Kaze no Naka de
Artist:KOTOKO
Creator:xy1904312
Version:Normal
Source:
Tags:

[Difficulty]
HPDrainRate:5
CircleSize:4
OverallDifficulty:5
SliderMultiplier:1.4
SliderTickRate:1

[Events]
//Background and Video events
0,0,"影像084拷貝.jpg"
//Break Periods
2,73047,87109
2,132936,146306
2,206557,212773
//Storyboard Layer 0 (Background)
//Storyboard Layer 1 (Failing)
//Storyboard Layer 2 (Passing)
//Storyboard Layer 3 (Foreground)
//Storyboard Sound Samples
//Background Colour Transformations
3,100,163,162,255

[TimingPoints]
59115,461.573967228248,4,2,0,70,1
87271,461.573967228248,4,1,0,71,1
146814,461.573967228248,4,2,0,71,1
158814,461.573967228248,4,1,0,38,1
161121,461.573967228248,4,1,0,70,1

[Colours]
Combo1 : 255,150,0
Combo2 : 5,240,5
Combo3 : 5,5,240
Combo4 : 240,5,5

[HitObjects]
256,288,59114,2,0,B|192:256|288:192|320:128|256:96,1,210
160,96,60268,2,0,B|64:96,1,70,0|0
64,192,60961,2,0,B|96:288|224:288|128:384,1,210
256,352,62115,2,0,B|352:352,1,70
384,384,62576,5,2
448,320,62807,5,2
384,256,63038,1,2
448,192,63269,1,2
384,128,63499,1,2
448,64,63730,1,2
384,0,63961,1,2
320,64,64192,1,2
256,64,64423,2,2,B|192:32,1,70
128,32,64884,2,2,B|-44:27|96:160,1,210
160,224,66038,1,6
256,224,66500,6,0,B|320:320|352:192,2,140
352,192,67884,1,0
224,192,68346,2,0,B|160:96|128:224,2,140,0|0|0
128,256,69731,1,0
224,320,69961,5,2
224,256,70192,5,2
224,192,70423,1,2
224,128,70654,1,2
224,64,70885,1,2
288,96,71115,1,2
288,160,71346,1,2
288,224,71577,2,2,B|288:320,2,70
288,96,72500,5,6
160,96,72962,1,6
160,192,88425,6,2,B|256:192,2,70
224,128,89348,1,2
320,192,89810,2,2,B|384:224|352:256,2,70
288,96,90733,1,0
192,32,91194,6,2,B|192:192,1,140
128,160,91886,2,2,B|128:64,1,70
64,96,92348,2,2,B|64:256,1,140
128,224,93040,2,2,B|192:288|256:224,1,140
256,160,93963,1,6
256,160,94079,1,6
256,160,94194,1,6
256,32,94656,5,0
128,32,95117,1,0
0,32,95579,1,0
0,128,95809,6,0,B|0:224,3,70
0,256,96732,2,0,B|0:384|160:352|160:320,1,210
192,320,97655,1,0
256,288,97886,1,0
320,256,98117,1,0
352,192,98347,2,0,B|384:128,2,70
288,160,99041,5,0
160,160,99502,1,0
96,160,99733,2,2,B|32:96|32:96|0:160,1,140
0,192,100425,1,2
0,256,100656,2,2,B|64:288|64:288|96:192,1,140
96,160,101349,1,2
160,160,101579,2,2,B|192:96|256:224,1,140
288,192,102272,2,2,B|320:96,1,70
352,128,102733,5,8
352,128,102964,1,8
352,64,103195,5,2
288,64,103426,2,2,B|128:64,1,140
96,64,104118,1,2
96,160,104579,2,2,B|160:224|96:224,1,70
96,256,105040,1,2
96,352,105618,5,4
192,288,105964,6,0,B|224:224,2,70
256,288,106657,2,0,B|288:224,1,70
320,192,107118,1,0
288,128,107464,2,0,B|97:-12|64:192,1,280
160,160,108734,5,0
224,160,108964,1,8
320,160,109426,1,8
416,160,109888,2,8,B|512:160,2,70
416,224,110580,6,0,B|416:320,1,70
352,288,111157,2,0,B|288:192|224:224,1,140
128,224,111965,5,0
128,224,112196,1,0
128,160,112426,5,0
160,96,112657,1,0
224,0,113003,1,0
224,0,113118,1,0
224,0,113349,1,0
320,0,113810,6,0,B|416:0|448:64,1,140
448,96,114502,1,0
352,160,114964,1,0
448,224,115426,1,0
352,288,115887,1,0
448,352,116349,2,0,B|384:384|288:320,1,140
256,320,117272,1,8
256,320,117503,1,8
256,320,117733,1,8
256,192,118196,12,8,121196
256,192,121427,5,8
256,192,121658,1,8
256,192,121889,12,8,124889
256,192,125120,5,8
256,192,125350,1,8
192,192,125581,5,0
192,160,125697,1,0
192,128,125812,1,0
224,128,125927,1,0
256,128,126043,1,0
288,128,126158,1,0
320,128,126274,1,0
320,160,126389,1,0
320,192,126504,1,0
320,224,126620,1,0
320,256,126735,1,0
288,256,126850,1,0
256,256,126966,1,0
224,256,127081,1,0
192,256,127197,1,0
192,224,127312,1,0
192,192,127427,2,0,B|192:96,3,70
192,64,128351,5,8
256,64,128581,1,8
320,64,128812,1,8
256,192,129043,12,8,132274
256,192,132505,5,8
256,192,132736,1,8
256,192,147506,5,0
320,192,147737,1,0
384,192,147967,1,0
320,192,148198,1,0
384,192,148429,1,0
448,192,148660,1,0
384,192,148891,1,0
448,192,149121,1,0
512,192,149352,2,0,B|416:192,1,70
384,192,149814,2,0,B|320:128,1,70
288,96,150275,2,0,B|192:96|128:160|224:224,1,210
256,256,151199,5,0
192,256,151429,1,0
128,256,151660,1,0
160,320,151891,1,0
224,320,152122,1,0
288,320,152352,1,0
352,320,152583,1,0
384,256,152814,1,0
320,256,153045,1,0
320,192,153276,2,0,B|399:176|448:64|448:96,2,140
288,128,154430,5,0
224,96,154660,1,0
160,128,154891,6,2,B|160:224|160:192,1,70
224,224,155353,2,2,B|320:224,1,70
352,224,155814,1,2
416,224,156045,2,2,B|512:192|448:96,1,140
416,64,156737,1,2
352,64,156968,2,2,B|288:0|192:32,1,140
192,64,157661,1,2
160,128,157891,1,2
96,224,158353,2,2,B|64:288,1,70
128,320,158814,5,10
224,320,159276,1,10
320,320,159738,1,10
416,320,160199,1,10
512,320,160661,1,10
384,192,161353,1,8
384,192,161584,1,8
224,192,162276,6,2,B|224:96,1,70
224,64,162738,2,2,B|320:64,1,70
352,64,163199,2,2,B|416:128,1,70
352,64,163661,2,2,B|288:128,2,70
480,64,164698,5,4
480,160,165046,5,2
448,224,165277,1,2
416,288,165507,1,2
384,352,165738,1,2
352,288,165969,1,2
320,224,166200,1,2
288,160,166544,2,2,B|416:160,1,105
448,64,167815,2,2,B|384:32|352:64,1,70
256,64,168508,5,0
128,64,168969,1,0
0,64,169431,1,0
64,160,169892,6,0,B|128:224|192:160,1,140
256,160,170585,2,0,B|352:224|416:160,1,140
416,160,171277,1,0
448,224,171508,2,0,B|512:256|480:288,4,70
384,224,172777,2,0,B|390:302|320:167|256:288,1,140
192,256,173585,6,2,B|160:320|96:288,2,105
192,192,174508,2,2,B|160:128|96:160,2,105
256,224,175431,2,2,B|352:224,2,70
192,224,176124,1,2
192,224,176354,1,2
128,224,176585,5,8
128,224,176816,1,8
64,224,177047,5,2
96,160,177277,2,2,B|256:160,1,140
256,224,177970,2,2,B|352:224,2,70
256,288,178662,2,2,B|352:288,1,70
326,288,179470,5,4
384,224,179816,6,0,B|448:192|416:160,4,70
384,224,180970,1,0
256,224,181316,2,0,B|160:224,1,70
96,224,182124,5,0
96,224,182355,1,0
96,224,182586,6,0,B|0:224,1,70
32,96,183278,5,8
128,32,183739,1,8
224,96,184201,1,8
128,160,184432,5,0
128,160,184663,2,0,B|128:256,3,70
128,288,185817,5,8
128,288,186048,1,8
128,288,186278,6,0,B|224:288,1,70
256,288,186740,2,0,B|160:288,2,70
352,288,187663,2,0,B|416:384|480:320,1,140
480,288,188355,1,0
416,192,188817,1,0
352,96,189278,1,0
288,0,189740,1,0
256,96,190202,6,0,B|224:128,8,35
256,96,191240,5,0
256,96,191355,5,0
256,96,191470,5,0
256,96,191586,5,0
256,96,191701,5,0
256,96,191817,5,0
256,160,192048,5,2
480,352,193894,5,2
32,128,195740,5,2
416,32,197587,5,2
256,192,199433,12,2,206357
256,192,213973,5,0
288,128,214203,2,0,B|320:64|320:64|432:81|432:81|509:184|509:184|480:320,1,420
416,288,215819,1,0
352,320,216050,2,0,B|321:228|321:228|212:272|212:272,1,210
96,288,217204,2,2,B|160:256|160:256|96:224,1,140
96,160,217896,2,2,B|32:160|32:160|32:96,2,105
160,160,218819,2,2,B|224:160|224:160|224:96,2,105
160,224,219742,2,8,B|160:320|160:320|64:320|64:320|64:224|64:224|128:224,1,350
160,224,221127,1,8
256,192,221358,12,0,223896
256,192,224127,6,0,B|160:192,2,70
320,192,224820,2,0,B|416:192,1,70
384,256,225281,2,0,B|384:352|384:352|288:352|288:352|160:256|160:256|192:96|192:96|384:64|384:64|192:288,1,980
160,320,228743,2,0,B|55:365|-8:184|160:160,1,280
192,160,230128,5,0
256,160,230359,1,0
320,160,230589,6,0,B|468:181|405:362|300:317,1,280
192,320,231974,6,0,B|288:320,2,70
192,256,232666,6,0,B|128:256|160:192,1,70
192,160,233128,2,0,B|224:128|160:96,1,70
128,128,233589,2,0,B|96:160|64:96,1,70
96,64,234051,2,0,B|128:32|160:64,1,70
224,64,234513,2,0,B|256:96|288:64,3,70
352,64,235436,5,14
352,128,235667,1,14
352,192,235897,1,14
352,256,236128,1,14
256,192,239359,5,8
256,192,239589,5,8
256,192,243052,5,8
256,192,243283,5,8
256,192,246744,5,8
256,192,246975,5,8
256,192,250437,5,8
256,192,250668,5,8
