osu file format v10

[General]
AudioFilename: 03 Oboetete ii yo.mp3
AudioLeadIn: 2000
PreviewTime: 55817
Countdown: 0
SampleSet: Normal
StackLeniency: 0.7
Mode: 0
LetterboxInBreaks: 1

[Editor]
DistanceSpacing: 0.9
BeatDivisor: 4
GridSize: 4

[Metadata]
Title:Oboetete Ii yo
TitleUnicode:Oboetete Ii yo
Artist:KOTOKO
ArtistUnicode:KOTOKO
Creator:cRyo[iceeicee]
Version:Normal
Source:
Tags:DuDiDuWa*lalala aabc271
BeatmapID:171919
BeatmapSetID:53791

[Difficulty]
HPDrainRate:3
CircleSize:3
OverallDifficulty:3
ApproachRate:5
SliderMultiplier:1.1
SliderTickRate:2

[Events]
//Background and Video events
0,0,"4.jpg"
//Break Periods
2,11266,17956
2,81378,86720
2,159581,166271
//Storyboard Layer 0 (Background)
//Storyboard Layer 1 (Fail)
//Storyboard Layer 2 (Pass)
//Storyboard Layer 3 (Foreground)
//Storyboard Sound Samples
//Background Colour Transformations
3,100,163,162,255

[TimingPoints]
280,337.078651685393,4,1,0,35,1,0
280,-117.647058823529,4,1,2,35,0,0
364,-117.647058823529,4,1,1,35,0,0
954,-117.647058823529,4,1,2,35,0,0
1054,-117.647058823529,4,1,1,35,0,0
1628,-117.647058823529,4,1,2,35,0,0
1712,-117.647058823529,4,1,1,35,0,0
1881,-117.647058823529,4,1,2,35,0,0
2218,-117.647058823529,4,1,2,5,0,0
2386,-117.647058823529,4,1,2,35,0,0
3397,-117.647058823529,4,1,1,35,0,0
3566,-117.647058823529,4,1,2,35,0,0
4409,-117.647058823529,4,1,1,35,0,0
4577,-117.647058823529,4,1,2,35,0,0
5336,-117.647058823529,4,1,1,35,0,0
5436,-117.647058823529,4,1,2,35,0,0
5757,-117.647058823529,4,1,2,35,0,0
6431,-117.647058823529,4,1,2,35,0,0
6600,-117.647058823529,4,1,1,35,0,0
6768,-117.647058823529,4,1,1,35,0,0
7021,-117.647058823529,4,1,2,35,0,0
7121,-117.647058823529,4,1,2,35,0,0
7527,-117.647058823529,4,1,2,35,0,0
7627,-117.647058823529,4,1,1,35,0,0
8032,-117.647058823529,4,1,2,35,0,0
8117,-117.647058823529,4,1,1,35,0,0
8369,-117.647058823529,4,1,1,35,0,0
8469,-117.647058823529,4,1,2,35,0,0
9718,-100,4,1,1,55,0,0
10729,-100,4,1,2,45,0,0
11066,-100,4,1,1,65,0,0
11150,-100,4,2,1,65,0,0
20504,-100,4,1,1,50,0,0
21515,-100,4,2,2,100,0,0
21768,-100,4,2,2,65,0,0
26150,-100,4,1,2,55,0,0
26319,-100,4,2,2,65,0,0
40982,-100,4,1,2,55,0,0
41150,-100,4,2,2,65,0,0
43426,-100,4,1,2,55,0,0
43526,-100,4,2,2,65,0,0
43678,-100,4,1,2,55,0,0
43847,-100,4,2,2,65,0,0
44353,-100,4,1,2,55,0,0
44521,-100,4,2,2,65,0,0
44690,-100,4,1,2,55,0,0
44858,-100,4,2,2,65,0,0
45954,-100,4,1,2,55,0,0
46291,-100,4,1,1,55,0,0
46375,-100,4,1,2,55,0,0
46544,-100,4,2,2,65,0,0
47049,-100,4,1,2,55,0,0
47218,-100,4,2,2,65,0,0
47386,-100,4,1,2,55,0,0
47639,-100,4,2,2,65,0,0
48650,-100,4,1,2,55,0,0
48819,-100,4,2,2,65,0,0
49072,-100,4,1,2,55,0,0
49240,-100,4,2,2,65,0,0
49999,-100,4,1,2,55,0,0
50167,-100,4,2,2,65,0,0
50420,-100,4,1,2,55,0,0
50588,-100,4,2,2,65,0,0
51263,-100,4,1,2,55,0,0
51515,-100,4,2,2,65,0,0
52442,-100,4,1,2,55,0,0
52611,-100,4,2,2,65,0,0
54212,-100,4,2,2,75,0,0
55476,-100,4,1,1,70,0,0
55813,-100,4,1,2,45,0,0
56572,-100,4,2,2,100,0,0
56909,-100,4,1,1,50,0,0
61206,-100,4,1,2,50,0,0
61375,-100,4,1,1,50,0,0
69296,-100,4,1,2,50,0,0
69465,-100,4,1,1,50,0,0
74437,-100,4,1,2,40,0,0
74537,-100,4,1,1,50,0,0
74690,-100,4,1,2,50,0,0
74858,-100,4,1,1,50,0,0
81178,-100,4,1,1,40,0,0
87583,-100,4,1,1,50,0,0
88931,-100,4,2,2,100,0,0
89184,-100,4,2,2,65,0,0
93566,-100,4,1,2,55,0,0
93735,-100,4,2,2,65,0,0
95588,-100,4,1,2,55,0,0
95757,-100,4,2,2,65,0,0
97611,-100,4,1,2,55,0,0
97779,-100,4,2,2,65,0,0
99971,-100,4,1,2,55,0,0
100139,-100,4,2,2,65,0,0
100308,-100,4,1,2,55,0,0
100476,-100,4,2,2,65,0,0
100982,-100,4,1,2,55,0,0
101150,-100,4,2,2,65,0,0
101319,-100,4,1,1,55,0,0
101487,-100,4,2,2,65,0,0
102414,-100,4,1,2,55,0,0
102836,-100,4,2,2,65,0,0
103004,-100,4,1,2,55,0,0
103173,-100,4,2,2,65,0,0
103678,-100,4,1,2,55,0,0
103847,-100,4,2,2,65,0,0
104100,-100,4,1,1,55,0,0
104268,-100,4,2,2,65,0,0
105364,-100,4,1,1,55,0,0
105532,-100,4,2,2,65,0,0
105701,-100,4,1,2,55,0,0
105869,-100,4,2,1,45,0,0
106038,-100,4,2,2,65,0,0
106628,-100,4,1,1,55,0,0
106881,-100,4,2,2,65,0,0
107049,-100,4,1,2,55,0,0
107218,-100,4,2,1,45,0,0
107386,-100,4,2,2,65,0,0
107976,-100,4,1,1,55,0,0
108313,-100,4,2,2,65,0,0
110841,-100,4,2,2,75,0,0
112527,-100,4,1,1,45,0,0
112527,-100,4,1,1,45,0,0
113201,-100,4,2,2,100,0,0
113301,-100,4,1,1,50,0,0
116487,-100,4,1,2,50,0,0
116656,-100,4,1,1,50,0,0
117836,-100,4,1,2,50,0,0
118004,-100,4,1,1,50,0,0
124577,-100,4,1,2,50,0,0
124746,-100,4,1,1,50,0,0
127274,-100,4,1,2,50,0,0
127442,-100,4,1,1,50,0,0
131066,-100,4,1,2,40,0,0
131166,-100,4,1,1,50,0,0
131319,-100,4,1,2,50,0,0
131487,-100,4,1,1,50,0,0
133341,-100,4,1,2,50,0,0
133510,-100,4,1,1,50,0,0
136038,-100,4,1,2,50,0,0
136206,-100,4,1,1,50,0,0
138060,-100,4,1,2,50,0,0
138229,-100,4,1,1,50,0,0
148847,-100,4,1,2,50,0,0
149015,-100,4,1,1,50,0,0
150195,-100,4,1,2,50,0,0
150364,-100,4,1,1,50,0,0
152555,-100,4,1,2,40,0,0
153313,-100,4,1,2,30,0,0
153413,-100,4,1,1,50,0,0
154914,-100,4,1,2,50,0,0
155083,-100,4,1,1,50,0,0
156684,-100,4,1,1,60,0,0
156853,-100,4,1,1,60,0,0
159381,-100,4,1,1,40,0,0
167471,-100,4,1,1,55,0,0
167571,-100,4,2,1,65,0,0
172864,-100,4,1,1,55,0,0
172964,-100,4,2,1,65,0,0
175560,-100,4,1,1,55,0,0
175660,-100,4,2,1,65,0,0
176824,-100,4,1,0,65,0,0
177920,-100,4,2,2,100,0,0
178020,-100,4,1,1,70,0,0

[Colours]
Combo1 : 255,148,40
Combo2 : 79,249,227
Combo3 : 248,90,236
Combo4 : 255,0,0

[HitObjects]
208,44,280,2,0,B|228:88|220:140,1,93.500001783371,4|8,0:0|0:0,0:0:0
168,204,954,2,0,B|176:256,1,46.7500008916855,4|8,0:0|0:0,0:0:0
260,344,1628,2,0,B|408:344,2,140.250002675057,4|4|4,0:0|0:0|0:0,0:0:0
100,292,3313,6,0,B|76:224|96:152,1,140.250002675057,4|4,0:0|0:0,0:0:0
188,68,4324,2,0,B|256:44|328:64,1,140.250002675057,4|4,0:0|0:0,0:0:0
408,84,5167,2,0,B|468:68,3,46.7500008916855,4|8|0|4,0:0|0:0|0:0|0:0,0:0:0
464,156,6010,22,0,B|484:208|484:208|460:236|460:304,2,140.250002675057,8|8|4,0:0|0:0|0:0,0:0:0
392,112,7358,1,8,0:0:0
348,104,7527,2,0,B|300:92|256:112,1,93.500001783371,4|8,0:0|0:0,0:0:0
220,132,8032,2,0,B|176:152|128:140,1,93.500001783371,8|0,0:0|0:0,0:0:0
44,140,8706,2,0,B|36:192|36:192|64:232|64:292,1,140.250002675057,8|8,0:0|0:0,0:0:0
192,348,9718,38,0,B|252:356|288:312|288:312|356:348,2,165,2|2|4,0:0|0:0|0:0,0:0:0
212,252,11066,1,4,0:0:0
256,192,19156,12,0,20504,0:0:0
256,102,21515,5,8,0:0:0
170,152,21853,2,0,B|110:144|62:176,1,110,6|8,0:0|0:0,0:0:0
75,272,22527,2,0,B|131:294|185:274,1,110,0|8,0:0|0:0,0:0:0
256,212,23201,2,0,B|256:100,2,110,0|8|0,0:0|0:0|0:0,0:0:0
332,272,24212,1,8,0:0:0
432,264,24549,6,0,B|448:208|432:152,1,110,0|8,0:0|0:0,0:0:0
408,60,25223,2,0,B|352:44|300:60,1,110,0|8,0:0|0:0,0:0:0
256,88,25729,2,0,B|203:104|147:88,2,110,0|0|0,0:0|0:0|0:0,0:0:0
320,164,26740,2,0,B|320:232,1,55,0|8,0:0|0:0,0:0:0
356,252,27077,2,0,B|336:320,1,55
256,356,27583,1,8,0:0:0
172,304,27920,6,0,B|156:248|172:196,1,110,0|8,0:0|0:0,0:0:0
196,152,28426,2,0,B|204:112|228:84|228:84|220:40|164:28,1,165,0|8,0:0|0:0,0:0:0
72,56,29268,1,0,0:0:0
32,148,29605,1,8,0:0:0
64,244,29942,22,0,B|112:272|172:260,1,110,0|8,0:0|0:0,0:0:0
216,244,30448,2,0,B|288:196|374:213,1,165,0|8,0:0|0:0,0:0:0
468,244,31291,1,0,0:0:0
444,340,31628,2,0,B|392:369|323:355,2,110,8|0|8,0:0|0:0|0:0,0:0:0
380,264,32639,6,0,B|324:272|273:249,1,110,6|8,0:0|0:0,0:0:0
196,188,33313,1,0,0:0:0
192,88,33650,1,8,0:0:0
276,36,33987,2,0,B|330:22|382:50,1,110,0|8,0:0|0:0,0:0:0
456,116,34662,2,0,B|472:172|460:224,1,110,0|8,0:0|0:0,0:0:0
400,304,35336,5,0,0:0:0
308,344,35673,1,8,0:0:0
216,308,36010,2,0,B|216:253,1,55
216,204,36347,2,0,B|216:136,1,55,8|0,0:0|0:0,0:0:0
160,68,36853,2,0,B|92:44,2,55,0|8|0,0:0|0:0|0:0,0:0:0
256,44,37527,1,0,0:0:0
304,56,37695,2,0,B|363:54|406:89,2,110,8|0|8,0:0|0:0|0:0,0:0:0
256,144,38706,22,0,B|196:144,2,55,0|0|8,0:0|0:0|0:0,0:0:0
300,164,39212,2,0,B|316:220|300:276,1,110
256,292,39718,2,0,B|140:292,2,110,8|0|8,0:0|0:0|0:0,0:0:0
342,333,40729,2,0,B|407:353|453:312|479:257|443:199,1,220,6|0,0:0|0:0,0:0:0
420,104,41740,6,0,B|464:68,2,55,8|0|4,0:0|0:0|0:0,0:0:0
324,80,42414,1,8,0:0:0
256,152,42751,1,4,0:0:0
188,80,43088,1,8,0:0:0
92,104,43426,6,0,B|36:143|40:204|67:259|135:266,2,220,4|4|0,0:0|0:0|0:0,0:0:0
160,176,45111,1,8,0:0:0
256,208,45448,1,4,0:0:0
352,176,45785,1,8,0:0:0
420,104,46122,22,0,B|475:143|471:204|444:259|376:266,2,220,4|4|0,0:0|0:0|0:0,0:0:0
340,44,47808,1,8,0:0:0
256,96,48145,1,4,0:0:0
172,44,48482,1,8,0:0:0
84,88,48819,6,0,B|60:160|112:204|112:204|96:248|108:316,1,220,6|4,0:0|0:0,0:0:0
184,356,49830,1,8,0:0:0
284,352,50167,2,0,B|352:347|381:293|387:233|333:191,1,220,6|4,0:0|0:0,0:0:0
256,128,51178,1,8,0:0:0
172,72,51515,6,0,B|152:128|172:180,1,110,6|8,0:0|0:0,0:0:0
204,276,52190,2,0,B|156:292|140:312|140:312|104:280|48:296,2,165,4|4|8,0:0|0:0|0:0,0:0:0
308,276,53538,1,4,0:0:0
340,180,53875,1,8,0:0:0
256,128,54212,5,4,0:0:0
68,68,54886,1,4,0:0:0
56,264,55560,1,8,0:0:0
144,312,55897,2,0,B|144:372,2,55
144,264,56403,1,0,0:0:0
144,264,56572,1,8,0:0:0
240,284,56909,6,0,B|292:264|348:284,1,110,4|8,0:0|0:0,0:0:0
396,292,57414,2,0,B|453:278|474:201|431:160,1,165,0|8,0:0|0:0,0:0:0
368,80,58257,2,0,B|312:68|260:88,1,110,0|8,0:0|0:0,0:0:0
212,104,58763,2,0,B|148:124|96:92|96:92|52:108,1,165,0|8,0:0|0:0,0:0:0
28,204,59605,6,0,B|12:260|28:316,1,110,4|8,0:0|0:0,0:0:0
76,324,60111,2,0,B|124:344|164:308|164:308|184:304|240:324,1,165,0|8,0:0|0:0,0:0:0
332,340,60954,2,0,B|379:374|451:341|455:281,2,165,0|0|8,0:0|0:0|0:0,0:0:0
372,252,62302,6,0,B|352:196|372:144,1,110,4|8,0:0|0:0,0:0:0
412,52,62976,2,0,B|463:76,2,55,0|0|8,0:0|0:0|0:0,0:0:0
364,44,63482,2,0,B|308:36|256:60,1,110
256,108,63987,2,0,B|256:224,2,110,8|0|8,0:0|0:0|0:0,0:0:0
256,192,64999,12,8,67021,0:0:0
442,93,67695,22,0,B|386:113|330:85,1,110,4|8,0:0|0:0,0:0:0
287,74,68201,2,0,B|233:101|200:84|200:84|165:104|142:152,1,165,0|8,0:0|0:0,0:0:0
96,224,69044,2,0,B|37:231|-9:167|16:113,2,165,0|0|8,0:0|0:0|0:0,0:0:0
176,168,70392,6,0,B|200:224|176:276,1,110,4|8,0:0|0:0,0:0:0
164,324,70897,2,0,B|272:312,1,110
324,312,71403,2,0,B|352:324|388:324,2,55,8|0|0,0:0|0:0|0:0,0:0:0
364,224,72077,1,8,0:0:0
364,176,72246,2,0,B|332:128|332:128|368:80|344:20,1,165,0|8,0:0|0:0,0:0:0
256,64,73088,6,0,B|200:48|144:60,1,110,4|8,0:0|0:0,0:0:0
56,100,73763,2,0,B|40:152|52:208,1,110,0|8,0:0|0:0,0:0:0
124,276,74437,2,0,B|208:312|256:240|340:276,1,220,4|0,0:0|0:0,0:0:0
424,324,75448,21,8,0:0:0
480,244,75785,2,0,B|500:192|480:136,1,110,4|8,0:0|0:0,0:0:0
404,72,76459,2,0,B|292:72,1,110,0|8,0:0|0:0,0:0:0
244,72,76965,2,0,B|220:124|220:124|260:160|256:224,1,165,0|8,0:0|0:0,0:0:0
192,296,77808,2,0,B|133:300|88:261,1,110,0|8,0:0|0:0,0:0:0
168,204,78482,37,4,0:0:0
256,192,78650,12,4,81178,0:0:0
216,44,87920,54,0,B|208:116,1,55,2|2,0:0|0:0,0:0:0
296,148,88426,2,2,B|304:220,1,55
256,288,88931,1,8,0:0:0
164,332,89268,6,0,B|108:323|70:278,1,110,6|8,0:0|0:0,0:0:0
68,180,89942,2,0,B|106:134|161:126,1,110,0|8,0:0|0:0,0:0:0
256,92,90617,1,0,0:0:0
340,144,90954,1,8,0:0:0
340,240,91291,1,0,0:0:0
256,292,91628,1,8,0:0:0
164,324,91965,6,0,B|110:307|78:257,1,110,0|8,0:0|0:0,0:0:0
64,160,92639,2,0,B|-4:160,2,55,0|0|8,0:0|0:0|0:0,0:0:0
112,160,93145,2,0,B|132:108|112:52,2,110,0|0|0,0:0|0:0|0:0,0:0:0
176,236,94156,2,0,B|212:236|244:224,1,55,0|8,0:0|0:0,0:0:0
280,228,94493,2,0,B|298:235|334:235,1,55
432,212,94999,1,8,0:0:0
480,124,95336,6,0,B|439:81|362:102|348:159,2,165,0|0|8,0:0|0:0|0:0,0:0:0
432,212,96684,1,0,0:0:0
352,268,97021,1,8,0:0:0
256,248,97358,2,0,B|214:301|153:294|99:264|96:196,1,220,6|0,0:0|0:0,0:0:0
128,104,98369,22,0,B|112:48,2,55,8|0|4,0:0|0:0|0:0,0:0:0
184,184,99044,1,8,0:0:0
256,248,99381,1,4,0:0:0
328,184,99718,1,4,0:0:0
420,148,100055,6,0,B|413:80|358:53|297:49|258:105,2,220,4|4|0,0:0|0:0|0:0,0:0:0
420,248,101740,1,8,0:0:0
340,304,102077,1,4,0:0:0
256,252,102414,1,0,0:0:0
184,184,102751,6,0,B|128:223|132:284|159:339|227:346,2,220,4|4|0,0:0|0:0|0:0,0:0:0
256,108,104437,1,8,0:0:0
352,80,104774,1,4,0:0:0
432,136,105111,1,8,0:0:0
484,220,105448,22,0,B|443:263|366:242|352:185,2,165,4|2|8,0:0|0:0|0:0,0:0:0
432,136,106796,2,0,B|418:79|341:58|300:101,2,165,4|2|8,0:0|0:0|0:0,0:0:0
352,196,108145,6,0,B|372:252|352:308,1,110,4|8,0:0|0:0,0:0:0
256,328,108819,2,0,B|256:388,2,55,4|0|8,0:0|0:0|0:0,0:0:0
220,296,109324,2,0,B|164:312|112:297,1,110,4|0,0:0|0:0,0:0:0
68,272,109830,2,0,B|39:225|42:167,2,110,8|4|8,0:0|0:0|0:0,0:0:0
140,204,110841,21,4,0:0:0
256,44,111515,1,4,0:0:0
372,204,112190,1,4,0:0:0
376,304,112527,2,0,B|436:304,2,55,8|0|0,0:0|0:0|0:0,0:0:0
328,304,113032,1,0,0:0:0
328,304,113201,1,8,0:0:0
256,236,113538,6,0,B|240:180|256:124,1,110,4|8,0:0|0:0,0:0:0
292,92,114044,2,0,B|376:64|456:88,1,165,0|8,0:0|0:0,0:0:0
488,180,114886,2,0,B|504:236|488:292,1,110,0|8,0:0|0:0,0:0:0
460,328,115392,2,0,B|376:356|296:332,1,165,0|8,0:0|0:0,0:0:0
212,280,116235,6,0,B|169:239|190:162|247:148,2,165,4|0|8,0:0|0:0|0:0,0:0:0
296,228,117583,2,0,B|353:214|374:137|331:96,2,165,0|0|8,0:0|0:0|0:0,0:0:0
196,228,118931,6,0,B|84:228,1,110,4|8,0:0|0:0,0:0:0
56,136,119605,2,0,B|-8:136,2,55,0|0|8,0:0|0:0|0:0,0:0:0
104,136,120111,2,0,B|164:156|208:120|208:120|268:136,1,165,0|8,0:0|0:0,0:0:0
360,156,120954,2,0,B|416:164|468:140,1,110,0|8,0:0|0:0,0:0:0
256,192,121628,12,0,123650,0:0:0
176,160,124324,38,0,B|135:203|58:182|44:125,2,165,4|0|8,0:0|0:0|0:0,0:0:0
268,120,125673,2,0,B|320:100|376:112,1,110,0|8,0:0|0:0,0:0:0
424,124,126178,2,0,B|464:184|428:236|428:236|428:300,1,165,0|8,0:0|0:0,0:0:0
348,340,127021,6,0,B|307:383|230:362|216:305,2,165,4|0|8,0:0|0:0|0:0,0:0:0
348,240,128369,2,0,B|348:116,1,110,0|8,0:0|0:0,0:0:0
348,80,128875,2,0,B|288:60|288:60|256:96|184:96,1,165,0|8,0:0|0:0,0:0:0
100,68,129718,21,4,0:0:0
20,124,130055,1,8,0:0:0
20,224,130392,1,0,0:0:0
76,308,130729,1,8,0:0:0
168,344,131066,2,0,B|252:380|300:308|384:344,1,220,4|0,0:0|0:0,0:0:0
460,280,132077,5,8,0:0:0
476,184,132414,1,4,0:0:0
412,108,132751,1,8,0:0:0
324,156,133088,2,0,B|296:208|216:208|187:156,1,165,0|4,0:0|0:0,0:0:0
256,192,133763,12,4,135111,0:0:0
416,112,135785,6,0,B|448:160|436:216,2,110
316,124,136796,1,8,0:0:0
268,124,136965,2,0,B|208:124|188:148|188:148|168:124|108:124,1,165,0|8,0:0|0:0,0:0:0
28,76,137808,22,0,B|-15:117|6:194|63:208,2,165,4|0|8,0:0|0:0|0:0,0:0:0
128,76,139156,2,0,B|180:88|236:64,1,110,0|8,0:0|0:0,0:0:0
284,56,139662,2,0,B|296:100|332:124|332:124|340:164|320:204,1,165,0|8,0:0|0:0,0:0:0
256,276,140504,6,0,B|200:296|148:276,1,110,4|8,0:0|0:0,0:0:0
52,256,141178,2,0,B|52:320,2,55,0|0|8,0:0|0:0|0:0,0:0:0
52,208,141684,2,0,B|66:151|143:130|184:173,1,165,0|8,0:0|0:0,0:0:0
256,244,142527,1,0,0:0:0
328,172,142864,1,8,0:0:0
256,192,143201,12,0,145223,0:0:0
416,84,145897,6,0,B|436:136|420:192,1,110,4|8,0:0|0:0,0:0:0
380,224,146403,2,0,B|308:244|284:204|216:224,1,165,0|8,0:0|0:0,0:0:0
120,232,147246,2,0,B|100:180|116:124,1,110,0|8,0:0|0:0,0:0:0
148,88,147752,2,0,B|220:68|244:108|312:88,1,165,0|8,0:0|0:0,0:0:0
412,91,148594,22,0,B|456:131|436:209|380:224,2,165,4|0|8,0:0|0:0|0:0,0:0:0
324,140,149942,2,0,B|267:154|247:232|291:272,2,165,0|0|8,0:0|0:0|0:0,0:0:0
380,224,151291,5,4,0:0:0
256,68,151965,1,0,0:0:0
132,224,152639,1,4,0:0:0
256,368,153313,1,4,0:0:0
256,268,153650,6,0,B|256:152,2,110,8|4|8,0:0|0:0|0:0,0:0:0
344,312,154662,2,0,B|403:309|438:237|404:189,2,165,0|4|8,0:0|0:0|0:0,0:0:0
244,312,156010,2,0,B|192:296|136:304,1,110,0|8,0:0|0:0,0:0:0
36,316,156684,5,4,0:0:0
256,192,156853,12,4,159381,0:0:0
64,104,167471,22,0,B|116:84|172:96,1,110,4|8,0:0|0:0,0:0:0
256,148,168145,2,0,B|192:176,2,55,4|4|8,0:0|0:0|0:0,0:0:0
304,132,168650,2,0,B|363:132|400:203|368:252,1,165,2|8,0:0|0:0,0:0:0
296,324,169493,2,0,B|244:352|184:336,1,110,2|8,0:0|0:0,0:0:0
92,320,170167,6,0,B|28:295|16:235|28:175|92:152,1,220,2|4,0:0|0:0,0:0:0
188,124,171178,1,8,0:0:0
236,124,171347,2,0,B|296:128|336:96|336:96|412:108,1,165,2|8,0:0|0:0,0:0:0
476,164,172190,1,2,0:0:0
452,260,172527,1,8,0:0:0
364,308,172864,22,0,B|300:300|256:328,1,110,4|8,0:0|0:0,0:0:0
160,308,173538,2,0,B|152:368,2,55,4|4|8,0:0|0:0|0:0,0:0:0
156,260,174044,2,0,B|148:204|148:204|180:164|180:92,1,165,2|8,0:0|0:0,0:0:0
256,40,174886,5,2,0:0:0
356,48,175223,1,8,0:0:0
412,128,175560,2,0,B|414:196|363:230|303:243|257:193,1,220,4|0,0:0|0:0,0:0:0
196,116,176572,1,8,0:0:0
96,124,176909,22,2,B|88:180,1,55
156,248,177414,2,2,B|164:304,1,55
256,344,177920,2,0,B|380:344,1,110,8|4,0:0|0:0,0:0:0
