osu file format v10

[General]
AudioFilename: 03 Oboetete ii yo.mp3
AudioLeadIn: 2000
PreviewTime: 55817
Countdown: 0
SampleSet: Normal
StackLeniency: 0.7
Mode: 0
LetterboxInBreaks: 1

[Editor]
DistanceSpacing: 1.1
BeatDivisor: 4
GridSize: 4

[Metadata]
Title:Oboetete Ii yo
TitleUnicode:Oboetete Ii yo
Artist:KOTOKO
ArtistUnicode:KOTOKO
Creator:cRyo[iceeicee]
Version:Hard
Source:
Tags:DuDiDuWa*lalala aabc271
BeatmapID:171557
BeatmapSetID:53791

[Difficulty]
HPDrainRate:6
CircleSize:4
OverallDifficulty:6
ApproachRate:7
SliderMultiplier:1.6
SliderTickRate:2

[Events]
//Background and Video events
0,0,"4.jpg"
//Break Periods
2,81378,87020
//Storyboard Layer 0 (Background)
//Storyboard Layer 1 (Fail)
//Storyboard Layer 2 (Pass)
//Storyboard Layer 3 (Foreground)
//Storyboard Sound Samples
//Background Colour Transformations
3,100,163,162,255

[TimingPoints]
280,337.078651685393,4,1,0,35,1,0
280,-133.333333333333,4,1,2,35,0,0
364,-133.333333333333,4,1,1,35,0,0
532,-133.333333333333,4,1,2,35,0,0
701,-133.333333333333,4,1,1,35,0,0
1038,-133.333333333333,4,1,2,35,0,0
1206,-133.333333333333,4,1,1,35,0,0
1544,-133.333333333333,4,1,2,35,0,0
1712,-133.333333333333,4,1,1,35,0,0
2049,-133.333333333333,4,1,2,35,0,0
2218,-133.333333333333,4,1,1,35,0,0
2555,-133.333333333333,4,1,2,35,0,0
2723,-133.333333333333,4,1,1,35,0,0
3229,-133.333333333333,4,1,2,35,0,0
3397,-133.333333333333,4,1,1,35,0,0
3735,-133.333333333333,4,1,2,35,0,0
3903,-133.333333333333,4,1,1,35,0,0
4240,-133.333333333333,4,1,2,35,0,0
4409,-133.333333333333,4,1,1,35,0,0
4746,-133.333333333333,4,1,2,35,0,0
4914,-133.333333333333,4,1,1,35,0,0
5251,-133.333333333333,4,1,2,35,0,0
5420,-133.333333333333,4,1,1,35,0,0
5757,-100,4,1,2,35,0,0
9718,-100,4,1,1,55,0,0
10645,-100,4,1,2,45,0,0
11066,-100,4,1,1,65,0,0
11150,-100,4,2,1,65,0,0
20504,-100,4,1,1,50,0,0
21515,-76.9230769230769,4,2,2,100,0,0
21684,-76.9230769230769,4,2,2,10,0,0
21768,-100,4,2,2,65,0,0
43426,-100,4,1,2,55,0,0
43526,-100,4,2,2,65,0,0
44605,-100,4,1,2,55,0,0
44858,-100,4,2,2,65,0,0
46038,-100,4,1,2,55,0,0
46291,-100,4,2,2,65,0,0
47302,-100,4,1,2,55,0,0
47639,-100,4,2,2,65,0,0
55560,-100,4,1,1,70,0,0
55813,-100,4,1,2,45,0,0
56572,-100,4,2,2,100,0,0
56909,-100,4,1,1,50,0,0
59184,-100,4,1,2,50,0,0
59353,-100,4,1,1,50,0,0
74437,-100,4,1,2,40,0,0
74521,-100,4,1,1,50,0,0
81178,-100,4,1,1,40,0,0
87583,-100,4,1,1,50,0,0
88931,-76.9230769230769,4,2,2,100,0,0
89100,-58.8235294117647,4,2,1,10,0,0
89184,-100,4,2,2,65,0,0
99633,-100,4,1,2,55,0,0
100139,-100,4,2,2,65,0,0
101066,-100,4,1,1,55,0,0
101487,-100,4,2,2,65,0,0
102414,-100,4,1,2,55,0,0
102836,-100,4,2,2,65,0,0
103763,-100,4,1,1,55,0,0
104100,-100,4,2,2,65,0,0
105111,-100,4,1,1,55,0,0
105532,-100,4,2,2,65,0,0
106712,-100,4,1,1,55,0,0
106881,-100,4,2,2,65,0,0
107976,-100,4,1,1,55,0,0
108313,-100,4,2,2,65,0,0
112190,-55.5555555555556,4,2,2,75,0,0
112527,-100,4,1,2,45,0,0
112527,-100,4,1,2,45,0,0
113201,-100,4,2,2,100,0,0
113301,-100,4,1,1,50,0,0
115813,-100,4,1,2,50,0,0
115982,-100,4,1,1,50,0,0
131066,-133.333333333333,4,1,2,40,0,0
131150,-133.333333333333,4,1,1,50,0,0
131319,-133.333333333333,4,1,2,50,0,0
131487,-133.333333333333,4,1,1,50,0,0
131740,-100,4,1,1,50,0,0
133341,-100,4,1,2,50,0,0
133510,-100,4,1,1,50,0,0
134774,-100,4,1,1,55,0,0
150869,-100,4,1,2,57,0,0
151038,-100,4,1,1,57,0,0
152639,-133.333333333333,4,1,2,40,0,0
152723,-133.333333333333,4,1,1,57,0,0
152892,-133.333333333333,4,1,2,57,0,0
153060,-133.333333333333,4,1,1,57,0,0
153482,-100,4,1,1,57,0,0
156684,-100,4,1,1,65,0,0
156768,-100,4,2,1,65,0,0
167386,-100,4,1,1,55,0,0
167555,-100,4,2,1,65,0,0
172779,-100,4,1,1,55,0,0
172948,-100,4,2,1,65,0,0
175476,-100,4,1,1,55,0,0
175645,-100,4,1,1,35,0,0
176319,-100,4,1,1,65,0,0
177751,-76.9230769230769,4,2,2,100,0,0
178257,-76.9230769230769,4,1,1,70,0,0

[Colours]
Combo1 : 255,148,40
Combo2 : 79,249,227
Combo3 : 248,90,236
Combo4 : 255,0,0

[HitObjects]
256,152,280,6,0,B|256:16,2,120.000004577637,4|4|0,0:0|0:0|0:0,0:0:0
256,228,1122,2,0,B|200:256|140:240,1,120.000004577637,4|0,0:0|0:0,0:0:0
64,212,1628,2,0,B|43:153|55:93,1,120.000004577637,4|0,0:0|0:0,0:0:0
120,52,2133,2,0,B|176:24|236:40,1,120.000004577637,4|0,0:0|0:0,0:0:0
256,116,2639,2,0,B|256:180,2,60.0000022888184,4|0|0,0:0|0:0|0:0,0:0:0
444,100,3313,6,0,B|468:160|448:224,1,120.000004577637,4|0,0:0|0:0,0:0:0
376,244,3819,2,0,B|256:256,1,120.000004577637,4|0,0:0|0:0,0:0:0
212,320,4324,2,0,B|92:308,1,120.000004577637,4|0,0:0|0:0,0:0:0
44,248,4830,2,0,B|20:192|40:124,1,120.000004577637,4|0,0:0|0:0,0:0:0
96,80,5336,2,0,B|160:76,1,60.0000022888184,4|0,0:0|0:0,0:0:0
256,68,5673,21,0,0:0:0
256,68,5841,1,0,0:0:0
256,148,6010,1,8,0:0:0
256,228,6178,2,0,B|256:268,6,40,0|0|0|0|0|0|8,0:0|0:0|0:0|0:0|0:0|0:0|0:0,0:0:0
412,312,7021,5,0,0:0:0
412,312,7189,1,0,0:0:0
412,232,7358,1,8,0:0:0
412,152,7526,2,0,B|412:112,6,40,0|0|0|0|0|0|8,0:0|0:0|0:0|0:0|0:0|0:0|0:0,0:0:0
256,192,8369,6,0,B|168:192,1,80
208,268,8706,2,0,B|120:268,1,80,8|0,0:0|0:0,0:0:0
256,344,9044,2,0,B|344:344,1,80
304,268,9381,2,0,B|392:268,1,80,8|0,0:0|0:0,0:0:0
488,256,9718,6,0,B|512:176|480:96,1,160,4|0,0:0|0:0,0:0:0
413,45,10223,2,0,B|333:21|256:52,1,160,4|0,0:0|0:0,0:0:0
256,52,10729,1,4,0:0:0
172,192,11066,6,0,B|113:175|79:215|13:191,2,160,4|8|4,0:0|0:0|0:0,0:0:0
240,248,11909,2,0,B|280:252|321:246,1,80,4|8,0:0|0:0,0:0:0
396,204,12246,2,0,B|453:193|482:128|451:79,1,160,2|4,0:0|0:0,0:0:0
372,44,12751,2,0,B|314:54|285:119|316:168,2,160,8|2|8,0:0|0:0|0:0,0:0:0
328,244,13763,2,0,B|284:283|215:264|196:209,1,160,2|8,0:0|0:0,0:0:0
40,128,14437,6,0,B|28:168|40:212,2,80,4|4|8,0:0|0:0|0:0,0:0:0
116,84,14942,2,0,B|192:112|272:72,1,160,2|4,0:0|0:0,0:0:0
356,52,15448,2,0,B|400:124|380:208,2,160,8|2|8,0:0|0:0|0:0,0:0:0
172,168,16459,2,0,B|152:249|196:321,1,160,2|8,0:0|0:0,0:0:0
372,336,17133,6,0,B|412:348|448:328,2,80,4|4|8,0:0|0:0|0:0,0:0:0
292,300,17639,2,0,B|280:240|308:204|292:140,1,160,2|4,0:0|0:0,0:0:0
336,64,18145,2,0,B|408:20|492:40,2,160,8|2|8,0:0|0:0|0:0,0:0:0
216,192,19156,22,0,B|172:231|103:212|84:157,1,160,2|8,0:0|0:0,0:0:0
68,72,19662,1,0,0:0:0
152,48,19830,2,0,B|192:36|232:40,1,80,4|4,0:0|0:0,0:0:0
304,88,20167,2,0,B|344:92|384:80,1,80,8|4,0:0|0:0,0:0:0
468,52,20504,5,2,0:0:0
468,52,20673,1,2,0:0:0
444,228,21010,5,2,0:0:0
444,228,21178,1,2,0:0:0
256,192,21515,6,0,B|148:192,1,103.999995239258,8|0,0:0|0:0,0:0:0
56,180,21853,22,0,B|28:148|20:108,1,80,6|0,0:0|0:0,0:0:0
72,36,22190,2,0,B|114:32|150:51,1,80,8|0,0:0|0:0,0:0:0
232,80,22527,2,0,B|272:84|312:68,2,80,4|4|8,0:0|0:0|0:0,0:0:0
164,136,23032,1,4,0:0:0
164,136,23201,2,0,B|192:216|164:296,1,160,0|8,0:0|0:0,0:0:0
96,348,23706,1,0,0:0:0
24,296,23875,2,0,B|-4:216|24:136,1,160,4|8,0:0|0:0,0:0:0
92,84,24381,1,4,0:0:0
164,136,24549,6,0,B|204:140|244:128,1,80,0|4,0:0|0:0,0:0:0
328,104,24886,2,0,B|356:132|364:176,1,80,8|0,0:0|0:0,0:0:0
384,260,25223,1,4,0:0:0
340,336,25392,1,4,0:0:0
256,360,25560,1,8,0:0:0
168,352,25729,22,0,B|115:327|103:256|146:217,1,160,4|0,0:0|0:0,0:0:0
228,188,26235,2,0,B|267:144|248:75|193:56,1,160,8|4,0:0|0:0,0:0:0
100,44,26740,1,4,0:0:0
80,128,26909,2,0,B|116:144|168:136,2,80,8|4|0,0:0|0:0|0:0,0:0:0
80,304,27583,1,8,0:0:0
256,288,27920,6,0,B|256:388,2,80,4|0|8,0:0|0:0|0:0,0:0:0
324,232,28426,2,0,B|412:256|476:200,1,160,4|0,0:0|0:0,0:0:0
448,76,28931,2,0,B|360:52|296:108,2,160,8|4|8,0:0|0:0|0:0,0:0:0
324,232,29942,6,0,B|236:256|172:200,1,160,4|8,0:0|0:0,0:0:0
136,124,30448,1,0,0:0:0
196,60,30617,2,0,B|222:93|227:133,1,80,4|4,0:0|0:0,0:0:0
174,202,30954,2,0,B|132:216|96:200,2,80,8|0|4,0:0|0:0|0:0,0:0:0
292,72,31628,21,8,0:0:0
376,228,31965,1,4,0:0:0
220,312,32302,1,8,0:0:0
140,280,32471,6,0,B|135:324|145:359,2,80,0|6|0,0:0|0:0|0:0,0:0:0
174,202,32976,2,0,B|182:162|174:118,1,80,8|0,0:0|0:0,0:0:0
136,44,33313,2,0,B|97:40|57:56,2,80,4|4|8,0:0|0:0|0:0,0:0:0
224,56,33819,1,4,0:0:0
224,56,33987,2,0,B|300:88|382:58,1,160,0|8,0:0|0:0,0:0:0
460,92,34493,1,0,0:0:0
476,180,34662,2,0,B|488:220|476:268,2,80,4|4|8,0:0|0:0|0:0,0:0:0
392,148,35167,5,4,0:0:0
316,188,35336,2,0,B|272:192|236:180,1,80,0|4,0:0|0:0,0:0:0
192,256,35673,2,0,B|154:233|131:202,1,80,8|0,0:0|0:0,0:0:0
76,136,36010,1,4,0:0:0
96,52,36178,1,4,0:0:0
180,32,36347,1,8,0:0:0
256,76,36515,22,0,B|336:104|412:60,1,160,4|0,0:0|0:0,0:0:0
484,164,37021,2,0,B|404:136|328:180,1,160,8|4,0:0|0:0,0:0:0
256,224,37527,1,4,0:0:0
192,284,37695,2,0,B|148:292|108:276,1,80,8|4,0:0|0:0,0:0:0
32,248,38032,2,0,B|32:60,1,160,0|8,0:0|0:0,0:0:0
200,40,38706,6,0,B|220:76|216:117,2,80,4|4|8,0:0|0:0|0:0,0:0:0
132,96,39212,2,0,B|93:140|112:209|167:228,1,160,4|0,0:0|0:0,0:0:0
316,184,39718,2,0,B|355:140|336:71|281:52,2,160,8|4|8,0:0|0:0|0:0,0:0:0
196,312,40729,6,0,B|152:351|83:332|64:277,2,160,6|8|0,0:0|0:0|0:0,0:0:0
284,160,41740,2,0,B|292:120|280:72,1,80,8|0,0:0|0:0,0:0:0
192,76,42077,21,4,0:0:0
140,256,42414,1,8,0:0:0
320,308,42751,1,4,0:0:0
372,128,43088,1,8,0:0:0
192,76,43426,6,0,B|151:118|168:188|222:209,2,160,4|8|4,0:0|0:0|0:0,0:0:0
256,132,44268,1,4,0:0:0
256,132,44437,1,8,0:0:0
296,52,44605,2,0,B|256:8,2,40
420,180,45111,6,0,B|459:203|476:237,1,80,8|0,0:0|0:0,0:0:0
448,320,45448,2,0,B|416:341|370:341,1,80,4|4,0:0|0:0,0:0:0
308,280,45785,2,0,B|306:239|328:203,1,80,8|0,0:0|0:0,0:0:0
380,100,46122,22,0,B|429:69|495:98|504:155,2,160,4|8|4,0:0|0:0|0:0,0:0:0
420,180,46965,1,4,0:0:0
420,180,47133,1,8,0:0:0
332,180,47302,2,0,B|276:180,2,40
220,316,47808,6,0,B|180:328|140:320,1,80,8|0,0:0|0:0,0:0:0
76,260,48145,2,0,B|64:220|72:176,1,80,4|4,0:0|0:0,0:0:0
128,112,48482,2,0,B|168:100|208:108,1,80,8|0,0:0|0:0,0:0:0
292,128,48819,6,0,B|337:164|406:143|422:87,2,160,6|8|4,0:0|0:0|0:0,0:0:0
256,44,49662,2,0,B|216:36|176:48,1,80,4|8,0:0|0:0,0:0:0
60,68,49999,1,0,0:0:0
60,68,50167,2,0,B|28:116|56:183|113:193,2,160,6|8|4,0:0|0:0|0:0,0:0:0
140,108,51010,1,4,0:0:0
220,140,51178,2,0,B|232:180|224:224,1,80,8|0,0:0|0:0,0:0:0
212,308,51515,22,0,B|275:363|364:343,1,160,6|8,0:0|0:0,0:0:0
472,164,52190,2,0,B|472:80,2,80,4|4|8,0:0|0:0|0:0,0:0:0
448,248,52695,2,0,B|402:284|333:263|317:207,1,160,4|0,0:0|0:0,0:0:0
292,124,53201,2,0,B|246:87|177:108|161:164,2,160,8|4|8,0:0|0:0|0:0,0:0:0
256,192,54212,12,0,55560,0:0:0
336,48,55897,38,0,B|348:88|336:128,2,80
256,88,56403,1,0,0:0:0
256,88,56572,1,8,0:0:0
156,232,56909,22,0,B|202:268|271:247|287:191,1,160,4|8,0:0|0:0,0:0:0
256,88,57414,2,0,B|210:52|141:73|125:129,1,160
76,200,57920,1,8,0:0:0
25,271,58088,2,0,B|71:307|140:286|156:230,1,160
204,156,58594,1,8,0:0:0
256,88,58763,2,0,B|302:123|297:194|247:224,2,160
176,48,59605,6,0,B|135:49|98:65,1,80,4|0,0:0|0:0,0:0:0
24,112,59942,1,8,0:0:0
88,172,60111,2,0,B|100:212|96:256,1,80
80,336,60448,2,0,B|36:344|1:323,2,80,0|8|0,0:0|0:0|0:0,0:0:0
168,316,60954,2,0,B|240:276|324:296,1,160,0|8,0:0|0:0,0:0:0
412,304,61459,2,0,B|428:268|424:220,1,80
356,172,61796,2,0,B|340:136|344:88,1,80,0|8,0:0|0:0,0:0:0
448,36,62133,21,0,0:0:0
448,36,62302,2,0,B|504:52|525:121|489:167,2,160,4|8|0,0:0|0:0|0:0,0:0:0
360,44,63145,2,0,B|316:44|276:60,1,80,0|8,0:0|0:0,0:0:0
200,92,63482,2,0,B|164:138|185:207|241:223,1,160
328,220,63987,5,8,0:0:0
388,156,64156,1,0,0:0:0
472,184,64324,2,0,B|516:222|508:294|456:320,1,160,0|8,0:0|0:0,0:0:0
256,336,64999,2,0,B|210:372|141:351|125:295,1,160,4|10,0:0|0:0,0:0:0
112,208,65504,5,2,0:0:0
188,164,65673,2,0,B|200:204|192:256,2,80,2|2|8,0:0|0:0|0:0,0:0:0
164,80,66178,2,2,B|324:60,1,160,2|2,0:0|0:0,0:0:0
420,96,66684,2,0,B|440:132|436:172,2,80,8|0|8,0:0|0:0|0:0,0:0:0
352,152,67190,1,8,0:0:0
352,152,67358,1,8,0:0:0
368,324,67695,22,0,B|326:364|256:351|233:298,1,160,4|8,0:0|0:0,0:0:0
172,236,68201,2,0,B|132:232|88:244,1,80
4,236,68538,2,0,B|3:198|19:158,2,80,0|8|0,0:0|0:0|0:0,0:0:0
68,336,69044,2,0,B|148:360|224:320,1,160,0|8,0:0|0:0,0:0:0
300,280,69549,2,0,B|340:272|380:280,1,80
468,264,69886,2,0,B|480:224|472:184,1,80,0|8,0:0|0:0,0:0:0
448,100,70223,5,0,0:0:0
364,76,70392,2,0,B|292:116|208:88,1,160,4|8,0:0|0:0,0:0:0
120,88,70897,2,0,B|84:164|108:244,1,160
156,316,71403,2,0,B|196:328|236:324,1,80,8|0,0:0|0:0,0:0:0
324,316,71740,2,0,B|360:240|336:160,1,160,0|8,0:0|0:0,0:0:0
288,88,72246,2,0,B|248:76|208:80,1,80
120,88,72583,2,0,B|108:128|112:168,1,80,0|8,0:0|0:0,0:0:0
128,276,72920,5,0,0:0:0
128,276,73088,2,0,B|140:332|206:360|254:327,1,160,4|8,0:0|0:0,0:0:0
384,108,73763,2,0,B|335:75|268:101|256:158,2,160,0|8|4,0:0|0:0|0:0,0:0:0
436,180,74605,2,0,B|448:220|440:264,1,80,0|8,0:0|0:0,0:0:0
384,328,74942,2,0,B|335:360|268:334|256:277,1,160
256,192,75448,2,0,B|256:112,1,80,8|0,0:0|0:0,0:0:0
172,84,75785,21,4,0:0:0
340,84,76122,1,8,0:0:0
376,256,76459,2,0,B|336:252|292:264,1,80
216,296,76796,2,0,B|176:300|132:288,1,80,8|0,0:0|0:0,0:0:0
52,264,77133,2,0,B|4:232|4:160|50:126,2,160,0|8|0,0:0|0:0|0:0,0:0:0
216,192,78145,2,0,B|256:192,4,40,0|0|0|0|4,0:0|0:0|0:0|0:0|0:0,0:0:0
256,192,78650,12,4,81178,0:0:0
116,92,87920,5,2,0:0:0
116,92,88088,1,2,0:0:0
96,268,88426,5,2,0:0:0
96,268,88594,1,2,0:0:0
256,192,88931,6,0,B|360:192,1,103.999995239258,8|0,0:0|0:0,0:0:0
440,156,89268,22,0,B|444:116|428:72,1,80,6|0,0:0|0:0,0:0:0
348,48,89605,2,0,B|308:40|268:52,1,80,8|0,0:0|0:0,0:0:0
194,99,89942,2,0,B|150:107|116:92,2,80,4|4|8,0:0|0:0|0:0,0:0:0
256,192,90448,1,4,0:0:0
256,192,90617,2,0,B|280:272|256:352,1,160,0|8,0:0|0:0,0:0:0
172,368,91122,1,0,0:0:0
84,349,91291,2,0,B|60:269|84:192,1,160,4|8,0:0|0:0,0:0:0
120,112,91796,5,4,0:0:0
188,56,91965,2,0,B|224:40|272:44,1,80,0|4,0:0|0:0,0:0:0
400,96,92302,2,0,B|357:92|321:108,1,80,8|0,0:0|0:0,0:0:0
240,140,92639,1,4,0:0:0
188,212,92808,1,4,0:0:0
200,300,92976,1,8,0:0:0
272,348,93145,22,0,B|316:352|352:332,1,80,4|0,0:0|0:0,0:0:0
420,280,93482,2,0,B|428:240|416:196,1,80,4|8,0:0|0:0,0:0:0
400,96,93819,2,0,B|342:100|305:162|331:214,1,160,4|0,0:0|0:0,0:0:0
420,280,94324,2,0,B|477:275|514:213|488:161,2,160,8|4|8,0:0|0:0|0:0,0:0:0
256,304,95336,6,0,B|256:400,2,80,4|4|8,0:0|0:0|0:0,0:0:0
256,216,95841,2,0,B|252:158|190:121|138:147,1,160,4|0,0:0|0:0,0:0:0
48,260,96347,2,0,B|95:294|163:270|176:213,2,160,8|4|8,0:0|0:0|0:0,0:0:0
44,76,97358,6,0,B|91:41|159:65|172:122,2,160,6|8|0,0:0|0:0|0:0,0:0:0
196,192,98369,2,0,B|276:192,1,80,8|0,0:0|0:0,0:0:0
364,192,98706,21,4,0:0:0
216,96,99044,1,8,0:0:0
132,252,99381,1,4,0:0:0
280,344,99718,1,0,0:0:0
428,248,100055,6,0,B|388:290|316:280|292:227,2,160,4|8|4,0:0|0:0|0:0,0:0:0
464,168,100897,2,0,B|472:128|464:88,1,80,4|8,0:0|0:0,0:0:0
384,52,101235,2,0,B|336:52,2,40
256,172,101740,6,0,B|208:206|140:182|127:125,2,160,8|4|0,0:0|0:0|0:0,0:0:0
432,192,102751,2,0,B|466:239|442:307|385:320,2,160,4|8|4,0:0|0:0|0:0,0:0:0
352,156,103594,2,0,B|340:116|352:76,1,80,4|0,0:0|0:0,0:0:0
436,52,103931,2,0,B|493:52,2,40
256,72,104437,22,0,B|216:68|176:80,1,80,8|0,0:0|0:0,0:0:0
112,140,104774,2,0,B|104:180|112:224,1,80,4|4,0:0|0:0,0:0:0
160,292,105111,2,0,B|217:282|248:217|218:168,2,160,0|4|8,0:0|0:0|0:0,0:0:0
72,296,105954,2,0,B|14:286|-16:221|13:172,1,160,4|0,0:0|0:0,0:0:0
40,88,106459,1,8,0:0:0
112,140,106628,6,0,B|112:236,2,80,4|4|0,0:0|0:0|0:0,0:0:0
180,88,107133,1,8,0:0:0
256,132,107302,2,0,B|336:156|412:112,1,160,4|4,0:0|0:0,0:0:0
488,76,107808,2,0,B|518:125|486:190|429:199,2,160,8|4|8,0:0|0:0|0:0,0:0:0
256,132,108819,6,0,B|256:52,2,80,4|4|8,0:0|0:0|0:0,0:0:0
324,184,109324,2,0,B|356:264|324:340,1,160,4|4,0:0|0:0,0:0:0
188,340,109830,2,0,B|156:264|188:184,2,160,8|4|8,0:0|0:0|0:0,0:0:0
256,192,110841,12,8,112190,0:0:0
176,48,112527,6,0,B|164:88|176:128,2,80
256,88,113033,1,0,0:0:0
256,88,113202,1,8,0:0:0
432,108,113538,22,0,B|464:192|432:264,1,160,4|8,0:0|0:0,0:0:0
360,312,114044,2,0,B|308:338|246:301|242:243,1,160
208,164,114549,1,8,0:0:0
256,88,114718,2,0,B|314:92|351:154|325:206,1,160
242,244,115223,1,8,0:0:0
164,280,115392,2,0,B|108:264|84:195|121:150,2,160
236,328,116235,6,0,B|288:354|350:317|354:259,1,160,4|8,0:0|0:0,0:0:0
356,172,116740,2,0,B|328:132|352:72|352:72|292:40,1,160
216,48,117246,2,0,B|172:44|136:56,1,80,8|0,0:0|0:0,0:0:0
64,108,117583,2,0,B|40:184|64:268,1,160,0|8,0:0|0:0,0:0:0
124,332,118088,2,0,B|164:336|204:324,1,80
268,264,118426,2,0,B|308:264|352:280,1,80,0|8,0:0|0:0,0:0:0
452,316,118763,21,0,0:0:0
452,316,118931,2,0,B|476:240|452:156,1,160,4|8,0:0|0:0,0:0:0
412,80,119437,1,0,0:0:0
324,68,119605,2,0,B|284:80|244:68,2,80,0|0|8,0:0|0:0|0:0,0:0:0
324,68,120111,2,0,B|347:149|323:225,1,160
256,284,120617,5,8,0:0:0
176,244,120785,1,0,0:0:0
88,232,120954,2,0,B|65:285|106:344|165:344,1,160,0|8,0:0|0:0,0:0:0
346,344,121628,2,0,B|405:344|446:285|424:232,1,160,4|10,0:0|0:0,0:0:0
340,212,122133,5,2,0:0:0
372,128,122302,2,0,B|412:112|452:116,2,80,2|2|8,0:0|0:0|0:0,0:0:0
284,144,122808,2,2,B|116:128,1,160
44,196,123313,2,0,B|36:236|52:284,2,80,8|0|8,0:0|0:0|0:0,0:0:0
128,228,123819,1,8,0:0:0
128,228,123987,1,8,0:0:0
432,264,124324,22,0,B|456:188|432:104,1,160,4|8,0:0|0:0,0:0:0
373,41,124830,2,0,B|317:32|269:86|284:144,1,160
336,216,125336,2,0,B|348:256|332:300,1,80,8|0,0:0|0:0,0:0:0
256,340,125673,2,0,B|210:377|141:359|124:304,1,160,0|8,0:0|0:0,0:0:0
120,216,126178,2,0,B|128:176|116:136,1,80
104,48,126515,2,0,B|144:36|184:44,1,80,0|8,0:0|0:0,0:0:0
256,96,126853,5,0,0:0:0
256,96,127021,2,0,B|301:133|370:115|387:60,2,160,4|8|0,0:0|0:0|0:0,0:0:0
168,108,127864,1,0,0:0:0
88,140,128032,2,0,B|76:180|92:240,1,80,8|0,0:0|0:0,0:0:0
128,296,128369,2,0,B|204:324|284:284,1,160,0|8,0:0|0:0,0:0:0
364,248,128875,2,0,B|372:208|361:168,1,80
334,84,129212,2,0,B|293:80|255:95,1,80,0|8,0:0|0:0,0:0:0
168,108,129549,5,0,0:0:0
168,108,129718,2,0,B|137:158|167:224|223:232,1,160,4|8,0:0|0:0,0:0:0
461,210,130392,2,0,B|491:260|461:326|405:334,1,160,0|8,0:0|0:0,0:0:0
316,344,130897,1,0,0:0:0
256,280,131066,22,0,B|284:188|228:132|256:40,1,240.000009155274,4|0,0:0|0:0,0:0:0
411,125,132077,6,0,B|424:163|424:204,1,80,8|0,0:0|0:0,0:0:0
440,288,132414,2,0,B|431:344|366:374|315:343,2,160,4|8|0,0:0|0:0|0:0,0:0:0
356,264,133257,2,0,B|288:272|260:240|260:240|232:236|200:248,1,160
92,244,133763,22,0,B|76:208|76:164,1,80
140,72,134100,2,0,B|180:56|232:60,1,80
328,92,134437,2,0,B|344:132,3,40
364,168,134774,2,0,B|400:188,3,40
440,208,135111,6,0,B|470:258|440:324|384:332,1,160,4|8,0:0|0:0,0:0:0
296,344,135617,2,0,B|228:360|196:328|196:328|164:336|132:328,1,160,0|0,0:0|0:0,0:0:0
56,308,136122,2,0,B|48:268|52:228,1,80,8|0,0:0|0:0,0:0:0
56,140,136459,2,0,B|101:102|170:120|187:175,1,160,0|8,0:0|0:0,0:0:0
232,252,136965,2,0,B|272:260|320:244,1,80
388,200,137302,2,0,B|372:160|380:112,1,80,0|8,0:0|0:0,0:0:0
448,72,137639,5,0,0:0:0
448,72,137808,2,0,B|503:89|525:158|489:201,1,160,4|8,0:0|0:0,0:0:0
432,268,138313,2,0,B|382:298|316:268|308:212,1,160
252,144,138819,2,0,B|212:140|172:156,1,80,8|0,0:0|0:0,0:0:0
92,192,139156,2,0,B|62:242|92:308|148:316,1,160,0|8,0:0|0:0,0:0:0
236,324,139662,2,0,B|276:320|316:332,1,80
400,341,139999,2,0,B|424:306|432:268,1,80,0|8,0:0|0:0,0:0:0
448,180,140336,5,0,0:0:0
448,180,140504,2,0,B|368:144|292:176,1,160,4|8,0:0|0:0,0:0:0
212,208,141010,1,0,0:0:0
136,256,141178,2,0,B|136:336,2,80,0|0|8,0:0|0:0|0:0,0:0:0
56,224,141684,2,0,B|5:196|-3:124|40:88,1,160
124,68,142190,21,8,0:0:0
192,120,142358,1,0,0:0:0
256,60,142527,1,0,0:0:0
256,236,142864,1,8,0:0:0
256,192,143201,12,0,145560,0:0:0
148,60,145897,6,0,B|184:132|164:216,1,160,4|8,0:0|0:0,0:0:0
132,300,146403,2,0,B|149:355|218:377|261:341,1,160
312,268,146909,2,0,B|352:264|392:276,1,80,8|0,0:0|0:0,0:0:0
480,288,147246,2,0,B|504:212|468:128,1,160,0|8,0:0|0:0,0:0:0
396,84,147751,2,0,B|356:80|316:92,1,80
232,112,148088,2,0,B|192:116|152:104,1,80,0|8,0:0|0:0,0:0:0
72,72,148426,5,0,0:0:0
8,132,148594,2,0,B|-8:212|20:292,1,160,4|8,0:0|0:0,0:0:0
92,340,149100,2,0,B|156:352|192:312|192:312|244:324,1,160
328,336,149605,1,8,0:0:0
416,328,149774,1,0,0:0:0
480,268,149942,2,0,B|504:188|464:112,1,160,0|8,0:0|0:0,0:0:0
404,48,150448,2,0,B|360:11|291:33|274:89,2,160
432,132,151291,22,0,B|415:188|346:210|302:173,1,160,4|8,0:0|0:0,0:0:0
136,228,151965,2,0,B|80:211|58:142|95:98,1,160,0|8,0:0|0:0,0:0:0
168,48,152471,1,0,0:0:0
256,36,152639,6,0,B|228:125|284:181|256:273,1,240.000009155274,4|0,0:0|0:0,0:0:0
80,288,153650,1,8,0:0:0
60,112,153987,6,0,B|120:88|120:88|152:112|220:96,1,160,4|8,0:0|0:0,0:0:0
452,112,154662,2,0,B|392:88|392:88|360:112|292:96,1,160,0|8,0:0|0:0,0:0:0
256,172,155167,2,0,B|240:228|272:268|256:332,1,160,4|0,0:0|0:0,0:0:0
168,332,155673,2,0,B|141:359|98:369,1,80,8|0,0:0|0:0,0:0:0
21,323,156010,2,0,B|9:283|23:243,1,80,8|0,0:0|0:0,0:0:0
107,200,156347,2,0,B|150:213|174:242,1,80,8|0,0:0|0:0,0:0:0
256,292,156684,22,0,B|336:312|412:268,1,160,4|8,0:0|0:0,0:0:0
420,92,157358,2,0,B|460:80|504:84,2,80,4|4|8,0:0|0:0|0:0,0:0:0
336,120,157864,2,0,B|256:144|180:100,1,160,2|4,0:0|0:0,0:0:0
100,64,158370,2,0,B|70:113|102:178|159:187,2,160,8|2|8,0:0|0:0|0:0,0:0:0
256,192,159381,2,0,B|286:241|254:306|197:315,1,160,2|8,0:0|0:0,0:0:0
32,256,160055,6,0,B|32:356,2,80,4|4|8,0:0|0:0|0:0,0:0:0
64,176,160560,2,0,B|113:146|178:178|187:235,1,160,2|4,0:0|0:0,0:0:0
232,312,161066,2,0,B|272:316|312:300,1,80,8|0,0:0|0:0,0:0:0
388,256,161403,2,0,B|404:216|392:172,1,80,2|4,0:0|0:0,0:0:0
364,96,161740,2,0,B|325:80|285:84,1,80,8|0,0:0|0:0,0:0:0
200,96,162077,6,0,B|151:126|86:94|77:37,2,160,2|8|4,0:0|0:0|0:0,0:0:0
256,164,162920,2,0,B|256:256,1,80,4|8,0:0|0:0,0:0:0
324,304,163257,2,0,B|358:350|430:344|460:295,1,160,2|4,0:0|0:0,0:0:0
460,208,163763,2,0,B|440:153|370:137|327:176,2,160,8|2|8,0:0|0:0|0:0,0:0:0
288,236,164774,2,0,B|234:257|176:214|177:156,1,160,2|8,0:0|0:0,0:0:0
343,97,165448,22,0,B|327:177,2,80,4|4|8,0:0|0:0|0:0,0:0:0
267,56,165954,2,0,B|210:48|161:102|177:158,1,160,2|4,0:0|0:0,0:0:0
176,244,166459,2,0,B|176:328,1,80,8|0,0:0|0:0,0:0:0
256,364,166796,2,0,B|256:280,1,80,2|4,0:0|0:0,0:0:0
336,244,167133,2,0,B|336:328,1,80,8|0,0:0|0:0,0:0:0
448,280,167471,6,0,B|501:258|517:187|476:146,2,160,4|8|4,0:0|0:0|0:0,0:0:0
400,204,168313,2,0,B|384:164|400:112,1,80,4|8,0:0|0:0,0:0:0
400,36,168650,2,0,B|361:-7|289:3|265:55,1,160,2|4,0:0|0:0,0:0:0
256,144,169156,2,0,B|256:224,1,80,8|0,0:0|0:0,0:0:0
208,300,169493,2,0,B|184:352|112:362|73:319,1,160,2|8,0:0|0:0,0:0:0
52,144,170167,2,0,B|76:92|148:82|187:125,1,160,2|8,0:0|0:0,0:0:0
288,264,170841,6,0,B|300:304|288:344,2,80,4|4|8,0:0|0:0|0:0,0:0:0
208,300,171347,2,0,B|150:303|108:244|127:189,1,160,2|4,0:0|0:0,0:0:0
184,124,171853,2,0,B|231:92|298:122|308:179,2,160,8|2|8,0:0|0:0|0:0,0:0:0
288,264,172864,2,0,B|343:279|399:233|392:176,1,160,4|8,0:0|0:0,0:0:0
184,124,173538,22,0,B|184:40,2,80,4|4|8,0:0|0:0|0:0,0:0:0
150,221,174044,2,0,B|119:270|149:337|206:345,1,160,2|4,0:0|0:0,0:0:0
305,345,174549,2,0,B|362:337|392:270|361:221,2,160,8|2|8,0:0|0:0|0:0,0:0:0
256,128,175560,5,4,0:0:0
256,256,176235,1,4,0:0:0
168,56,176909,5,2,0:0:0
168,56,177077,1,2,0:0:0
344,56,177414,21,2,0:0:0
344,56,177583,1,2,0:0:0
360,192,177920,38,0,B|278:168|238:216|154:192,1,207.999990478516,8|4,0:0|0:0,0:0:0
