osu file format v9

[General]
AudioFilename: KOTOKO - Namida no Chikai.mp3
AudioLeadIn: 0
PreviewTime: 196582
Countdown: 0
SampleSet: Soft
StackLeniency: 0.7
Mode: 0
LetterboxInBreaks: 0

[Editor]
DistanceSpacing: 1.2
BeatDivisor: 4
GridSize: 4

[Metadata]
Title:Namida no Chikai
Artist:KOTOKO
Creator:DarknessAngel
Version:Normal
Source:Triangle Heart 3 ~Sweet Songs Forever~
Tags:opening galgame hentai eroge bossandy -kevincela- KayeSara H-Miku

[Difficulty]
HPDrainRate:3
CircleSize:4
OverallDifficulty:4
ApproachRate:5
SliderMultiplier:1.3
SliderTickRate:1

[Events]
//Background and Video events
0,0,"a1f39b3294104b949c594a2fe644fc8a.jpg"
//Break Periods
2,131462,146468
//Storyboard Layer 0 (Background)
Sprite,Background,Centre,"a1f39b3294104b949c594a2fe644fc8a.jpg",320,240 F,0,0,,0
//Storyboard Layer 1 (Fail)
//Storyboard Layer 2 (Pass)
//Storyboard Layer 3 (Foreground)
Sprite,Foreground,Centre,"SB\a1f39b3294104b949c594a2fe644fc8a.jpg",320,240 S,0,20,,0.8 F,0,20,14372,0 F,0,14372,15910,0 F,0,15910,16423,0,1 F,0,16423,240712,1
Sprite,Foreground,Centre,"SB\BG effect.png",320,240 F,0,16423,,1 S,0,16423,16935,0.9999998,1.136 F,0,16423,17192,1,0 S,0,16935,47179,1.136,1 F,0,17192,47179,0 F,0,47179,48717,0,0.8 S,0,47179,49229,1 F,0,48717,49101,0.8,0.928 F,0,49101,49229,0 F,0,49101,49998,0.928,0 S,0,49229,49742,1,1.144 S,0,49742,97926,1.144,0.9999999 F,0,49998,94743,0 F,0,94743,97926,0 F,0,97926,98439,0,1 S,0,97926,98439,0.9999999,1 F,0,98439,98952,1,0 S,0,98439,98952,1,1.136 F,0,98952,114330,0 S,0,98952,114330,1.136,1 F,0,114330,114842,0,1 S,0,114330,114842,1,0.9999297 F,0,114842,115355,1,0 S,0,114842,115355,0.9999297,1.144 F,0,115355,130733,0 S,0,115355,131245,1.144,1.000191 F,0,130733,131245,0,1 S,0,131245,131758,1.000191,1.144175 F,0,131245,132014,1,0 S,0,131758,137397,1.144175,1 F,0,132014,147136,0 S,0,137397,147649,1,1.008 F,0,147136,147649,0,1 S,0,147649,148161,1.008,1.136 F,0,147649,148418,1,0 S,0,148161,196858,1.136,0.9985675 F,0,148418,195833,0 F,0,195833,196858,0,1 F,0,196858,197371,1,0 S,0,196858,197371,0.9985675,1.136 F,0,197371,212749,0 S,0,197371,213262,1.136,1.00007 F,0,212749,213262,0,1 F,0,213262,213774,1,0 S,0,213262,213774,1.00007,1.144 S,0,213774,,1.144 F,0,213774,229152,0 S,0,213774,229152,1.144,0.9999999 F,0,229152,229665,0,1 S,0,229152,229665,0.9999999,1.008 S,0,229665,230178,1.008,1.144 F,0,229665,230434,1,0
Sprite,Foreground,Centre,"SB\BG effect.png",320,240 F,0,81523,82036,0,1 S,0,82036,82548,1,1.144 F,0,82036,82805,1,0
Sprite,Foreground,Centre,"SB\BG effect.png",320,240 F,0,179943,180455,0,1 S,0,180455,180968,1,1.144 F,0,180455,181224,1,0
Sprite,Foreground,Centre,"SB\White.jpg",320,240 S,0,14372,,1.064 F,0,14372,15398,0,0.6320001 F,0,15398,15910,0.6320001,1 F,0,15910,16423,1,0 F,0,16423,20267,0 M,0,19498,,320,240 F,0,20267,20524,0,0.7279999 F,0,20524,20780,0.7279999,0 F,0,20780,24368,0 F,0,21036,,0 F,0,24368,24624,0,0.6160001 F,0,24624,24881,0.6160001,0 F,0,24881,28469,0 F,0,28469,28725,0,0.644 F,0,28725,28981,0.644,0 F,0,28981,32570,0 F,0,32570,32826,0,0.668 F,0,32826,33082,0.668,0 F,0,33082,36671,0 F,0,36671,36927,0,0.6800001 F,0,36927,37183,0.6800001,0 F,0,37183,40771,0 F,0,40771,41028,0,0.5919999 F,0,41028,41284,0.5919999,0 F,0,41284,44872,0 F,0,44872,45128,0,0.652 F,0,45128,45385,0.652,0 F,0,45385,57175,0 F,0,57175,57431,0,0.6000001 F,0,57431,57687,0.6000001,0 F,0,57687,65376,0 F,0,65376,65632,0,0.5800001 F,0,65632,65889,0.5800001,0 F,0,65889,75628,0 F,0,75628,75885,0,0.5880001 F,0,75885,76141,0.5880001,0 F,0,76141,81779,0 F,0,81779,82036,0,0.62 F,0,82036,82292,0.62,0 F,0,82292,89981,0 F,0,89981,90237,0,0.632 F,0,90237,90494,0.632,0 F,0,90494,102283,0 F,0,102283,102540,0,0.6680001 F,0,102540,102796,0.6680001,0 F,0,102796,108435,0 F,0,108435,108691,0,0.6440001 F,0,108691,108947,0.6440001,0 F,0,108947,114586,0 F,0,114586,114842,0,0.84 F,0,114842,115099,0.84,0 F,0,115099,118687,0 F,0,118687,118943,0,0.7039999 F,0,118943,119199,0.7039999,0 F,0,119199,124838,0 F,0,124838,125094,0,0.572 F,0,125094,125351,0.572,0 F,0,125351,155594,0 F,0,155594,155850,0,0.616 F,0,155850,156107,0.616,0 F,0,156107,159695,0 F,0,159695,159951,0,0.5720001 F,0,159951,160207,0.5720001,0 F,0,160207,163796,0 F,0,163796,164052,0,0.5760002 F,0,164052,164308,0.5760002,0 F,0,164308,169947,0 F,0,169947,170203,0,0.5000002 F,0,170203,170459,0.5000002,0 F,0,170459,174048,0 F,0,174048,174304,0,0.5920002 F,0,174304,174560,0.5920002,0 F,0,174560,180199,0 F,0,180199,180455,0,0.632 F,0,180455,180712,0.632,0 F,0,180712,188401,0 F,0,188401,188657,0,0.704 F,0,188657,188913,0.704,0 F,0,188913,200703,0 F,0,200703,200959,0,0.7572085 F,0,200959,201216,0.7572085,0 F,0,201216,206854,0 F,0,206854,207110,0,0.724 F,0,207110,207367,0.724,0 F,0,207367,213005,0 F,0,213005,,0 F,0,213005,213262,0,0.712 F,0,213262,213518,0.712,0 F,0,213518,217106,0 F,0,217106,217363,0,0.772 F,0,217363,217619,0.772,0 F,0,217619,223257,0 F,0,223257,223514,0,0.728 F,0,223514,223770,0.728,0
Sprite,Foreground,Centre,"lrc\3.png",320,240 M,0,19498,19627,224,234,204,223 M,0,19627,24624,204,223,345,227 F,0,20011,20524,0,1 F,0,20524,23599,1 F,0,23599,24624,1,0
Sprite,Foreground,Centre,"lrc\2.png",320,240 M,0,15910,,443,101 F,0,15910,16295,0 M,0,15910,20524,443,101,396,113 F,0,16295,16551,0,1 F,0,16551,19498,1 F,0,19498,20524,1,0
Sprite,Foreground,Centre,"SB\OP effect.png",320,240 M,0,16423,,435,98 S,0,16423,16679,0.2639999,1.104 F,0,16423,16935,1,0
Sprite,Foreground,Centre,"lrc\1.png",320,240 F,0,23599,24624,0,1 M,0,23599,28725,342,400,286,399 F,0,24624,27700,1 F,0,27700,28725,1,0 M,0,28725,,286,399,306,412
Sprite,Foreground,Centre,"SB\MINI SNOW.png",320,240 F,0,16166,16423,0,1 M,0,16423,,320,240 S,0,16423,,0.6040001 F,0,16423,48204,1 R,0,16423,49229,1.36,-9.264002 F,0,48204,49229,1,0
Sprite,Foreground,Centre,"SB\Black.jpg",320,240 S,0,47179,,1.072 F,0,47179,49229,0,0.68 F,0,49229,49742,0.68,0
Sprite,Foreground,Centre,"SB\OP effect.png",320,240 M,0,20524,,218,223 S,0,20524,20780,0.2959999,1.448 F,0,20524,21036,1,0
Sprite,Foreground,Centre,"SB\Font effect.png",320,240 F,0,24368,24624,0,1 M,0,24624,,322,394 R,0,24624,,-3.12 F,0,24624,25137,1,0
Sprite,Foreground,Centre,"SB\OP effect.png",320,240 M,0,24624,,344,396 S,0,24624,24881,0.36,1.272001 F,0,24624,25137,1,0
Sprite,Foreground,Centre,"lrc\4.png",320,240 M,0,48717,56406,261,404,379,408 F,0,49229,,0 F,0,49229,49742,0,1 F,0,49742,55380,1 F,0,55380,56406,1,0
Sprite,Foreground,Centre,"lrc\5.png",320,240 F,0,55893,56406,0,1 M,0,55893,65632,491,333,341,336 F,0,56406,64607,1 F,0,64607,65632,1,0
Sprite,Foreground,Centre,"lrc\6.png",320,240 M,0,65120,74347,275,97,368,88 F,0,65376,,0 F,0,65376,65889,0,1 F,0,65889,73322,1 F,0,73322,74347,1,0
Sprite,Foreground,Centre,"lrc\7.png",320,240 F,0,74090,74859,0,1 M,0,74090,81523,183,151,281,147 F,0,74859,80498,1 F,0,80498,81523,1,0
Sprite,Foreground,Centre,"lrc\8.png",320,240 M,0,81267,,426,234 F,0,81267,81779,0,1 M,0,81267,89725,426,234,323,233 F,0,81779,88700,1 F,0,88700,89725,1,0
Sprite,Foreground,Centre,"lrc\9.png",320,240 F,0,89212,89725,0,1 M,0,89212,98439,203,318,354,318 F,0,89725,97414,1 F,0,97414,98439,1,0
Sprite,Foreground,Centre,"lrc\34.png",320,240 S,0,93569,,1.36 F,0,93569,94082,0,1 M,0,93569,98183,456,393,315,388 F,0,94082,97157,1 F,0,97157,98183,1,0
Sprite,Foreground,Centre,"lrc\34.png",320,240 M,0,97414,,339,390 S,0,97414,97926,1.368,2.304 F,0,97414,98183,1,0
Sprite,Foreground,Centre,"SB\OP effect.png",320,240 M,0,97414,,352,387 S,0,97414,97926,0.3039996,1.312 F,0,97414,98183,1,0
Sprite,Foreground,Centre,"lrc\11.png",320,240 F,0,97926,98439,0,1 M,0,97926,102283,303,79,386,95 F,0,98439,101258,1 F,0,101258,102283,1,0
Sprite,Foreground,Centre,"SB\Font effect.png",320,240 F,0,98183,98439,0,1 M,0,98183,98695,318,81,319,79 F,0,98439,98952,1,0 S,0,98439,98952,1,1.344 F,0,98952,,0
Sprite,Foreground,Centre,"SB\White Effect.png",320,240 F,0,98439,,0.8 S,0,98439,98952,0.952,2.088 F,0,98439,99464,0.8,0
Sprite,Foreground,Centre,"SB\MINI SNOW.png",320,240 M,0,98183,,312,242 F,0,98183,98439,0 S,0,98183,98952,0.1,0.6280002 F,0,98439,98952,0,1 R,0,98439,131245,-0.1439999,-6.704 F,0,98952,130733,1 F,0,130733,131758,1,0 F,0,131245,,0
Sprite,Foreground,Centre,"SB\OP effect.png",320,240 R,0,98183,131245,0,10.992 F,0,98439,,0 F,0,98439,98952,0,1 S,0,98439,98952,1,2.688 F,0,98952,115544,1 F,0,115544,115554,1 F,0,115554,130733,1 F,0,130733,131758,1,0
Sprite,Foreground,Centre,"SB\OP effect.png",320,240 M,0,196602,,320,240 F,0,196602,196858,0 S,0,196602,197371,0.5359999,2.984 F,0,196858,197371,0,1 R,0,196858,229665,-0.06400024,13.568 S,0,197371,205194,2.984 F,0,197371,228640,1 F,0,228640,229665,1,0
Sprite,Foreground,Centre,"lrc\12.png",320,240 F,0,102027,,0 F,0,102027,102540,0,1 M,0,102027,107922,376,415,269,406 F,0,102540,106897,1 F,0,106897,107922,1,0
Sprite,Foreground,Centre,"lrc\13.png",320,240 F,0,107922,108435,0,1 M,0,107922,114586,204,296,351,289 F,0,108435,113561,1 F,0,113561,114586,1,0
Sprite,Foreground,Centre,"lrc\14.png",320,240 F,0,114586,115099,0,1 M,0,114586,118687,198,176,279,171 F,0,115099,117662,1 F,0,117662,118687,1,0
Sprite,Foreground,Centre,"lrc\15.png",320,240 F,0,118687,119199,0,1 M,0,118687,123813,381,98,261,88 F,0,119199,122788,1 F,0,122788,123813,1,0
Sprite,Foreground,Centre,"lrc\16.png",320,240 F,0,123813,124325,0,1 M,0,123813,131245,247,249,352,253 F,0,124325,130220,1 F,0,130220,131245,1,0
Sprite,Foreground,Centre,"lrc\17.png",320,240 M,0,147649,154569,322,353,424,354 F,0,147668,148180,0,1 F,0,148180,154076,1 F,0,154076,154589,1,0
Sprite,Foreground,Centre,"lrc\18.png",320,240 F,0,154569,155081,0,1 M,0,154569,159951,401,257,330,254 F,0,155081,158926,1 F,0,158926,159951,1,0 M,0,159951,,330,254 F,0,159951,,0
Sprite,Foreground,Centre,"lrc\19.png",320,240 F,0,158926,159439,0,1 M,0,158926,163924,158,105,257,104 F,0,159439,162899,1 F,0,162899,163924,1,0
Sprite,Foreground,Centre,"lrc\35.png",320,240 F,0,164052,164565,0,1 M,0,164052,167896,455,152,401,152 F,0,164565,166871,1 F,0,166871,167896,1,0
Sprite,Foreground,Centre,"lrc\21.png",320,240 F,0,167896,168409,0,1 M,0,167896,173022,236,232,319,228 F,0,168409,171997,1 F,0,171997,173022,1,0
Sprite,Foreground,Centre,"lrc\22.png",320,240 F,0,173022,173535,0,1 M,0,173022,180199,396,356,260,356 F,0,173535,179174,1 F,0,179174,180199,1,0
Sprite,Foreground,Centre,"lrc\23.png",320,240 F,0,179686,180199,0,1 M,0,179686,188144,256,122,346,117 F,0,180199,187119,1 F,0,187119,188144,1,0
Sprite,Foreground,Centre,"lrc\24.png",320,240 F,0,188144,188657,0,1 M,0,188144,196602,368,250,212,240 F,0,188657,,1 F,0,188657,195577,1 F,0,195577,196602,1,0
Sprite,Foreground,Centre,"lrc\26.png",320,240 F,0,191989,192501,0,1 M,0,191989,196602,256,364,323,359 F,0,192501,195577,1 F,0,195577,196602,1,0
Sprite,Foreground,Centre,"lrc\26.png",320,240 M,0,195577,,307,360 F,0,195577,,1,0 F,0,195577,195833,0,1 S,0,195833,196346,0.9840002,2.304 F,0,195833,196602,1,0
Sprite,Foreground,Centre,"SB\OP effect.png",320,240 M,0,195833,,320,359 S,0,195833,196346,0.2879999,1.6 F,0,195833,196602,1,0
Sprite,Foreground,Centre,"lrc\27.png",320,240 F,0,196602,197115,0,0.992 M,0,196602,200703,396,104,292,96 F,0,197115,199678,0.992,1 F,0,199678,200703,1,0
Sprite,Foreground,Centre,"lrc\28.png",320,240 F,0,200447,200959,0,1 M,0,200447,206342,265,213,364,216 F,0,200959,205316,1 F,0,205316,206342,1,0
Sprite,Foreground,Centre,"lrc\29.png",320,240 F,0,206085,206598,0,1 M,0,206085,213005,419,344,298,347 F,0,206598,211980,1 F,0,211980,213005,1,0
Sprite,Foreground,Centre,"lrc\36.png",320,240 F,0,212749,213262,0,1 M,0,212749,217106,219,107,298,109 F,0,213262,216081,1 F,0,216081,217106,1,0
Sprite,Foreground,Centre,"lrc\31.png",320,240 F,0,216850,217363,0,1 M,0,216850,222232,401,396,289,395 F,0,217363,221207,1 F,0,221207,222232,1,0
Sprite,Foreground,Centre,"lrc\32.png",320,240 F,0,221976,222489,0,1 M,0,221976,229665,214,247,357,244 F,0,222489,228640,1 F,0,228640,229665,1,0
Sprite,Foreground,Centre,"SB\White Effect.png",320,240 F,0,196602,196858,0,1 S,0,196858,197371,0.4959999,1.952 F,0,196858,197627,1,0
Sprite,Foreground,Centre,"SB\MINI SNOW.png",320,240 F,0,196602,196858,0 R,0,196602,229665,-0.04800018,-9.328 F,0,196858,197371,0,1 S,0,196858,197371,0.1,0.5159999 F,0,197371,228640,1 F,0,228640,229665,1,0
Sprite,Foreground,Centre,"SB\Font effect.png",320,240 M,0,196858,,376,102 F,0,196858,197115,1 F,0,197115,197627,1,0 F,0,197627,,0
Sprite,Foreground,Centre,"SB\Kiri.png",320,240 S,0,65632,,1 F,0,65632,66145,0,0.7039999 M,0,65632,90237,-414,317,792,318 F,0,66145,89725,0.7039999,1 F,0,89725,90237,1,0.03200012
Sprite,Foreground,Centre,"SB\Kiri.png",320,240 R,0,82036,,-3.088 F,0,82036,82548,0,0.632 M,0,82036,90237,939,175,317,150 F,0,82548,89725,0.632,1 F,0,89725,90237,1,0
Sprite,Foreground,Centre,"SB\Kiri.png",320,240 F,0,82548,83061,0,0.6680001 M,0,82548,90237,-316,322,60,322 F,0,83061,89725,0.6680001,0.7679999 F,0,89725,90237,0.7679999,0
Sprite,Foreground,Centre,"SB\wakka.png",320,240 F,0,89981,90237,0,1 M,0,90237,,320,254 F,0,90237,,1 S,0,90237,90622,0.4,1.66464 F,0,90237,90878,1,0 S,0,90622,,1.66464
Sprite,Foreground,Centre,"SB\Black.jpg",320,240 M,0,94338,,320,240 S,0,94338,,1.064 F,0,94338,97414,0,0.328 F,0,97414,97926,0.328,0
Sprite,Foreground,Centre,"SB\Kiri.png",320,240 F,0,164052,164565,0,0.7639999 M,0,164052,180455,938,331,-74,306 F,0,164565,188657,0.7639999,0.6360002 M,0,180455,189169,-74,306,-247,314 F,0,188657,189169,0.6360002,0
Sprite,Foreground,Centre,"SB\Kiri.png",320,240 F,0,175585,176098,0,0.8560001 M,0,175585,189169,937,314,578,315 F,0,176098,188657,0.8560001,0.556 F,0,188657,189169,0.556,0
Sprite,Foreground,Centre,"SB\Kiri.png",320,240 F,0,179943,180455,0,0.708 M,0,179943,189169,-254,144,281,140 F,0,180455,188657,0.708,0.64 F,0,188657,189169,0.64,0
Sprite,Foreground,Centre,"SB\wakka.png",320,240 F,0,188401,188657,0,1 M,0,188657,,321,252 S,0,188657,189041,0.3279999,1.464 F,0,188657,189298,1,0 F,0,189298,,0
Sprite,Foreground,Centre,"SB\Black.jpg",320,240 M,0,192758,,320,240 S,0,192758,,1.072 F,0,192758,195833,0,0.3560001 F,0,195833,196346,0.3560001,0
//Storyboard Sound Samples
//Background Colour Transformations
3,100,163,162,255

[TimingPoints]
20,512.667150852309,4,2,1,65,1,0
20526,-100,4,2,2,65,0,0
20654,-100,4,2,1,65,0,0
24628,-100,4,2,2,65,0,0
24756,-100,4,2,1,65,0,0
28729,-100,4,2,2,65,0,0
28857,-100,4,2,1,65,0,0
32830,-100,4,2,2,65,0,0
33343,-100,4,2,1,65,0,0
36932,-100,4,2,2,65,0,0
37060,-100,4,2,1,65,0,0
41033,-100,4,2,2,65,0,0
41289,-100,4,2,1,65,0,0
45134,-100,4,2,2,65,0,0
45262,-100,4,2,1,65,0,0
57438,-100,4,2,2,65,0,0
57566,-100,4,2,1,65,0,0
61540,-100,4,2,2,55,0,0
62052,-100,4,2,1,65,0,0
62565,-100,4,2,2,55,0,0
63078,-100,4,2,1,65,0,0
63590,-100,4,2,2,55,0,0
64103,-100,4,2,1,65,0,0
64359,-100,4,2,2,55,0,0
64616,-100,4,2,1,65,0,0
64872,-100,4,2,2,55,0,0
65128,-100,4,2,1,65,0,0
65641,-100,4,2,2,65,0,0
65769,-100,4,2,1,65,0,0
75894,-100,4,2,2,65,0,0
76022,-100,4,2,1,65,0,0
79227,-100,4,2,2,55,0,0
79483,-100,4,2,1,65,0,0
79996,-100,4,2,2,55,0,0
80508,-100,4,2,1,65,0,0
81021,-100,4,2,2,55,0,0
81277,-100,4,2,1,65,0,0
82046,-100,4,2,2,65,0,0
82174,-100,4,2,1,65,0,0
90249,-100,4,2,2,65,0,0
90377,-100,4,2,1,65,0,0
96914,-100,4,2,2,45,0,0
97170,-100,4,2,2,55,0,0
97426,-100,4,2,1,65,0,0
98452,-100,4,2,1,80,0,1
98580,-100,4,2,2,80,0,1
99477,-100,4,2,2,65,0,1
99990,-100,4,2,2,80,0,1
101528,-100,4,2,2,65,0,1
102040,-100,4,2,2,80,0,1
103322,-100,4,2,2,65,0,1
103450,-100,4,2,2,80,0,1
104860,-100,4,2,2,65,0,1
105116,-100,4,2,2,80,0,1
105373,-100,4,2,2,65,0,1
105629,-100,4,2,2,80,0,1
106654,-100,4,1,0,55,0,1
106782,-100,4,2,2,80,0,1
107936,-100,4,2,2,65,0,1
108192,-100,4,2,2,80,0,1
109474,-100,4,2,2,65,0,1
109730,-100,4,2,2,80,0,1
110756,-100,4,2,2,65,0,1
111268,-100,4,2,2,80,0,1
114729,-100,4,2,1,80,0,0
114857,-100,4,2,1,80,0,1
115113,-100,4,2,2,80,0,1
115626,-100,4,2,2,65,0,1
116267,-100,4,2,2,80,0,1
116908,-100,4,2,2,65,0,1
117036,-100,4,2,2,80,0,1
117933,-100,4,2,2,65,0,1
118061,-100,4,2,2,80,0,1
119727,-100,4,2,2,65,0,1
120496,-100,4,2,2,80,0,1
121009,-100,4,2,2,65,0,1
121522,-100,4,2,2,80,0,1
122034,-100,4,2,2,65,0,1
122547,-100,4,2,2,80,0,1
122803,-100,4,2,2,60,0,1
123060,-100,4,1,0,55,0,1
123572,-100,4,2,2,80,0,1
124341,-100,4,2,2,60,0,1
125110,-100,4,2,2,80,0,1
131262,-100,4,2,1,80,0,0
147668,-100,4,2,1,65,0,0
155870,-100,4,2,2,65,0,0
156383,-100,4,2,1,65,0,0
159972,-100,4,2,2,65,0,0
160100,-100,4,2,1,65,0,0
164073,-100,4,2,2,65,0,0
164201,-100,4,2,1,65,0,0
170225,-100,4,2,2,65,0,0
170738,-100,4,2,1,65,0,0
174326,-100,4,2,2,65,0,0
174454,-100,4,2,1,65,0,0
178428,-100,4,2,2,45,0,0
178684,-100,4,2,2,55,0,0
178940,-100,4,2,1,65,0,0
179453,-100,4,2,2,55,0,0
179966,-100,4,2,1,65,0,0
180478,-100,4,2,2,65,0,0
180991,-100,4,2,1,65,0,0
188681,-100,4,2,2,65,0,0
189194,-100,4,2,1,65,0,0
192782,-100,4,2,2,55,0,0
193295,-100,4,2,1,65,0,0
193808,-100,4,2,2,55,0,0
194320,-100,4,2,1,65,0,0
194833,-100,4,2,2,55,0,0
195346,-100,4,2,1,65,0,0
195858,-100,4,2,2,65,0,0
196371,-100,4,2,1,65,0,0
196884,-100,4,2,1,80,0,1
197012,-100,4,2,2,80,0,1
197909,-100,4,2,2,65,0,1
198037,-100,4,2,2,80,0,1
199703,-100,4,2,2,65,0,1
200088,-100,4,2,2,80,0,1
201754,-100,4,2,2,65,0,1
202523,-100,4,2,2,80,0,1
203036,-100,4,2,2,65,0,1
203164,-100,4,2,2,80,0,1
204061,-100,4,2,2,65,0,1
204317,-100,4,2,2,80,0,1
204830,-100,4,2,2,65,0,1
205086,-100,4,1,0,55,0,1
205215,-100,4,2,2,80,0,1
208162,-100,4,2,2,65,0,1
208291,-100,4,2,2,80,0,1
209188,-100,4,2,2,65,0,1
209700,-100,4,2,2,80,0,1
213161,-100,4,2,1,80,0,0
213289,-100,4,2,1,80,0,1
213545,-100,4,2,2,80,0,1
214314,-100,4,2,2,65,0,1
214443,-100,4,2,2,80,0,1
215340,-100,4,2,2,65,0,1
215596,-100,4,2,2,80,0,1
216109,-100,4,2,2,65,0,1
216493,-100,4,2,2,80,0,1
217647,-100,4,2,2,55,0,1
217903,-100,4,2,2,80,0,1
218672,-100,4,2,2,65,0,1
219569,-100,4,2,2,80,0,1
220466,-100,4,2,2,65,0,1
220979,-100,4,2,2,80,0,1
221492,-100,4,1,0,55,0,1
221620,-100,4,2,2,80,0,1
222261,-100,4,2,2,65,0,1
223030,-100,4,2,2,80,0,1
224568,-100,4,2,2,65,0,1
225080,-100,4,2,2,80,0,1
229694,-100,4,2,1,60,0,0

[Colours]
Combo1 : 255,244,230
Combo2 : 138,236,226
Combo3 : 45,82,232
Combo4 : 163,141,226

[HitObjects]
140,104,16425,2,0,B|116:168|140:232,1,130,4|8
192,288,17194,2,0,B|256:312|320:288,1,130,2|0
372,232,17963,2,0,B|395:168|371:104,2,130,8|2|8
256,336,19501,1,2
136,236,20014,1,8
184,88,20526,6,0,B|160:60|132:48|96:48|64:60,2,130,4|8|0
256,116,21808,1,2
328,88,22064,2,0,B|352:60|380:48|416:48|448:60,2,130,8|0|8
256,116,23346,1,8
256,192,23602,2,0,B|256:320,1,130,2|8
412,316,24628,6,0,B|435:252|411:188,1,130,4|8
324,60,25653,1,2
392,20,25909,1,0
456,60,26166,1,8
324,144,26678,2,0,B|260:168|196:144,1,130,2|8
124,112,27447,2,0,B|88:100|76:72,2,65,8|0|2
132,188,28216,1,8
64,328,28729,6,0,B|128:300|192:328,1,130,4|8
268,324,29498,2,0,B|330:351|394:323,1,130,2|0
448,268,30267,1,8
340,156,30780,1,2
396,100,31036,1,8
452,156,31292,1,8
316,232,31805,2,0,B|252:232,2,65,8|2|8
252,88,32830,5,4
104,36,33343,1,8
48,180,33856,1,2
195,235,34368,1,8
336,300,34881,2,0,B|280:343|216:343,1,130,2|8
140,344,35650,2,0,B|108:344|80:320,2,65,2|0|2
176,276,36419,1,8
236,132,36932,6,0,B|200:80|128:56,1,130,4|8
60,84,37701,1,0
120,132,37957,1,2
36,264,38470,1,8
188,232,38982,2,0,B|256:216|296:160,1,130,2|8
400,44,40008,2,0,B|452:92|460:160,1,130,2|8
432,228,40777,1,0
380,168,41033,5,4
444,312,41546,2,0,B|380:292|316:312,1,130,8|2
380,168,42571,1,8
252,80,43084,1,0
176,64,43340,1,2
100,80,43596,2,0,B|36:108|32:184,1,130,8|2
188,204,44622,1,8
276,332,45134,6,0,B|340:304|344:228,1,130,4|8
188,204,46160,2,0,B|160:224|152:256,2,65,2|0|8
300,96,47185,2,0,B|356:60|424:64,1,130,8|8
400,140,47954,1,2
476,120,48210,1,2
456,196,48467,2,0,B|456:260,1,65,8|8
312,324,49236,6,0,B|248:344|184:324,1,130,4|8
120,280,50005,1,2
76,216,50261,2,0,B|44:156|76:88,1,130,2|8
132,36,51030,1,2
168,104,51286,2,0,B|228:132|296:104,1,130,2|8
332,36,52055,1,2
384,96,52312,1,0
260,192,52824,1,8
316,244,53081,1,2
384,284,53337,6,0,B|436:320|504:336,2,130,2|8|2
240,340,54875,1,8
132,228,55388,2,0,B|80:192|12:176,2,130,2|8|0
204,88,56926,1,8
204,88,57182,1,8
204,88,57438,6,0,B|152:52|84:36,2,130,4|8|2
360,64,58976,1,8
428,104,59233,1,0
360,144,59489,2,0,B|332:204|368:268,1,130,2|8
420,328,60258,1,0
344,340,60514,2,0,B|286:307|219:339,1,130,2|8
140,336,61283,1,0
180,268,61540,6,0,B|216:203|188:143,1,130,2|8
320,60,62565,2,0,B|256:36|192:60,1,130,2|8
320,148,63590,2,0,B|384:172|448:148,1,130,2|8
396,88,64359,1,2
324,60,64616,1,2
252,92,64872,2,0,B|224:116|224:152,1,65,2|8
336,256,65641,6,0,B|384:300|452:308,2,130,4|8|2
180,256,67179,1,8
104,280,67435,1,0
160,336,67692,2,0,B|232:364|288:348,2,130,2|8|2
72,208,69230,2,0,B|52:180|56:144,1,65,8|0
132,152,69742,6,0,B|196:136|236:80,2,130,2|8|0
152,228,71024,1,2
220,268,71280,2,0,B|252:288|284:280,1,65,8|0
356,252,71793,2,0,B|404:208|408:136,2,130,2|8|2
372,328,73075,1,0
436,284,73331,2,0,B|480:236|484:164,2,130,8|2|8
372,328,74613,5,0
296,332,74869,2,0,B|264:328|240:304,1,65,2|8
296,248,75382,2,0,B|271:223|239:219,1,65,10|0
160,216,75894,2,0,B|96:220|44:268,2,130,4|8|2
64,92,77432,1,8
220,88,77945,2,0,B|296:80|344:44,2,130,2|8|2
144,92,79227,5,2
184,160,79483,1,8
312,248,79996,1,2
376,204,80252,1,2
332,140,80508,1,8
224,252,81021,2,0,B|228:292|252:312,2,65,2|2|8
76,196,82046,6,0,B|52:256|80:324,1,130,4|8
144,280,82815,2,0,B|168:220|140:152,1,130,2|0
72,120,83584,2,0,B|117:64|182:57,1,130,8|0
340,60,84610,2,0,B|408:72,1,65,8|0
364,140,85122,2,0,B|432:160,1,65,2|0
376,220,85635,2,0,B|432:256,1,65,8|0
368,304,86148,6,0,B|312:336|240:320,1,130,2|8
268,248,86917,2,0,B|198:232|142:264,1,130,2|0
68,292,87686,2,0,B|52:222|92:168,3,130,10|0|8|2
160,128,89480,1,8
92,88,89736,1,8
240,44,90249,6,0,B|304:32|372:44,1,130,4|8
440,76,91018,1,2
376,120,91274,2,0,B|360:188|380:248,1,130,2|8
400,324,92043,1,0
400,324,92300,2,0,B|340:304|272:328,1,130,2|8
196,316,93069,2,0,B|160:312|132:328,1,65,0|2
208,192,93838,1,8
276,152,94094,1,0
348,124,94350,6,0,B|412:100|476:104,2,130,6|8|0
208,56,95888,1,8
84,152,96401,1,2
240,136,96914,1,2
164,144,97170,1,2
212,204,97426,2,0,B|236:236|268:240,2,65,2|8|8
340,112,98452,6,0,B|408:92|444:40,2,130,4|8|2
476,192,99990,1,8
340,272,100502,2,0,B|408:292|444:344,2,130,0|8|2
184,272,102040,1,8
96,144,102553,6,0,B|72:112|72:80,2,65,4|0|8
168,180,103322,2,0,B|236:188|292:152,1,130,2|0
348,96,104091,1,8
432,228,104604,5,0
460,156,104860,2,0,B|480:120|472:88,2,65,2|8|2
384,164,105629,2,0,B|328:200|332:276,1,130,0|8
176,292,106654,6,0,B|65:292|65:130|180:132,1,260,4|0
176,212,107936,1,2
252,208,108192,2,0,B|288:208|312:232,1,65,8|0
260,288,108705,6,0,B|312:328|384:308,1,130,4|8
440,252,109474,1,2
472,180,109730,2,0,B|492:116|472:52,2,130,0|8|2
332,108,111268,1,8
256,192,111525,12,8,114344
192,80,114857,6,0,B|132:112|120:184,1,130,4|8
200,176,115626,2,0,B|260:208|272:280,1,130,2|2
200,312,116395,1,8
264,356,116651,1,0
336,328,116908,2,0,B|396:300|420:232,1,130,2|8
380,84,117933,2,0,B|320:112|296:180,1,130,2|8
372,192,118702,1,0
432,144,118958,6,0,B|460:116|460:84,2,65,4|0|8
372,192,119727,2,0,B|352:260|396:320,1,130,2|2
464,352,120496,1,8
308,340,121009,1,2
184,244,121522,1,8
124,100,122034,2,0,B|68:136|40:200,1,130,2|8
36,276,122803,1,2
104,236,123060,5,4
224,136,123572,1,8
288,92,123829,2,0,B|348:56|416:56,1,130,0|2
400,132,124598,2,0,B|388:164|400:196,1,65,8|2
472,168,125110,2,0,B|476:236|444:296,1,130,4|8
296,340,126136,2,0,B|292:272|324:212,1,130,4|8
256,192,127161,12,4,131262
424,84,147668,6,0,B|360:68|296:84,1,130,4|8
256,152,148437,1,0
216,84,148693,2,0,B|152:68|88:84,1,130,2|8
48,152,149462,1,0
124,152,149718,1,2
24,272,150231,1,8
92,312,150487,1,2
164,344,150744,2,0,B|228:364|292:352,2,130,0|8|2
240,208,152282,5,8
312,176,152538,1,2
376,132,152794,2,0,B|424:84|440:20,2,130,0|8|2
220,112,154332,1,8
220,112,154589,1,0
220,112,154845,2,0,B|160:84|92:84,1,130,2|8
136,236,155870,5,4
280,296,156383,1,8
280,296,156639,1,0
280,296,156896,2,0,B|344:324|408:320,1,130,2|8
396,244,157665,1,0
472,264,157921,2,0,B|504:204|492:136,1,130,2|8
460,68,158690,2,0,B|436:44|400:40,1,65,0|2
276,132,159459,2,0,B|280:168|300:192,1,65,8|0
352,248,159972,6,0,B|408:288|480:288,2,130,4|8|2
224,340,161510,1,8
104,240,162022,2,0,B|48:200|40:128,2,130,2|8|2
160,292,163304,1,8
180,216,163560,1,8
296,112,164073,6,0,B|344:64|412:52,1,130,4|8
408,132,164842,1,2
476,92,165098,2,0,B|492:156|468:224,1,130,2|8
436,292,165867,1,0
372,332,166124,2,0,B|332:340|304:324,2,65,2|0|8
348,256,166893,1,2
284,212,167149,2,0,B|228:176|160:176,1,130,2|8
116,240,167918,1,0
148,312,168174,6,0,B|46:355|-17:206|92:160,1,260,2|2
156,124,169456,2,0,B|176:100|184:64,1,65,0|8
104,64,169969,1,0
104,64,170225,1,4
260,44,170738,2,0,B|324:36|388:64,1,130,8|2
396,220,171763,1,8
396,220,172019,1,2
396,220,172276,2,0,B|412:288|460:332,1,130,0|8
320,260,173301,5,2
328,184,173557,1,0
368,116,173814,2,0,B|404:64|472:32,2,130,8|4|8
212,140,175352,2,0,B|160:104|128:36,2,130,2|8|2
336,236,176890,2,0,B|396:264|464:240,2,130,8|2|8
276,188,178171,6,0,B|236:188|216:212,2,65,2|2|2
348,164,178940,1,8
396,104,179197,1,2
340,52,179453,2,0,B|280:32|212:44,1,130,2|8
92,144,180478,5,4
156,288,180991,1,8
228,320,181247,2,0,B|292:344|360:328,1,130,2|0
420,284,182016,2,0,B|456:232|448:160,1,130,8|0
296,196,183042,1,8
172,104,183554,2,0,B|136:156|143:227,1,130,2|8
296,196,184580,6,0,B|331:143|324:72,1,130,2|8
248,92,185349,1,2
220,244,185861,1,2
292,276,186118,2,0,B|343:317|413:305|464:245|469:202|457:159,1,260,8|8
304,192,187656,1,2
160,128,188168,2,0,B|100:108|56:48,1,130,8|4
80,204,189194,5,8
132,264,189450,1,2
196,308,189706,2,0,B|256:344|320:328,2,130,2|8|2
340,248,191244,1,8
340,248,191501,1,2
340,248,191757,2,0,B|400:208|424:152,1,130,0|8
460,80,192526,1,2
384,60,192782,6,0,B|324:43|255:64,1,130,2|8
120,144,193808,2,8,B|179:160|248:139,1,130,2|8
372,236,194833,2,0,B|312:252|243:231,2,130,2|8|4
284,108,196371,1,8
212,76,196627,1,2
136,56,196884,6,0,B|128:124|164:180,1,130,4|8
228,320,197909,2,0,B|166:334|102:301,2,130,2|8|0
384,296,199447,1,8
424,228,199703,1,2
440,152,199960,2,0,B|452:88|412:28,1,130,2|8
256,44,200985,6,0,B|224:44|196:64,2,65,4|0|8
312,100,201754,2,0,B|340:160|316:228,1,130,2|2
260,284,202523,1,8
192,324,202779,1,0
116,308,203036,6,0,B|64:268|56:192,1,130,2|8
60,120,203805,2,0,B|72:84|96:68,2,65,0|2|0
124,164,204574,2,0,B|148:192|180:196,1,65,8|2
248,228,205086,2,0,B|308:260|332:324,2,130,4|8|0
396,180,206624,5,8
456,132,206881,1,0
384,100,207137,2,0,B|324:72|256:72,1,130,4|8
180,80,207906,1,0
140,148,208162,2,0,B|200:176|268:176,2,130,2|8|2
108,300,209700,1,8
256,192,209957,12,8,212776
196,268,213289,6,0,B|256:296|324:268,1,130,4|8
320,112,214314,2,0,B|253:84|193:112,1,130,2|8
328,192,215340,1,2
404,192,215596,2,0,B|468:192,2,65,0|8|2
368,260,216365,2,0,B|404:312|472:340,2,130,2|8|4
288,260,217647,6,0,B|268:296|280:328,2,65,2|8|0
220,120,218672,2,0,B|172:68|104:64,1,130,2|2
116,140,219441,2,0,B|116:208|64:256,2,130,2|8|2
252,64,220979,1,8
328,76,221235,1,0
404,100,221492,2,0,B|464:128|508:184,1,130,4|8
432,208,222261,6,0,B|464:265|466:337,1,130,2|2
392,348,223030,2,0,B|359:290|357:218,2,130,8|4|8
252,280,224568,2,0,B|188:280|128:320,1,130,2|8
256,192,225593,12,4,229694
