osu file format v9

[General]
AudioFilename: KOTOKO - Namida no Chikai.mp3
AudioLeadIn: 0
PreviewTime: 196582
Countdown: 0
SampleSet: Soft
StackLeniency: 0.7
Mode: 0
LetterboxInBreaks: 0

[Editor]
DistanceSpacing: 0.8
BeatDivisor: 4
GridSize: 4

[Metadata]
Title:Namida no Chikai
Artist:KOTOKO
Creator:DarknessAngel
Version:D.N.Angel
Source:Triangle Heart 3 ~Sweet Songs Forever~
Tags:opening galgame hentai eroge bossandy -kevincela- KayeSara H-Miku

[Difficulty]
HPDrainRate:7
CircleSize:4
OverallDifficulty:6
ApproachRate:8
SliderMultiplier:1.8
SliderTickRate:2

[Events]
//Background and Video events
0,0,"a1f39b3294104b949c594a2fe644fc8a.jpg"
//Break Periods
2,131462,146918
//Storyboard Layer 0 (Background)
Sprite,Background,Centre,"a1f39b3294104b949c594a2fe644fc8a.jpg",320,240 F,0,0,,0
//Storyboard Layer 1 (Fail)
//Storyboard Layer 2 (Pass)
//Storyboard Layer 3 (Foreground)
Sprite,Foreground,Centre,"SB\a1f39b3294104b949c594a2fe644fc8a.jpg",320,240 S,0,20,,0.8 F,0,20,14372,0 F,0,14372,15910,0 F,0,15910,16423,0,1 F,0,16423,240712,1
Sprite,Foreground,Centre,"SB\BG effect.png",320,240 F,0,16423,,1 S,0,16423,16935,0.9999998,1.136 F,0,16423,17192,1,0 S,0,16935,47179,1.136,1 F,0,17192,47179,0 F,0,47179,48717,0,0.8 S,0,47179,49229,1 F,0,48717,49101,0.8,0.928 F,0,49101,49229,0 F,0,49101,49998,0.928,0 S,0,49229,49742,1,1.144 S,0,49742,97926,1.144,0.9999999 F,0,49998,94743,0 F,0,94743,97926,0 F,0,97926,98439,0,1 S,0,97926,98439,0.9999999,1 F,0,98439,98952,1,0 S,0,98439,98952,1,1.136 F,0,98952,114330,0 S,0,98952,114330,1.136,1 F,0,114330,114842,0,1 S,0,114330,114842,1,0.9999297 F,0,114842,115355,1,0 S,0,114842,115355,0.9999297,1.144 F,0,115355,130733,0 S,0,115355,131245,1.144,1.000191 F,0,130733,131245,0,1 S,0,131245,131758,1.000191,1.144175 F,0,131245,132014,1,0 S,0,131758,137397,1.144175,1 F,0,132014,147136,0 S,0,137397,147649,1,1.008 F,0,147136,147649,0,1 S,0,147649,148161,1.008,1.136 F,0,147649,148418,1,0 S,0,148161,196858,1.136,0.9985675 F,0,148418,195833,0 F,0,195833,196858,0,1 F,0,196858,197371,1,0 S,0,196858,197371,0.9985675,1.136 F,0,197371,212749,0 S,0,197371,213262,1.136,1.00007 F,0,212749,213262,0,1 F,0,213262,213774,1,0 S,0,213262,213774,1.00007,1.144 S,0,213774,,1.144 F,0,213774,229152,0 S,0,213774,229152,1.144,0.9999999 F,0,229152,229665,0,1 S,0,229152,229665,0.9999999,1.008 S,0,229665,230178,1.008,1.144 F,0,229665,230434,1,0
Sprite,Foreground,Centre,"SB\BG effect.png",320,240 F,0,81523,82036,0,1 S,0,82036,82548,1,1.144 F,0,82036,82805,1,0
Sprite,Foreground,Centre,"SB\BG effect.png",320,240 F,0,179943,180455,0,1 S,0,180455,180968,1,1.144 F,0,180455,181224,1,0
Sprite,Foreground,Centre,"SB\White.jpg",320,240 S,0,14372,,1.064 F,0,14372,15398,0,0.6320001 F,0,15398,15910,0.6320001,1 F,0,15910,16423,1,0 F,0,16423,20267,0 M,0,19498,,320,240 F,0,20267,20524,0,0.7279999 F,0,20524,20780,0.7279999,0 F,0,20780,24368,0 F,0,21036,,0 F,0,24368,24624,0,0.6160001 F,0,24624,24881,0.6160001,0 F,0,24881,28469,0 F,0,28469,28725,0,0.644 F,0,28725,28981,0.644,0 F,0,28981,32570,0 F,0,32570,32826,0,0.668 F,0,32826,33082,0.668,0 F,0,33082,36671,0 F,0,36671,36927,0,0.6800001 F,0,36927,37183,0.6800001,0 F,0,37183,40771,0 F,0,40771,41028,0,0.5919999 F,0,41028,41284,0.5919999,0 F,0,41284,44872,0 F,0,44872,45128,0,0.652 F,0,45128,45385,0.652,0 F,0,45385,57175,0 F,0,57175,57431,0,0.6000001 F,0,57431,57687,0.6000001,0 F,0,57687,65376,0 F,0,65376,65632,0,0.5800001 F,0,65632,65889,0.5800001,0 F,0,65889,75628,0 F,0,75628,75885,0,0.5880001 F,0,75885,76141,0.5880001,0 F,0,76141,81779,0 F,0,81779,82036,0,0.62 F,0,82036,82292,0.62,0 F,0,82292,89981,0 F,0,89981,90237,0,0.632 F,0,90237,90494,0.632,0 F,0,90494,102283,0 F,0,102283,102540,0,0.6680001 F,0,102540,102796,0.6680001,0 F,0,102796,108435,0 F,0,108435,108691,0,0.6440001 F,0,108691,108947,0.6440001,0 F,0,108947,114586,0 F,0,114586,114842,0,0.84 F,0,114842,115099,0.84,0 F,0,115099,118687,0 F,0,118687,118943,0,0.7039999 F,0,118943,119199,0.7039999,0 F,0,119199,124838,0 F,0,124838,125094,0,0.572 F,0,125094,125351,0.572,0 F,0,125351,155594,0 F,0,155594,155850,0,0.616 F,0,155850,156107,0.616,0 F,0,156107,159695,0 F,0,159695,159951,0,0.5720001 F,0,159951,160207,0.5720001,0 F,0,160207,163796,0 F,0,163796,164052,0,0.5760002 F,0,164052,164308,0.5760002,0 F,0,164308,169947,0 F,0,169947,170203,0,0.5000002 F,0,170203,170459,0.5000002,0 F,0,170459,174048,0 F,0,174048,174304,0,0.5920002 F,0,174304,174560,0.5920002,0 F,0,174560,180199,0 F,0,180199,180455,0,0.632 F,0,180455,180712,0.632,0 F,0,180712,188401,0 F,0,188401,188657,0,0.704 F,0,188657,188913,0.704,0 F,0,188913,200703,0 F,0,200703,200959,0,0.7572085 F,0,200959,201216,0.7572085,0 F,0,201216,206854,0 F,0,206854,207110,0,0.724 F,0,207110,207367,0.724,0 F,0,207367,213005,0 F,0,213005,,0 F,0,213005,213262,0,0.712 F,0,213262,213518,0.712,0 F,0,213518,217106,0 F,0,217106,217363,0,0.772 F,0,217363,217619,0.772,0 F,0,217619,223257,0 F,0,223257,223514,0,0.728 F,0,223514,223770,0.728,0
Sprite,Foreground,Centre,"lrc\3.png",320,240 M,0,19498,19627,224,234,204,223 M,0,19627,24624,204,223,345,227 F,0,20011,20524,0,1 F,0,20524,23599,1 F,0,23599,24624,1,0
Sprite,Foreground,Centre,"lrc\2.png",320,240 M,0,15910,,443,101 F,0,15910,16295,0 M,0,15910,20524,443,101,396,113 F,0,16295,16551,0,1 F,0,16551,19498,1 F,0,19498,20524,1,0
Sprite,Foreground,Centre,"SB\OP effect.png",320,240 M,0,16423,,435,98 S,0,16423,16679,0.2639999,1.104 F,0,16423,16935,1,0
Sprite,Foreground,Centre,"lrc\1.png",320,240 F,0,23599,24624,0,1 M,0,23599,28725,342,400,286,399 F,0,24624,27700,1 F,0,27700,28725,1,0 M,0,28725,,286,399,306,412
Sprite,Foreground,Centre,"SB\MINI SNOW.png",320,240 F,0,16166,16423,0,1 M,0,16423,,320,240 S,0,16423,,0.6040001 F,0,16423,48204,1 R,0,16423,49229,1.36,-9.264002 F,0,48204,49229,1,0
Sprite,Foreground,Centre,"SB\Black.jpg",320,240 S,0,47179,,1.072 F,0,47179,49229,0,0.68 F,0,49229,49742,0.68,0
Sprite,Foreground,Centre,"SB\OP effect.png",320,240 M,0,20524,,218,223 S,0,20524,20780,0.2959999,1.448 F,0,20524,21036,1,0
Sprite,Foreground,Centre,"SB\Font effect.png",320,240 F,0,24368,24624,0,1 M,0,24624,,322,394 R,0,24624,,-3.12 F,0,24624,25137,1,0
Sprite,Foreground,Centre,"SB\OP effect.png",320,240 M,0,24624,,344,396 S,0,24624,24881,0.36,1.272001 F,0,24624,25137,1,0
Sprite,Foreground,Centre,"lrc\4.png",320,240 M,0,48717,56406,261,404,379,408 F,0,49229,,0 F,0,49229,49742,0,1 F,0,49742,55380,1 F,0,55380,56406,1,0
Sprite,Foreground,Centre,"lrc\5.png",320,240 F,0,55893,56406,0,1 M,0,55893,65632,491,333,341,336 F,0,56406,64607,1 F,0,64607,65632,1,0
Sprite,Foreground,Centre,"lrc\6.png",320,240 M,0,65120,74347,275,97,368,88 F,0,65376,,0 F,0,65376,65889,0,1 F,0,65889,73322,1 F,0,73322,74347,1,0
Sprite,Foreground,Centre,"lrc\7.png",320,240 F,0,74090,74859,0,1 M,0,74090,81523,183,151,281,147 F,0,74859,80498,1 F,0,80498,81523,1,0
Sprite,Foreground,Centre,"lrc\8.png",320,240 M,0,81267,,426,234 F,0,81267,81779,0,1 M,0,81267,89725,426,234,323,233 F,0,81779,88700,1 F,0,88700,89725,1,0
Sprite,Foreground,Centre,"lrc\9.png",320,240 F,0,89212,89725,0,1 M,0,89212,98439,203,318,354,318 F,0,89725,97414,1 F,0,97414,98439,1,0
Sprite,Foreground,Centre,"lrc\34.png",320,240 S,0,93569,,1.36 F,0,93569,94082,0,1 M,0,93569,98183,456,393,315,388 F,0,94082,97157,1 F,0,97157,98183,1,0
Sprite,Foreground,Centre,"lrc\34.png",320,240 M,0,97414,,339,390 S,0,97414,97926,1.368,2.304 F,0,97414,98183,1,0
Sprite,Foreground,Centre,"SB\OP effect.png",320,240 M,0,97414,,352,387 S,0,97414,97926,0.3039996,1.312 F,0,97414,98183,1,0
Sprite,Foreground,Centre,"lrc\11.png",320,240 F,0,97926,98439,0,1 M,0,97926,102283,303,79,386,95 F,0,98439,101258,1 F,0,101258,102283,1,0
Sprite,Foreground,Centre,"SB\Font effect.png",320,240 F,0,98183,98439,0,1 M,0,98183,98695,318,81,319,79 F,0,98439,98952,1,0 S,0,98439,98952,1,1.344 F,0,98952,,0
Sprite,Foreground,Centre,"SB\White Effect.png",320,240 F,0,98439,,0.8 S,0,98439,98952,0.952,2.088 F,0,98439,99464,0.8,0
Sprite,Foreground,Centre,"SB\MINI SNOW.png",320,240 M,0,98183,,312,242 F,0,98183,98439,0 S,0,98183,98952,0.1,0.6280002 F,0,98439,98952,0,1 R,0,98439,131245,-0.1439999,-6.704 F,0,98952,130733,1 F,0,130733,131758,1,0 F,0,131245,,0
Sprite,Foreground,Centre,"SB\OP effect.png",320,240 R,0,98183,131245,0,10.992 F,0,98439,,0 F,0,98439,98952,0,1 S,0,98439,98952,1,2.688 F,0,98952,115544,1 F,0,115544,115554,1 F,0,115554,130733,1 F,0,130733,131758,1,0
Sprite,Foreground,Centre,"SB\OP effect.png",320,240 M,0,196602,,320,240 F,0,196602,196858,0 S,0,196602,197371,0.5359999,2.984 F,0,196858,197371,0,1 R,0,196858,229665,-0.06400024,13.568 S,0,197371,205194,2.984 F,0,197371,228640,1 F,0,228640,229665,1,0
Sprite,Foreground,Centre,"lrc\12.png",320,240 F,0,102027,,0 F,0,102027,102540,0,1 M,0,102027,107922,376,415,269,406 F,0,102540,106897,1 F,0,106897,107922,1,0
Sprite,Foreground,Centre,"lrc\13.png",320,240 F,0,107922,108435,0,1 M,0,107922,114586,204,296,351,289 F,0,108435,113561,1 F,0,113561,114586,1,0
Sprite,Foreground,Centre,"lrc\14.png",320,240 F,0,114586,115099,0,1 M,0,114586,118687,198,176,279,171 F,0,115099,117662,1 F,0,117662,118687,1,0
Sprite,Foreground,Centre,"lrc\15.png",320,240 F,0,118687,119199,0,1 M,0,118687,123813,381,98,261,88 F,0,119199,122788,1 F,0,122788,123813,1,0
Sprite,Foreground,Centre,"lrc\16.png",320,240 F,0,123813,124325,0,1 M,0,123813,131245,247,249,352,253 F,0,124325,130220,1 F,0,130220,131245,1,0
Sprite,Foreground,Centre,"lrc\17.png",320,240 M,0,147649,154569,322,353,424,354 F,0,147668,148180,0,1 F,0,148180,154076,1 F,0,154076,154589,1,0
Sprite,Foreground,Centre,"lrc\18.png",320,240 F,0,154569,155081,0,1 M,0,154569,159951,401,257,330,254 F,0,155081,158926,1 F,0,158926,159951,1,0 M,0,159951,,330,254 F,0,159951,,0
Sprite,Foreground,Centre,"lrc\19.png",320,240 F,0,158926,159439,0,1 M,0,158926,163924,158,105,257,104 F,0,159439,162899,1 F,0,162899,163924,1,0
Sprite,Foreground,Centre,"lrc\35.png",320,240 F,0,164052,164565,0,1 M,0,164052,167896,455,152,401,152 F,0,164565,166871,1 F,0,166871,167896,1,0
Sprite,Foreground,Centre,"lrc\21.png",320,240 F,0,167896,168409,0,1 M,0,167896,173022,236,232,319,228 F,0,168409,171997,1 F,0,171997,173022,1,0
Sprite,Foreground,Centre,"lrc\22.png",320,240 F,0,173022,173535,0,1 M,0,173022,180199,396,356,260,356 F,0,173535,179174,1 F,0,179174,180199,1,0
Sprite,Foreground,Centre,"lrc\23.png",320,240 F,0,179686,180199,0,1 M,0,179686,188144,256,122,346,117 F,0,180199,187119,1 F,0,187119,188144,1,0
Sprite,Foreground,Centre,"lrc\24.png",320,240 F,0,188144,188657,0,1 M,0,188144,196602,368,250,212,240 F,0,188657,,1 F,0,188657,195577,1 F,0,195577,196602,1,0
Sprite,Foreground,Centre,"lrc\26.png",320,240 F,0,191989,192501,0,1 M,0,191989,196602,256,364,323,359 F,0,192501,195577,1 F,0,195577,196602,1,0
Sprite,Foreground,Centre,"lrc\26.png",320,240 M,0,195577,,307,360 F,0,195577,,1,0 F,0,195577,195833,0,1 S,0,195833,196346,0.9840002,2.304 F,0,195833,196602,1,0
Sprite,Foreground,Centre,"SB\OP effect.png",320,240 M,0,195833,,320,359 S,0,195833,196346,0.2879999,1.6 F,0,195833,196602,1,0
Sprite,Foreground,Centre,"lrc\27.png",320,240 F,0,196602,197115,0,0.992 M,0,196602,200703,396,104,292,96 F,0,197115,199678,0.992,1 F,0,199678,200703,1,0
Sprite,Foreground,Centre,"lrc\28.png",320,240 F,0,200447,200959,0,1 M,0,200447,206342,265,213,364,216 F,0,200959,205316,1 F,0,205316,206342,1,0
Sprite,Foreground,Centre,"lrc\29.png",320,240 F,0,206085,206598,0,1 M,0,206085,213005,419,344,298,347 F,0,206598,211980,1 F,0,211980,213005,1,0
Sprite,Foreground,Centre,"lrc\36.png",320,240 F,0,212749,213262,0,1 M,0,212749,217106,219,107,298,109 F,0,213262,216081,1 F,0,216081,217106,1,0
Sprite,Foreground,Centre,"lrc\31.png",320,240 F,0,216850,217363,0,1 M,0,216850,222232,401,396,289,395 F,0,217363,221207,1 F,0,221207,222232,1,0
Sprite,Foreground,Centre,"lrc\32.png",320,240 F,0,221976,222489,0,1 M,0,221976,229665,214,247,357,244 F,0,222489,228640,1 F,0,228640,229665,1,0
Sprite,Foreground,Centre,"SB\White Effect.png",320,240 F,0,196602,196858,0,1 S,0,196858,197371,0.4959999,1.952 F,0,196858,197627,1,0
Sprite,Foreground,Centre,"SB\MINI SNOW.png",320,240 F,0,196602,196858,0 R,0,196602,229665,-0.04800018,-9.328 F,0,196858,197371,0,1 S,0,196858,197371,0.1,0.5159999 F,0,197371,228640,1 F,0,228640,229665,1,0
Sprite,Foreground,Centre,"SB\Font effect.png",320,240 M,0,196858,,376,102 F,0,196858,197115,1 F,0,197115,197627,1,0 F,0,197627,,0
Sprite,Foreground,Centre,"SB\Kiri.png",320,240 S,0,65632,,1 F,0,65632,66145,0,0.7039999 M,0,65632,90237,-414,317,792,318 F,0,66145,89725,0.7039999,1 F,0,89725,90237,1,0.03200012
Sprite,Foreground,Centre,"SB\Kiri.png",320,240 R,0,82036,,-3.088 F,0,82036,82548,0,0.632 M,0,82036,90237,939,175,317,150 F,0,82548,89725,0.632,1 F,0,89725,90237,1,0
Sprite,Foreground,Centre,"SB\Kiri.png",320,240 F,0,82548,83061,0,0.6680001 M,0,82548,90237,-316,322,60,322 F,0,83061,89725,0.6680001,0.7679999 F,0,89725,90237,0.7679999,0
Sprite,Foreground,Centre,"SB\wakka.png",320,240 F,0,89981,90237,0,1 M,0,90237,,320,254 F,0,90237,,1 S,0,90237,90622,0.4,1.66464 F,0,90237,90878,1,0 S,0,90622,,1.66464
Sprite,Foreground,Centre,"SB\Black.jpg",320,240 M,0,94338,,320,240 S,0,94338,,1.064 F,0,94338,97414,0,0.328 F,0,97414,97926,0.328,0
Sprite,Foreground,Centre,"SB\Kiri.png",320,240 F,0,164052,164565,0,0.7639999 M,0,164052,180455,938,331,-74,306 F,0,164565,188657,0.7639999,0.6360002 M,0,180455,189169,-74,306,-247,314 F,0,188657,189169,0.6360002,0
Sprite,Foreground,Centre,"SB\Kiri.png",320,240 F,0,175585,176098,0,0.8560001 M,0,175585,189169,937,314,578,315 F,0,176098,188657,0.8560001,0.556 F,0,188657,189169,0.556,0
Sprite,Foreground,Centre,"SB\Kiri.png",320,240 F,0,179943,180455,0,0.708 M,0,179943,189169,-254,144,281,140 F,0,180455,188657,0.708,0.64 F,0,188657,189169,0.64,0
Sprite,Foreground,Centre,"SB\wakka.png",320,240 F,0,188401,188657,0,1 M,0,188657,,321,252 S,0,188657,189041,0.3279999,1.464 F,0,188657,189298,1,0 F,0,189298,,0
Sprite,Foreground,Centre,"SB\Black.jpg",320,240 M,0,192758,,320,240 S,0,192758,,1.072 F,0,192758,195833,0,0.3560001 F,0,195833,196346,0.3560001,0
//Storyboard Sound Samples
//Background Colour Transformations
3,100,163,162,255

[TimingPoints]
20,512.667150852309,4,2,1,65,1,0
20526,-100,4,2,2,65,0,0
21039,-100,4,2,1,65,0,0
24628,-100,4,2,2,65,0,0
25140,-100,4,2,1,65,0,0
28729,-100,4,2,2,65,0,0
29242,-100,4,2,1,65,0,0
30780,-100,4,2,1,50,0,0
31036,-100,4,2,1,65,0,0
31549,-100,4,2,2,55,0,0
32318,-100,4,2,1,75,0,0
32830,-100,4,2,2,65,0,0
33343,-100,4,2,1,65,0,0
34881,-100,4,2,2,55,0,0
35394,-100,4,2,1,65,0,0
35906,-100,4,2,2,55,0,0
36163,-100,4,2,1,65,0,0
36419,-100,4,2,1,75,0,0
36932,-100,4,2,2,65,0,0
37444,-100,4,2,1,65,0,0
41033,-100,4,2,2,65,0,0
41546,-100,4,2,1,65,0,0
45134,-100,4,2,2,65,0,0
45647,-100,4,2,1,65,0,0
47185,-100,4,1,0,30,0,0
47698,-100,4,1,0,40,0,0
48210,-100,4,1,0,50,0,0
48723,-100,4,1,0,60,0,0
49236,-100,4,2,1,75,0,0
49364,-100,4,2,1,65,0,0
53337,-100,4,2,2,65,0,0
53850,-100,4,2,1,65,0,0
56413,-100,4,2,2,55,0,0
57438,-100,4,2,2,65,0,0
57951,-100,4,2,1,65,0,0
61540,-100,4,1,0,50,0,0
62052,-100,4,2,1,65,0,0
62565,-100,4,1,0,50,0,0
63078,-100,4,2,1,65,0,0
63590,-100,4,1,0,50,0,0
64103,-100,4,2,1,65,0,0
64359,-100,4,1,0,50,0,0
64872,-100,4,2,1,65,0,0
65641,-100,4,2,2,65,0,0
66154,-100,4,2,1,65,0,0
75894,-100,4,2,2,65,0,0
76022,-100,4,2,1,65,0,0
76920,-100,4,2,2,65,0,0
77176,-100,4,2,1,65,0,0
77945,-100,4,2,2,65,0,0
78458,-100,4,2,1,65,0,0
78714,-100,4,1,0,50,0,0
82046,-100,4,2,2,65,0,0
82559,-100,4,2,1,65,0,0
90249,-100,4,2,2,65,0,0
90762,-100,4,2,1,65,0,0
92300,-100,4,2,2,65,0,0
92812,-100,4,2,1,65,0,0
94350,-100,4,2,2,55,0,0
97683,-100,4,2,1,65,0,0
98452,-100,4,2,1,100,0,1
98708,-100,4,2,2,80,0,1
99733,-100,4,2,2,65,0,1
99861,-100,4,2,2,80,0,1
101271,-100,4,2,2,65,0,1
101656,-100,4,2,2,80,0,1
103322,-100,4,2,2,65,0,1
104091,-100,4,2,2,80,0,1
104604,-100,4,2,2,65,0,1
104732,-100,4,2,2,80,0,1
105629,-100,4,2,2,65,0,1
105757,-100,4,2,2,80,0,1
106654,-100,4,1,0,55,0,1
106911,-100,4,2,2,80,0,1
107680,-100,4,2,2,65,0,1
107936,-100,4,2,2,80,0,1
109730,-100,4,2,2,65,0,1
109858,-100,4,2,2,80,0,1
111525,-100,4,1,0,55,0,1
114729,-100,4,2,1,80,0,0
114857,-100,4,2,1,80,0,1
115113,-100,4,2,2,80,0,1
115626,-100,4,2,2,65,0,1
115882,-100,4,2,2,80,0,1
117677,-100,4,2,2,65,0,1
118061,-100,4,2,2,80,0,1
119727,-100,4,2,2,65,0,1
120368,-100,4,2,2,80,0,1
121009,-100,4,2,2,65,0,1
121137,-100,4,2,2,80,0,1
122034,-100,4,2,2,65,0,1
122419,-100,4,2,2,80,0,1
123060,-100,4,1,0,55,0,1
123188,-100,4,2,2,80,0,1
123829,-100,4,2,2,65,0,1
124213,-100,4,2,2,80,0,1
126136,-100,4,2,2,65,0,1
127161,-100,4,1,0,65,0,1
131262,-100,4,2,1,80,0,0
147668,-100,4,2,1,65,0,0
152794,-100,4,2,2,65,0,0
153051,-100,4,2,1,65,0,0
154845,-100,4,2,2,55,0,0
155358,-100,4,2,1,75,0,0
155870,-100,4,2,2,65,0,0
156127,-100,4,2,1,65,0,0
159972,-100,4,2,2,65,0,0
160228,-100,4,2,1,65,0,0
160997,-100,4,2,2,65,0,0
161253,-100,4,2,1,65,0,0
162022,-100,4,2,2,65,0,0
162535,-100,4,1,0,40,0,0
163304,-100,4,2,1,65,0,0
164073,-100,4,2,2,65,0,0
164586,-100,4,2,1,65,0,0
170225,-100,4,2,2,65,0,0
170738,-100,4,2,1,65,0,0
173301,-100,4,2,2,55,0,0
173814,-100,4,2,1,65,0,0
174070,-100,4,2,2,55,0,0
174839,-100,4,2,1,65,0,0
175352,-100,4,2,2,65,0,0
175864,-100,4,2,1,65,0,0
176377,-100,4,2,2,65,0,0
176633,-100,4,1,0,50,0,0
180478,-100,4,2,2,65,0,0
180991,-100,4,2,1,65,0,0
184580,-100,4,2,2,65,0,0
185092,-100,4,2,1,65,0,0
186118,-100,4,1,0,50,0,0
188425,-100,4,2,2,65,0,0
189194,-100,4,2,1,65,0,0
192782,-100,4,1,0,50,0,0
196884,-100,4,2,1,100,0,1
197140,-100,4,2,2,65,0,1
197396,-100,4,2,2,80,0,1
198934,-100,4,2,2,65,0,1
199319,-100,4,2,2,80,0,1
199960,-100,4,2,2,65,0,1
200088,-100,4,2,2,80,0,1
201754,-100,4,2,2,65,0,1
202395,-100,4,2,2,80,0,1
204061,-100,4,2,2,65,0,1
204189,-100,4,2,2,80,0,1
204830,-100,4,2,2,65,0,1
205086,-100,4,1,0,55,0,1
205343,-100,4,2,2,65,0,1
206881,-100,4,2,2,55,0,1
207137,-100,4,2,2,80,0,1
208162,-100,4,2,2,65,0,1
208291,-100,4,2,2,80,0,1
209188,-100,4,2,1,65,0,1
209444,-100,4,2,2,80,0,1
209957,-100,4,1,0,65,0,1
213033,-100,4,2,1,65,0,1
213161,-100,4,2,1,80,0,0
213289,-100,4,2,1,80,0,1
213545,-100,4,2,2,80,0,1
214571,-100,4,2,2,65,0,1
214827,-100,4,2,2,80,0,1
216109,-100,4,2,2,65,0,1
216493,-100,4,2,2,80,0,1
218159,-100,4,2,2,65,0,1
218288,-100,4,2,2,80,0,1
219185,-100,4,2,2,65,0,1
219313,-100,4,2,2,80,0,1
220466,-100,4,2,2,65,0,1
220595,-100,4,2,2,80,0,1
221492,-100,4,1,0,55,0,1
221620,-100,4,2,2,80,0,1
222261,-100,4,2,2,65,0,1
223030,-100,4,2,2,80,0,1
224568,-100,4,2,2,65,0,1
224824,-100,4,2,2,80,0,1
229694,-100,4,2,1,60,0,0

[Colours]
Combo1 : 255,244,230
Combo2 : 138,236,226
Combo3 : 45,82,232
Combo4 : 163,141,226

[HitObjects]
72,76,16425,2,0,B|112:56|160:64,1,90,4|0
256,108,16938,1,8
348,168,17194,2,0,B|395:175|435:155,2,90,2|0|2
348,168,17835,1,0
348,168,17963,1,8
256,108,18219,6,0,B|220:132|200:176,1,90,0|0
296,248,18732,1,2
296,248,18860,1,0
296,248,18988,2,0,B|275:292|239:316,1,90,8|2
68,264,19501,1,0
156,104,19757,2,0,B|180:148|176:192,1,90,8|8
68,48,20270,1,0
248,48,20526,6,0,B|300:76|376:24|428:48,1,180,4|8
360,132,21295,1,2
256,168,21552,2,0,B|272:216|308:240|360:240,1,135
404,212,22064,2,0,B|432:248|432:296,1,90,8|2
324,308,22577,5,8
360,132,22833,1,0
192,200,23090,1,8
360,132,23346,1,8
360,132,23474,1,0
360,132,23602,2,0,B|328:96|284:88,1,90,0|10
104,88,24115,2,0,B|136:124|180:132,1,90,8|0
80,280,24628,5,4
80,280,25140,2,0,B|116:312|164:312,1,90,8|0
128,208,25653,2,0,B|92:176|44:176,2,90,2|0|8
80,280,26422,1,0
256,244,26678,5,0
256,244,26935,2,0,B|300:228|324:184,1,90,2|8
156,120,27447,1,2
356,120,27704,1,0
192,192,27960,1,10
312,56,28216,1,10
192,192,28473,1,0
372,196,28729,6,0,B|456:220|432:308|343:280,1,180,4|8
236,272,29498,2,0,B|147:243|123:331|207:355,1,180,2|0
192,192,30267,2,0,B|140:192|108:216|72:256|80:312,1,180,8|4
192,192,31036,6,0,B|188:144|144:120,1,90,2|8
324,92,31549,2,0,B|360:60,1,45,0|2
336,240,31933,2,0,B|332:284,1,45,2|2
420,128,32318,1,8
264,216,32574,1,0
96,156,32830,6,0,B|112:112|148:80|192:68|240:68,1,180,4|8
312,148,33599,1,0
360,44,33856,1,2
312,148,34112,1,0
420,128,34368,1,10
312,148,34625,1,0
312,148,34753,1,0
312,148,34881,6,0,B|284:188|288:232,1,90,2|0
380,332,35394,2,0,B|408:292|404:248,1,90,8|0
108,247,35906,2,0,B|104:292|132:332,1,90,2|10
223,232,36419,2,0,B|228:188|200:148,1,90,8|0
72,104,36932,6,0,B|103:69|142:46|187:41|242:59,1,180,4|8
316,128,37701,2,0,B|304:172|324:220|372:240,1,135,2|0
416,272,38213,2,0,B|392:312|352:332,1,90,2|8
256,280,38726,1,0
124,160,38982,5,2
88,336,39239,1,2
256,280,39495,1,8
80,244,39751,1,8
80,244,39879,1,0
80,244,40008,1,2
200,112,40264,1,0
256,280,40520,1,8
80,244,40777,1,0
256,280,41033,6,0,B|300:304|344:308|392:296|432:276,1,180,4|8
476,180,41802,1,2
428,84,42058,1,0
368,172,42315,1,2
312,80,42571,2,0,B|276:48,1,45,8|2
236,148,42955,2,0,B|228:192,1,45,0|2
72,284,43340,5,2
72,100,43596,1,8
72,100,43724,1,2
172,248,43981,1,2
172,248,44109,2,0,B|196:296|236:308,1,90,0|10
172,136,44622,2,0,B|196:88|236:76,1,90,8|0
408,264,45134,6,0,B|440:232|456:188|444:140|408:104,1,180,4|8
336,184,45903,1,0
336,184,46031,1,0
336,184,46160,2,0,B|304:224|308:268,1,90,2|0
176,184,46672,2,0,B|208:224|204:268,1,90,8|2
256,172,47185,5,0
256,168,47313,1,0
256,164,47441,1,0
256,160,47569,1,0
256,156,47698,1,0
256,152,47826,1,0
256,148,47954,1,0
256,144,48082,1,0
256,140,48210,5,0
256,136,48338,1,0
256,132,48467,1,0
256,128,48595,1,0
256,124,48723,1,0
256,120,48851,1,0
256,116,48979,1,0
256,112,49107,1,0
256,108,49236,6,0,B|264:64|300:32|352:28,1,135,4|0
404,40,49748,2,0,B|446:59|459:108,1,90,8|0
372,180,50261,1,0
448,260,50517,1,0
372,180,50774,2,0,B|332:200,1,45,8|2
308,304,51158,2,0,B|352:280,1,45,2|0
248,236,51543,5,0
248,236,51671,1,0
248,236,51799,2,0,B|208:260|192:304,1,90,8|2
84,300,52312,2,0,B|56:264|52:216|84:176,1,135,2|0
132,152,52824,2,0,B|156:116|148:64,1,90,8|2
44,88,53337,5,4
468,88,53850,1,8
360,88,54106,1,0
272,152,54362,2,0,B|252:196|272:240,1,90,2|0
424,336,54875,6,0,B|444:292|424:248,1,90,8|0
256,312,55388,1,2
88,248,55644,1,2
88,248,55772,1,0
87,248,55900,2,0,B|68:292|88:336,1,90,8|0
224,216,56413,5,2
80,108,56669,1,0
256,148,56926,1,2
108,44,57182,1,2
224,216,57438,6,0,B|260:244|312:244|352:224,1,135,4|0
404,212,57951,2,0,B|440:236|452:288,1,90,8|2
340,148,58464,2,0,B|336:104|364:60|412:44,1,135,2|0
464,60,58976,2,0,B|492:96|492:148,1,90,8|0
224,216,59489,6,0,B|192:184|180:132|208:92,1,135,2|0
260,96,60002,2,0,B|308:84|332:44,1,90,8|0
112,64,60514,2,0,B|76:96|60:140|76:192|108:228,1,180,2|10
196,284,61283,1,0
324,172,61540,5,0
320,136,61668,1,0
296,108,61796,1,0
220,184,62052,1,8
416,128,62309,1,2
292,256,62565,5,0
308,288,62693,1,0
340,304,62821,1,0
388,208,63078,1,8
248,352,63334,1,2
180,188,63590,5,0
164,156,63718,1,0
132,140,63847,1,0
92,240,64103,1,8
272,152,64359,1,0
259,120,64487,1,0
238,88,64616,1,0
210,69,64744,1,0
178,53,64872,1,8
272,152,65128,1,8
272,152,65641,6,0,B|312:180|356:180|400:152,1,135,4|0
428,108,66154,2,0,B|464:132|480:180,1,90,8|0
360,240,66666,2,0,B|271:240|271:328|364:328,1,180,2|8
56,280,67435,5,0
152,240,67692,2,0,B|241:240|241:328|148:328,1,180,2|8
56,280,68461,1,0
56,172,68717,2,0,B|56:128|84:84|124:64|176:60,1,180,2|8
396,64,69486,5,0
288,64,69742,2,0,B|300:108|336:140|376:164|424:168,2,180,4|8|0
216,144,71024,1,0
236,172,71152,1,0
264,196,71280,1,8
352,256,71537,1,0
460,264,71793,6,0,B|481:222|475:175|441:139,2,135,2|2|0
352,256,72818,2,0,B|304:268|276:304|272:352,2,135,2|2|0
336,148,73844,2,0,B|302:110|256:102|206:114|172:156,1,180,2|8
100,324,74613,5,2
256,232,74869,1,0
76,228,75125,1,2
228,324,75382,1,8
168,156,75638,1,0
168,156,75766,1,0
168,156,75894,6,0,B|140:72,1,90,4|0
344,156,76407,2,0,B|372:72,1,90,8|0
76,228,76920,2,0,B|84:272|84:272|116:304,1,90,4|0
436,228,77432,2,0,B|428:272|428:272|396:304,1,90,8|0
256,192,77945,2,0,B|256:376,1,180,4|8
168,212,78714,5,0
168,212,78842,1,0
168,212,78970,1,8
344,212,79227,1,0
344,212,79355,1,0
344,212,79483,1,8
256,80,79739,2,0,B|256:32,2,45,0|0|4
256,260,80252,5,8
160,108,80508,1,0
352,108,80765,1,8
132,232,81021,1,0
380,232,81277,1,8
256,344,81534,1,8
256,344,82046,6,0,B|212:344|164:336|120:320|88:292,1,180,4|8
256,344,82815,2,0,B|300:344|348:336|392:320|424:292,1,180,2|0
256,88,83584,2,0,B|256:268,1,180,10|0
256,268,84610,5,10
180,64,85122,2,0,B|140:80|128:132,1,90,2|0
332,64,85635,2,0,B|372:80|384:132,1,90,10|0
256,192,86148,2,0,B|212:192|164:200|120:216|88:244,1,180,4|8
256,192,86917,2,0,B|300:192|348:200|392:216|424:244,1,180,2|0
256,192,87686,6,0,B|236:144|184:132,1,90,8|0
256,192,88198,2,0,B|276:240|328:252,1,90,2|0
256,80,88711,2,0,B|236:32|184:20,1,90,8|8
256,304,89224,2,0,B|276:352|328:364,1,90,2|2
256,192,89736,6,0,B|168:192,1,90,8|0
360,268,90249,2,0,B|396:236|408:192|388:144,1,135,4|0
356,100,90762,2,0,B|392:64|436:64,2,90,8|2|0
320,104,91402,1,0
284,100,91531,1,0
184,60,91787,1,8
72,272,92043,5,0
168,324,92300,2,0,B|212:304|240:268|248:216,1,135,4|0
208,184,92812,2,0,B|160:196|120:168,1,90,8|0
320,104,93325,2,0,B|360:132|384:168|392:216,1,135,2|0
380,248,93838,2,0,B|364:292|320:312,1,90,8|0
112,136,94350,5,4
152,284,94607,1,2
152,284,94735,1,2
152,284,94863,1,0
200,112,95119,2,0,B|192:64|152:36,1,90,2|0
212,208,95632,1,2
376,140,95888,1,2
200,112,96145,1,0
368,48,96401,5,2
400,36,96529,1,2
436,40,96657,1,2
292,172,96914,1,2
292,208,97042,1,0
308,240,97170,1,2
336,264,97298,1,2
368,276,97426,1,2
396,172,97683,5,8
144,272,97939,1,8
396,172,98195,1,0
116,172,98452,6,0,B|68:184|56:236,1,90,4|0
144,76,98964,1,8
236,276,99221,2,0,B|248:324|300:336,1,90,0|0
380,100,99733,2,0,B|344:76|296:72|252:100,1,135,2|0
280,148,100246,6,0,B|304:188|300:236,1,90
196,204,100759,1,0
108,144,101015,2,0,B|84:183|87:230,1,90,8|2
196,204,101528,2,0,B|200:156|196:112|180:68|148:32,1,180,2|8
196,204,102297,5,0
68,332,102553,1,4
240,284,102809,1,0
364,152,103066,1,8
240,284,103322,2,0,B|256:324|312:340|356:328,1,135,2|0
340,276,103835,2,0,B|376:240|428:244,1,90,2|8
472,340,104347,5,0
472,340,104475,1,0
472,340,104604,2,0,B|500:304|508:260|492:212,1,135,2|0
464,164,105116,2,0,B|440:124|456:76,1,90,8|0
348,60,105629,2,0,B|316:92|272:104|224:96,1,135,2|0
172,80,106142,2,0,B|132:64|80:72,1,90,8|0
68,180,106654,5,4
152,244,106911,1,0
88,328,107167,1,8
0,264,107423,1,0
68,180,107680,1,2
168,144,107936,2,0,B|220:144|252:176,2,90,0|8|0
204,320,108705,6,0,B|240:344|288:344|336:328|368:288,1,180,4|8
308,64,109474,1,0
308,64,109730,2,0,B|272:40|224:40|176:56|144:96,1,180,2|8
384,244,110499,1,0
384,244,110756,2,0,B|408:208|408:160|392:112|352:80,1,180,4|8
128,140,111525,5,0
124,176,111653,1,0
132,212,111781,1,0
208,48,112037,1,8
132,212,112294,5,8
152,240,112422,1,0
184,256,112550,1,0
220,260,112678,1,0
256,248,112806,1,0
208,48,113063,1,8
256,248,113319,5,0
284,224,113447,1,0
296,188,113575,1,8
296,152,113703,1,0
280,120,113832,1,0
184,172,114088,5,8
452,216,114344,1,8
184,172,114601,5,0
368,92,114857,2,0,B|344:48|300:36,1,90,4|0
252,232,115370,1,8
441,302,115626,2,0,B|464:264|452:216,1,90,2|0
252,232,116139,2,0,B|228:270|241:318,1,90,0|8
340,272,116651,5,0
338,162,116908,2,0,B|310:126|262:114|214:122|180:162,1,180,4|8
340,272,117677,1,2
436,224,117933,2,0,B|464:184|468:140|452:96|404:68,1,180,2|8
212,48,118702,5,0
96,184,118958,1,4
232,300,119215,1,0
348,164,119471,1,8
180,228,119727,2,0,B|148:264|144:312,1,90,2|0
316,308,120240,2,0,B|312:263|280:227,1,90,2|8
232,132,120753,5,0
312,60,121009,2,0,B|356:40|400:40|444:64,1,135,2|0
404,100,121522,2,0,B|424:144|480:152,1,90,8|0
316,308,122034,2,0,B|272:328|228:328|184:304,1,135,2|0
224,268,122547,2,0,B|204:224|148:216,1,90,8|0
104,120,123060,2,0,B|64:144|48:188|48:240|72:284,1,180,4|8
316,308,123829,6,0,B|345:290|357:257|357:219|339:186,1,135,2|0
288,196,124341,2,0,B|268:152|296:112,1,90,0|8
404,100,124854,1,0
160,72,125110,6,0,B|72:100,1,90,4|0
260,276,125623,2,0,B|248:364,1,90,8|0
140,200,126136,2,0,B|88:272,1,90,2|0
400,228,126648,2,0,B|436:316,1,90,8|0
256,172,127161,5,0
256,172,127289,1,0
256,172,127417,1,0
356,132,127674,1,8
156,212,127930,1,8
156,212,128058,1,0
156,212,128186,1,0
344,320,128443,1,8
168,64,128699,5,8
356,132,128955,1,0
156,132,129212,1,0
344,64,129468,1,0
256,224,129724,1,8
256,248,129852,1,0
256,272,129981,1,8
256,296,130109,1,0
256,320,130237,1,0
388,280,130493,5,8
124,280,130750,1,8
124,280,131262,5,4
128,80,147668,6,0,B|104:116|100:168|120:212,1,135,4|0
152,252,148180,2,0,B|131:304|93:315,1,90,8|0
240,240,148693,2,0,B|284:220|328:212|372:220|416:240,1,180,2|8
328,308,149462,1,0
444,160,149718,6,0,B|484:128|488:84,1,90,2|0
380,84,150231,1,8
308,164,150487,1,0
380,84,150744,2,0,B|336:60|292:64,1,90,2|0
184,60,151256,5,8
184,60,151513,2,0,B|136:64|100:88,2,90,0|2|0
172,168,152282,1,8
188,276,152538,2,0,B|140:272|104:248,1,90,2|4
316,284,153051,5,0
340,104,153307,1,8
172,168,153563,1,0
308,192,153820,1,2
136,72,154076,1,0
120,276,154332,1,8
228,356,154589,5,2
120,276,154845,1,2
300,276,155101,1,2
28,268,155358,2,0,B|28:220|60:184,1,90,8|2
120,276,155870,6,0,B|120:324|88:360,1,90,4|0
148,188,156383,2,0,B|196:188|232:220,1,90,8|0
264,320,156896,2,0,B|312:312|344:284|360:236,1,135,2|0
312,216,157408,2,0,B|324:168|360:144,1,90,8|0
412,316,157921,6,0,B|448:292|464:240,2,90,2|0|8
304,316,158690,1,2
200,284,158946,1,2
172,264,159074,1,0
152,236,159203,1,0
140,204,159331,1,0
140,168,159459,1,8
244,192,159715,1,0
64,280,159972,5,4
108,88,160228,1,2
40,172,160484,1,8
224,84,160741,2,0,B|264:64|296:32,1,90,2|4
108,88,161253,6,0,B|128:128|160:160,1,90,0|8
404,88,161766,1,2
404,88,162022,2,0,B|384:128|352:160,1,90,4|0
256,328,162535,2,0,B|256:376,4,45
128,272,163304,5,8
384,272,163560,1,8
384,272,164073,6,0,B|416:236|424:192|416:144,1,135,4|0
396,96,164586,2,0,B|364:60|316:56,1,90,8|0
260,148,165098,2,0,B|216:120|200:80,2,90,2|0|8
318,56,165867,1,0
124,152,166124,6,0,B|139:189|183:217,1,90,2|0
292,228,166636,2,0,B|316:264|308:316,1,90,8|0
204,340,167149,1,0
204,340,167405,2,0,B|160:360|116:340,2,90,2|8|0
384,336,168174,5,4
408,308,168302,1,0
420,276,168431,1,2
424,240,168559,1,0
416,204,168687,1,8
340,124,168943,1,0
124,84,169200,5,2
152,60,169328,1,0
184,48,169456,1,2
220,44,169584,1,0
256,56,169712,1,8
340,124,169969,1,0
240,276,170225,6,0,B|212:312|168:332|120:328,1,135,4|0
96,280,170738,2,0,B|48:296|32:340,1,90,8|0
240,276,171250,2,0,B|276:248|296:204|292:156,1,135,2|0
244,132,171763,2,0,B|260:84|304:68,1,90,8|0
92,44,172276,2,0,B|56:76|44:124|60:172|96:204,1,180,4|8
196,52,173045,5,2
284,212,173301,1,2
140,104,173557,1,2
228,260,173814,1,8
264,84,174070,1,2
160,228,174326,6,0,B|136:264|140:316,1,90,4|0
352,156,174839,2,0,B|376:120|372:68,1,90,8|0
139,69,175352,2,0,B|136:120|160:156,1,90,4|0
372,314,175864,2,0,B|376:264|352:228,1,90,8|0
256,192,176377,1,4
360,148,176633,5,0
344,116,176762,1,0
316,92,176890,1,8
152,236,177146,1,0
168,268,177274,1,0
196,292,177402,1,0
156,84,177659,1,0
356,300,177915,1,8
256,192,178171,5,0
256,192,178300,1,0
256,192,178428,1,4
120,192,178684,1,8
256,192,178940,1,0
248,156,179069,1,0
264,124,179197,1,8
248,92,179325,1,0
264,60,179453,1,0
120,192,179709,5,8
392,192,179966,1,8
392,192,180478,6,0,B|428:168|440:116|428:64|384:36,1,180,4|8
126,37,181247,2,0,B|84:64|72:116|84:168|120:192,1,180,2|0
324,300,182016,1,8
292,284,182145,1,0
256,276,182273,1,0
220,284,182401,1,0
188,300,182529,6,0,B|148:328|128:368,1,90
324,300,183042,2,0,B|364:328|384:368,1,90,10|0
164,192,183554,2,0,B|117:206|85:238,1,90,2|0
348,192,184067,2,0,B|394:206|426:238,1,90,10|0
304,116,184580,6,0,B|352:112|392:100|432:80|468:48,1,180,4|8
208,116,185349,2,0,B|160:112|120:100|80:80|44:48,1,180,2|0
256,188,186118,1,0
244,220,186246,1,0
264,252,186374,1,0
244,284,186502,1,0
256,320,186630,1,8
104,288,186887,6,0,B|64:312,2,45,0|0|8
100,60,187399,1,0
80,92,187528,1,0
68,124,187656,1,0
80,160,187784,1,0
104,188,187912,1,8
188,120,188168,2,0,B|224:152|216:204,1,90,8|0
280,48,188681,6,0,B|312:80|324:128|320:176,1,135,4|0
296,220,189194,2,0,B|324:256|376:256,1,90,8|0
220,280,189706,2,0,B|252:312|296:332|340:340,1,135,2|0
392,340,190219,2,0,B|440:340|476:308,1,90,8|0
460,68,190732,6,0,B|424:44|372:40|328:64,1,135,2|0
340,116,191244,2,0,B|296:144|252:120,1,90,8|0
164,64,191757,2,0,B|208:48,1,45,0|2
164,148,192142,2,0,B|120:168,1,45,2|8
84,268,192526,1,2
168,340,192782,5,4
204,348,192911,1,0
240,352,193039,1,0
276,348,193167,1,0
312,340,193295,1,8
236,176,193551,1,8
88,108,193808,5,0
68,140,193936,1,0
60,176,194064,1,8
68,212,194192,1,0
88,244,194320,1,8
236,176,194577,2,0,B|236:132,2,45,0|0|0
412,148,195089,6,0,B|428:192|412:236,1,90,8|0
236,176,195602,2,0,B|236:224,2,45,0|0|8
384,76,196115,2,0,B|352:40|308:32,1,90,0|8
128,60,196627,5,0
300,116,196884,1,4
124,148,197140,1,2
296,200,197396,1,8
232,32,197653,2,0,B|212:72|208:120|224:164,1,135,0|0
196,212,198165,2,0,B|164:248|120:256,1,90,0|8
124,148,198678,1,0
416,52,198934,6,0,B|448:88|448:136|420:176,1,135,2|0
364,176,199447,2,0,B|344:220|364:264,1,90,8|0
280,328,199960,2,0,B|192:360|104:328,1,180,2|8
216,188,200729,5,0
48,248,200985,1,4
152,100,201241,1,0
152,280,201498,1,8
48,132,201754,2,0,B|24:96|36:44,2,90,2|0|2
136,192,202523,1,8
224,128,202779,1,0
312,64,203036,6,0,B|352:48|400:48|448:64,1,135,2|0
464,112,203548,2,0,B|480:156|460:200,1,90,8|0
416,300,204061,1,2
384,288,204189,1,0
356,268,204317,1,0
336,236,204446,1,0
332,200,204574,1,8
248,132,204830,2,0,B|208:108|160:108,1,90,2|4
84,180,205343,5,0
116,284,205599,2,0,B|156:308|204:308,1,90,8|0
180,204,206112,1,0
248,120,206368,2,0,B|208:96|160:96,1,90,0|8
180,204,206881,1,2
344,184,207137,6,0,B|384:168|420:136|432:88,1,135,4|0
376,88,207650,2,0,B|336:68|312:24,1,90,8|0
424,256,208162,2,0,B|408:296|376:332|328:344,1,135,2|0
328,288,208675,2,0,B|308:248|264:224,1,90,8|0
140,64,209188,2,0,B|92:72|64:112,1,90,4|0
172,192,209700,5,8
300,152,209957,1,0
288,116,210085,1,0
268,84,210213,1,0
172,192,210469,5,8
312,336,210726,1,8
132,348,210982,1,0
148,316,211110,1,0
172,292,211238,1,0
204,280,211367,1,0
240,280,211495,1,8
40,296,211751,5,8
240,280,212007,1,0
264,252,212136,1,0
260,216,212264,1,0
120,72,212520,2,0,B|84:104|92:152,2,90,0|8|0
391,71,213289,6,0,B|428:104|419:153,1,90,4|0
256,80,213802,1,8
256,80,214058,2,0,B|252:128|276:168|320:192,1,135
372,192,214571,2,0,B|408:216|424:264,1,90,2|8
156,252,215083,5,0
80,176,215340,2,0,B|48:136|48:84|76:40|128:32,1,180,4|8
168,132,216109,1,2
264,176,216365,2,0,B|296:136|296:84|268:40|216:32,1,180,2|8
168,132,217134,5,0
228,356,217390,1,4
136,308,217647,1,0
264,176,217903,1,8
80,160,218159,2,0,B|94:209|136:234|185:228,1,135,2|0
228,256,218672,2,0,B|276:256|312:284,1,90,0|8
420,276,219185,5,2
444,248,219313,1,0
456,212,219441,1,4
456,176,219569,1,0
440,144,219697,2,0,B|416:108|372:88,1,90,0|8
172,60,220210,1,0
172,60,220338,1,0
172,60,220466,2,0,B|124:64|92:96|88:152,1,135,2|0
140,164,220979,2,0,B|136:212|96:240,1,90,8|0
160,328,221492,6,0,B|200:304|224:264|240:220|244:176,1,180,4|8
284,76,222261,2,0,B|324:56|376:56,1,90,0|2
348,164,222773,1,0
372,268,223030,2,0,B|325:268|285:248,1,90,8|0
348,164,223542,6,0,B|436:164,1,90,4|0
164,164,224055,2,0,B|76:164,1,90,8|0
372,268,224568,2,0,B|444:324,1,90,2|0
140,268,225080,2,0,B|68:324,1,90,8|0
256,192,225593,12,4,229694
