osu file format v9

[General]
AudioFilename: KOTOKO - Namida no Chikai.mp3
AudioLeadIn: 0
PreviewTime: 196582
Countdown: 0
SampleSet: Soft
StackLeniency: 0.7
Mode: 1
LetterboxInBreaks: 0

[Editor]
DistanceSpacing: 0
BeatDivisor: 4
GridSize: 32

[Metadata]
Title:Namida no Chikai
Artist:KOTOKO
Creator:DarknessAngel
Version:Boss Sweet Taiko
Source:Triangle Heart 3 ~Sweet Songs Forever~
Tags:opening galgame hentai eroge bossandy -kevincela- KayeSara H-Miku

[Difficulty]
HPDrainRate:5
CircleSize:5
OverallDifficulty:5
ApproachRate:5
SliderMultiplier:1.4
SliderTickRate:1

[Events]
//Background and Video events
0,0,"Taiko.jpg"
//Break Periods
//Storyboard Layer 0 (Background)
//Storyboard Layer 1 (Fail)
//Storyboard Layer 2 (Pass)
//Storyboard Layer 3 (Foreground)
//Storyboard Sound Samples
//Background Colour Transformations
3,100,163,162,255

[TimingPoints]
20,512.667150852309,4,2,1,80,1,0
98452,-100,4,2,1,80,0,1
131262,-100,4,2,1,80,0,0
196884,-100,4,2,1,80,0,1
229694,-100,4,2,1,80,0,0

[Colours]
Combo1 : 45,82,232
Combo2 : 255,47,47

[HitObjects]
256,192,12324,1,0
256,192,12836,1,0
256,192,13349,1,0
256,192,13862,1,0
256,192,14118,5,2
256,192,14203,1,2
256,192,14289,1,2
256,192,14374,5,0
256,192,14631,5,2
256,192,14887,5,0
256,192,15143,5,2
256,192,15271,5,0
256,192,15400,1,0
256,192,15656,5,2
256,192,15784,1,2
256,192,15912,5,0
256,192,16169,5,2
256,192,16425,5,4
256,192,16938,5,2
256,192,17450,5,0
256,192,17707,1,0
256,192,17963,5,2
256,192,18476,5,0
256,192,18732,1,0
256,192,18988,5,2
256,192,19245,5,0
256,192,19373,1,0
256,192,19757,1,0
256,192,20014,5,2
256,192,20270,5,0
256,192,20526,1,4
256,192,21039,5,2
256,192,21552,5,0
256,192,21808,1,0
256,192,22064,5,2
256,192,22577,5,0
256,192,22833,1,0
256,192,23090,5,2
256,192,23346,5,0
256,192,23474,5,2
256,192,23730,5,0
256,192,23859,5,2
256,192,24115,5,0
256,192,24371,1,0
256,192,24628,1,4
256,192,25140,5,2
256,192,25397,5,0
256,192,25909,1,0
256,192,26166,5,2
256,192,26678,5,0
256,192,26935,1,0
256,192,27191,5,2
256,192,27447,5,0
256,192,27575,1,0
256,192,27960,1,0
256,192,28216,5,2
256,192,28473,5,0
256,192,28729,1,4
256,192,29242,5,2
256,192,29498,1,2
256,192,29626,1,2
256,192,30011,1,2
256,192,30267,1,2
256,192,30523,1,2
256,192,30651,1,2
256,192,31036,1,2
256,192,31292,1,2
256,192,31549,1,2
256,192,31677,1,2
256,192,31805,5,0
256,192,32061,5,2
256,192,32318,1,2
256,192,32446,1,2
256,192,32574,5,0
256,192,32702,5,2
256,192,32830,5,0
256,192,33343,5,2
256,192,33856,5,0
256,192,34112,1,0
256,192,34368,5,2
256,192,34881,5,0
256,192,35137,1,0
256,192,35394,5,2
256,192,35650,5,0
256,192,35778,1,0
256,192,36163,1,0
256,192,36419,5,2
256,192,36675,5,0
256,192,36932,1,4
256,192,37444,5,2
256,192,37957,5,0
256,192,38213,1,0
256,192,38470,5,2
256,192,38982,5,0
256,192,39239,1,0
256,192,39495,5,2
256,192,39751,5,0
256,192,39879,5,2
256,192,40136,5,0
256,192,40264,5,2
256,192,40520,5,0
256,192,40777,5,2
256,192,41033,5,4
256,192,41546,5,2
256,192,41802,5,0
256,192,42315,1,0
256,192,42571,5,2
256,192,43084,5,0
256,192,43340,1,0
256,192,43596,5,2
256,192,43853,5,0
256,192,43981,1,0
256,192,44365,1,0
256,192,44622,5,2
256,192,44878,5,0
256,192,45134,1,0
256,192,45262,1,0
256,192,45391,5,2
256,192,45647,1,2
256,192,45903,5,0
256,192,46160,5,2
256,192,46288,1,2
256,192,46416,5,0
256,192,46672,5,2
256,192,46929,5,0
256,192,47185,5,2
256,192,47441,1,2
256,192,47569,1,2
256,192,47698,5,0
256,192,47826,1,0
256,192,47954,5,2
256,192,48210,1,2
256,192,48467,5,0
256,192,48595,5,2
256,192,48723,5,0
256,192,48851,5,2
256,192,48979,1,2
256,192,49107,5,0
256,192,49236,1,0
256,192,49748,5,2
256,192,50261,5,0
256,192,50517,1,0
256,192,50774,5,2
256,192,51286,5,0
256,192,51543,1,0
256,192,51799,5,2
256,192,52055,5,0
256,192,52183,1,0
256,192,52312,1,0
256,192,52568,1,0
256,192,52824,5,2
256,192,53337,5,0
256,192,53850,5,2
256,192,54106,5,0
256,192,54362,5,2
256,192,54619,5,0
256,192,54875,5,2
256,192,55131,5,0
256,192,55388,1,0
256,192,55900,5,2
256,192,56157,5,0
256,192,56285,5,2
256,192,56669,1,2
256,192,56926,5,0
256,192,57182,1,0
256,192,57438,1,4
256,192,57951,5,2
256,192,58207,5,0
256,192,58720,1,0
256,192,58976,5,2
256,192,59233,5,0
256,192,59361,5,2
256,192,59489,5,0
256,192,59745,5,2
256,192,60002,5,0
256,192,60258,5,2
256,192,60514,5,0
256,192,60899,1,0
256,192,61027,5,2
256,192,61283,1,2
256,192,61540,5,4
256,192,61924,1,0
256,192,62052,5,2
256,192,62309,5,0
256,192,62565,1,4
256,192,62949,1,0
256,192,63078,5,2
256,192,63206,5,0
256,192,63334,5,2
256,192,63590,5,4
256,192,64103,5,2
256,192,64359,5,0
256,192,64445,1,0
256,192,64530,1,0
256,192,64616,5,2
256,192,64872,5,0
256,192,65000,1,0
256,192,65128,5,2
256,192,65385,1,2
256,192,65641,5,4
256,192,66154,5,2
256,192,66666,5,0
256,192,66923,1,0
256,192,67179,5,2
256,192,67692,5,0
256,192,67948,1,0
256,192,68204,5,2
256,192,68461,5,0
256,192,68589,5,2
256,192,68717,5,0
256,192,68973,5,2
256,192,69230,1,2
256,192,69486,1,2
256,192,69742,5,4
256,192,70255,5,2
256,192,70511,5,0
256,192,71024,1,0
256,192,71280,5,2
256,192,71537,5,0
256,192,71793,1,0
256,192,72049,1,0
256,192,72177,1,0
256,192,72306,5,2
256,192,72562,5,0
256,192,72818,5,2
256,192,73203,5,0
256,192,73331,5,2
256,192,73587,1,2
256,192,73844,5,4
256,192,74356,5,2
256,192,74869,5,0
256,192,75125,1,0
256,192,75382,5,2
256,192,75638,5,0
256,192,75894,5,6
256,192,76407,5,4
256,192,76920,1,4
256,192,77432,5,6
256,192,77945,5,4
256,192,78201,5,2
256,192,78458,5,0
256,192,78714,1,0
256,192,78842,1,0
256,192,79227,5,2
256,192,79484,5,0
256,192,79740,1,0
256,192,79868,1,0
256,192,79996,1,0
256,192,80252,5,2
256,192,80508,5,0
256,192,80636,1,0
256,192,80765,1,0
256,192,80893,1,0
256,192,81021,1,0
256,192,81277,5,2
256,192,81534,1,2
256,192,81662,5,0
256,192,81790,5,2
256,192,82046,5,4
256,192,82559,5,2
256,192,82815,5,0
256,192,83328,1,0
256,192,83584,5,2
256,192,83712,5,0
256,192,83841,1,0
256,192,84097,5,2
256,192,84481,5,0
256,192,84610,5,2
256,192,84866,5,0
256,192,85122,5,2
256,192,85379,5,0
256,192,85507,1,0
256,192,85635,5,2
256,192,85891,1,2
256,192,86148,5,4
256,192,86660,5,2
256,192,86917,5,0
256,192,87429,1,0
256,192,87557,1,0
256,192,87686,5,2
256,192,87942,5,0
256,192,88198,5,6
256,192,88583,5,0
256,192,88711,5,2
256,192,89095,5,0
256,192,89224,5,2
256,192,89352,1,2
256,192,89480,5,0
256,192,89736,5,2
256,192,89993,5,0
256,192,90249,1,4
256,192,90633,5,2
256,192,91018,5,0
256,192,91274,1,0
256,192,91787,5,2
256,192,92043,5,0
256,192,92300,1,0
256,192,92684,5,2
256,192,93069,5,0
256,192,93325,1,0
256,192,93709,5,2
256,192,94094,5,0
256,192,94350,5,6
256,192,94607,5,0
256,192,94863,5,2
256,192,94991,5,0
256,192,95119,5,2
256,192,95376,5,0
256,192,95632,5,2
256,192,95888,1,2
256,192,96016,5,0
256,192,96145,5,2
256,192,96401,5,0
256,192,96529,1,0
256,192,96657,5,2
256,192,96785,5,0
256,192,96914,5,2
256,192,97042,1,2
256,192,97170,5,0
256,192,97426,5,2
256,192,97683,1,2
256,192,97811,5,0
256,192,97939,5,2
256,192,98067,1,2
256,192,98195,5,0
256,192,98452,1,4
256,192,98964,5,2
256,192,99221,5,0
256,192,99477,1,0
256,192,99733,1,0
256,192,99861,1,0
256,192,99990,5,2
256,192,100246,5,0
256,192,100502,1,0
256,192,100887,1,0
256,192,101015,5,2
256,192,101271,1,2
256,192,101528,5,0
256,192,101912,5,2
256,192,102040,1,2
256,192,102297,5,0
256,192,102553,1,4
256,192,103066,5,2
256,192,103322,5,0
256,192,103450,1,0
256,192,103578,1,0
256,192,103835,1,0
256,192,104091,5,2
256,192,104347,5,0
256,192,104604,1,0
256,192,104988,1,0
256,192,105116,5,2
256,192,105373,5,0
256,192,105629,1,0
256,192,105885,5,2
256,192,106013,5,0
256,192,106142,5,2
256,192,106398,5,0
256,192,106654,1,4
256,192,107167,5,2
256,192,107423,5,0
256,192,107936,1,0
256,192,108192,5,2
256,192,108449,5,0
256,192,108577,1,0
256,192,108705,1,0
256,192,108961,1,0
256,192,109218,5,2
256,192,109474,5,0
256,192,109602,1,0
256,192,109730,5,2
256,192,109987,1,2
256,192,110243,5,0
256,192,110499,5,2
256,192,110756,5,4
256,192,111268,5,2
256,192,111525,5,0
256,192,111781,1,0
256,192,112037,1,0
256,192,112165,1,0
256,192,112294,5,2
256,192,112550,5,0
256,192,112806,1,0
256,192,113063,1,0
256,192,113191,1,0
256,192,113319,5,2
256,192,113447,1,2
256,192,113575,5,0
256,192,113832,1,0
256,192,113960,1,0
256,192,114088,5,2
256,192,114344,1,2
256,192,114472,1,2
256,192,114601,5,0
256,192,114857,1,4
256,192,115113,1,0
256,192,115370,5,2
256,192,115626,5,0
256,192,116139,1,0
256,192,116395,5,2
256,192,116651,5,0
256,192,116779,1,0
256,192,116908,1,0
256,192,117164,1,0
256,192,117292,1,0
256,192,117420,5,2
256,192,117677,1,2
256,192,117933,5,0
256,192,118317,5,2
256,192,118446,1,2
256,192,118702,5,0
256,192,118958,1,4
256,192,119471,5,2
256,192,119727,5,0
256,192,120240,1,0
256,192,120496,5,2
256,192,120753,5,0
256,192,120881,1,0
256,192,121009,5,2
256,192,121265,5,0
256,192,121393,5,2
256,192,121650,5,0
256,192,121778,5,2
256,192,122034,5,0
256,192,122291,5,2
256,192,122419,5,0
256,192,122547,5,2
256,192,122675,1,2
256,192,122803,5,0
256,192,123060,1,4
256,192,123572,5,2
256,192,123829,5,0
256,192,124085,1,0
256,192,124341,1,0
256,192,124598,5,2
256,192,124854,5,0
256,192,125110,5,6
256,192,125367,5,0
256,192,125495,1,0
256,192,125623,5,2
256,192,125879,5,0
256,192,126007,1,0
256,192,126136,5,2
256,192,126392,5,0
256,192,126648,5,2
256,192,126776,1,2
256,192,126905,5,0
256,192,127161,1,4
256,192,127417,1,0
256,192,127545,1,0
256,192,127674,5,2
256,192,127930,1,2
256,192,128058,1,2
256,192,128186,1,2
256,192,128443,5,0
256,192,128571,1,0
256,192,128699,5,2
256,192,128827,5,0
256,192,128955,1,0
256,192,129212,1,0
256,192,129340,1,0
256,192,129468,5,2
256,192,129596,5,0
256,192,129724,5,2
256,192,129852,5,0
256,192,129981,1,0
256,192,130237,5,2
256,192,130365,1,2
256,192,130493,5,0
256,192,130621,5,2
256,192,130750,1,2
256,192,130878,5,0
256,192,131006,5,2
256,192,131134,5,0
256,192,131262,1,0
256,192,131775,5,2
256,192,132288,5,0
256,192,132544,1,0
256,192,132800,5,2
256,192,133313,5,0
256,192,133569,1,0
256,192,133826,5,2
256,192,134082,5,0
256,192,134210,1,0
256,192,134595,1,0
256,192,134851,5,2
256,192,135107,5,0
256,192,135364,1,4
256,192,135876,5,2
256,192,136389,5,0
256,192,136645,1,0
256,192,136902,5,2
256,192,137414,5,0
256,192,137671,1,0
256,192,137927,5,2
256,192,138183,5,0
256,192,138311,5,2
256,192,138568,1,2
256,192,138696,5,0
256,192,138952,1,0
256,192,139209,1,0
256,192,139465,1,4
256,192,139978,5,2
256,192,140234,5,0
256,192,140747,1,0
256,192,141003,5,2
256,192,141516,5,0
256,192,141772,1,0
256,192,142028,5,2
256,192,142285,5,0
256,192,142413,1,0
256,192,142797,1,0
256,192,143054,5,2
256,192,143310,5,0
256,192,143566,1,4
256,192,144079,5,2
256,192,144335,1,2
256,192,144463,1,2
256,192,144848,1,2
256,192,145104,1,2
256,192,145361,1,2
256,192,145489,1,2
256,192,145873,1,2
256,192,146130,1,2
256,192,146386,1,2
256,192,146514,1,2
256,192,146642,5,0
256,192,146899,5,2
256,192,147027,5,0
256,192,147155,5,2
256,192,147283,1,2
256,192,147411,5,0
256,192,147668,1,4
256,192,148180,5,2
256,192,148693,5,0
256,192,148949,1,0
256,192,149206,5,2
256,192,149718,5,0
256,192,149975,1,0
256,192,150231,5,2
256,192,150487,5,0
256,192,150615,1,0
256,192,150744,1,0
256,192,151000,1,0
256,192,151256,5,2
256,192,151769,5,0
256,192,152282,5,2
256,192,152538,5,0
256,192,152794,5,2
256,192,153051,5,0
256,192,153307,5,2
256,192,153563,5,0
256,192,153820,1,0
256,192,154332,5,2
256,192,154589,5,0
256,192,154717,5,2
256,192,155101,1,2
256,192,155358,5,0
256,192,155614,1,0
256,192,155870,1,4
256,192,156383,5,2
256,192,156639,5,0
256,192,157152,1,0
256,192,157408,5,2
256,192,157665,5,0
256,192,157793,5,2
256,192,157921,5,0
256,192,158177,5,2
256,192,158434,5,0
256,192,158690,5,2
256,192,158946,5,0
256,192,159331,1,0
256,192,159459,5,2
256,192,159715,1,2
256,192,159972,5,4
256,192,160356,1,0
256,192,160484,5,2
256,192,160741,5,0
256,192,160997,1,4
256,192,161381,1,0
256,192,161510,5,2
256,192,161638,5,0
256,192,161766,5,2
256,192,162022,5,4
256,192,162535,5,2
256,192,162791,5,0
256,192,162877,1,0
256,192,162962,1,0
256,192,163048,5,2
256,192,163304,5,0
256,192,163432,1,0
256,192,163560,5,2
256,192,163817,1,2
256,192,164073,5,4
256,192,164586,5,2
256,192,165098,5,0
256,192,165355,1,0
256,192,165611,5,2
256,192,166124,5,0
256,192,166380,1,0
256,192,166636,5,2
256,192,166893,5,0
256,192,167021,5,2
256,192,167149,5,0
256,192,167405,5,2
256,192,167662,1,2
256,192,167918,1,2
256,192,168174,5,4
256,192,168687,5,2
256,192,168943,5,0
256,192,169456,1,0
256,192,169712,5,2
256,192,169969,5,0
256,192,170225,1,0
256,192,170481,1,0
256,192,170609,1,0
256,192,170738,5,2
256,192,170994,5,0
256,192,171250,5,2
256,192,171635,5,0
256,192,171763,5,2
256,192,172019,1,2
256,192,172276,5,4
256,192,172788,5,2
256,192,173301,5,0
256,192,173557,1,0
256,192,173814,5,2
256,192,174070,5,0
256,192,174326,5,6
256,192,174839,5,4
256,192,175352,1,4
256,192,175864,5,6
256,192,176377,5,4
256,192,176633,5,2
256,192,176890,5,0
256,192,177146,1,0
256,192,177274,1,0
256,192,177659,5,2
256,192,177916,5,0
256,192,178172,1,0
256,192,178300,1,0
256,192,178428,1,0
256,192,178684,5,2
256,192,178940,5,0
256,192,179068,1,0
256,192,179197,1,0
256,192,179325,1,0
256,192,179453,1,0
256,192,179709,5,2
256,192,179966,1,2
256,192,180094,5,0
256,192,180222,5,2
256,192,180478,5,4
256,192,180991,5,2
256,192,181247,5,0
256,192,181760,1,0
256,192,182016,5,2
256,192,182145,5,0
256,192,182273,1,0
256,192,182529,5,2
256,192,182914,5,0
256,192,183042,5,2
256,192,183298,5,0
256,192,183554,5,2
256,192,183811,5,0
256,192,183939,1,0
256,192,184067,5,2
256,192,184323,1,2
256,192,184580,5,4
256,192,185092,5,2
256,192,185349,5,0
256,192,185861,1,0
256,192,185990,1,0
256,192,186118,5,2
256,192,186374,5,0
256,192,186630,5,6
256,192,187015,5,0
256,192,187143,5,2
256,192,187528,5,0
256,192,187656,5,2
256,192,187784,1,2
256,192,187912,5,0
256,192,188168,5,2
256,192,188425,5,0
256,192,188681,1,4
256,192,189066,5,2
256,192,189450,5,0
256,192,189706,1,0
256,192,190219,5,2
256,192,190475,5,0
256,192,190732,1,0
256,192,191116,5,2
256,192,191501,5,0
256,192,191757,1,0
256,192,192142,5,2
256,192,192526,5,0
256,192,192782,5,6
256,192,193039,5,0
256,192,193167,5,2
256,192,193295,1,2
256,192,193423,5,0
256,192,193551,5,2
256,192,193808,5,0
256,192,193936,1,0
256,192,194064,5,2
256,192,194320,1,2
256,192,194577,1,2
256,192,194833,5,0
256,192,194961,1,0
256,192,195089,5,2
256,192,195218,5,0
256,192,195346,5,2
256,192,195474,1,2
256,192,195602,5,0
256,192,195858,5,2
256,192,196115,1,2
256,192,196243,5,0
256,192,196371,5,2
256,192,196499,1,2
256,192,196627,5,0
256,192,196884,1,4
256,192,197396,5,2
256,192,197653,5,0
256,192,197909,1,0
256,192,198165,1,0
256,192,198294,1,0
256,192,198422,5,2
256,192,198678,5,0
256,192,198934,1,0
256,192,199319,1,0
256,192,199447,5,2
256,192,199703,1,2
256,192,199960,5,0
256,192,200344,5,2
256,192,200472,1,2
256,192,200729,5,0
256,192,200985,1,4
256,192,201498,5,2
256,192,201754,5,0
256,192,201882,1,0
256,192,202010,1,0
256,192,202267,1,0
256,192,202523,5,2
256,192,202779,5,0
256,192,203036,1,0
256,192,203420,1,0
256,192,203548,5,2
256,192,203805,5,0
256,192,204061,1,0
256,192,204317,5,2
256,192,204446,5,0
256,192,204574,5,2
256,192,204830,5,0
256,192,205086,1,4
256,192,205599,5,2
256,192,205855,5,0
256,192,206368,1,0
256,192,206624,5,2
256,192,206881,5,0
256,192,207009,1,0
256,192,207137,1,0
256,192,207393,1,0
256,192,207650,5,2
256,192,207906,5,0
256,192,208034,1,0
256,192,208162,5,2
256,192,208419,1,2
256,192,208675,5,0
256,192,208931,5,2
256,192,209188,5,4
256,192,209700,5,2
256,192,209957,5,0
256,192,210213,1,0
256,192,210469,1,0
256,192,210598,1,0
256,192,210726,5,2
256,192,210982,5,0
256,192,211238,1,0
256,192,211495,1,0
256,192,211623,1,0
256,192,211751,5,2
256,192,211879,1,2
256,192,212007,5,0
256,192,212264,1,0
256,192,212392,1,0
256,192,212520,5,2
256,192,212648,5,0
256,192,212776,5,2
256,192,213033,1,2
256,192,213161,1,2
256,192,213289,5,0
256,192,213545,1,0
256,192,213802,5,2
256,192,214058,5,0
256,192,214571,1,0
256,192,214827,5,2
256,192,215083,5,0
256,192,215212,1,0
256,192,215340,1,0
256,192,215596,1,0
256,192,215724,1,0
256,192,215852,5,2
256,192,216109,1,2
256,192,216365,5,0
256,192,216750,5,2
256,192,216878,1,2
256,192,217134,5,0
256,192,217390,1,4
256,192,217903,5,2
256,192,218159,5,0
256,192,218672,1,0
256,192,218928,5,2
256,192,219185,5,0
256,192,219313,1,0
256,192,219441,5,2
256,192,219697,5,0
256,192,219826,5,2
256,192,220082,5,0
256,192,220210,5,2
256,192,220466,5,0
256,192,220723,5,2
256,192,220851,5,0
256,192,220979,5,2
256,192,221107,1,2
256,192,221235,5,0
256,192,221492,1,4
256,192,222004,5,2
256,192,222261,5,0
256,192,222517,1,0
256,192,222773,1,0
256,192,223030,5,2
256,192,223286,5,0
256,192,223542,5,6
256,192,224055,5,4
256,192,224568,1,4
256,192,225080,1,4
256,192,225593,1,4
256,192,226362,12,4,229694
