osu file format v9

[General]
AudioFilename: KOTOKO-Mighty Heart aru nichi no kenka , itsumono koigokoro.mp3
AudioLeadIn: 0
PreviewTime: 67531
Countdown: 0
SampleSet: Soft
StackLeniency: 0.7
Mode: 0
LetterboxInBreaks: 1

[Editor]
Bookmarks: 164057
DistanceSpacing: 1
BeatDivisor: 4
GridSize: 4

[Metadata]
Title:Mighty Heart ~Aru Hi no Kenka, Itsumo no Koigokoro~
Artist:KOTOKO
Creator:DarknessAngel
Version:Kiss
Source:Tsuyokiss
Tags:hentai eroge game visual novel opening Candy Soft Gamu littlecar3370

[Difficulty]
HPDrainRate:5
CircleSize:4
OverallDifficulty:6
ApproachRate:8
SliderMultiplier:1.5
SliderTickRate:2

[Events]
//Background and Video events
0,0,"BG.jpg"
//Break Periods
2,100526,111501
//Storyboard Layer 0 (Background)
//Storyboard Layer 1 (Fail)
//Storyboard Layer 2 (Pass)
//Storyboard Layer 3 (Foreground)
Sprite,Foreground,Centre,"SB\02.png",320,240 M,0,101821,102101,-120,75,293,91 F,0,102101,102380,0.6800001,0.3720001 M,0,102101,104803,293,91,337,112 F,0,102380,102846,0.3720001,1 F,0,102380,102846,0.7160001,1 F,0,102846,103219,1 F,0,102846,104430,1 F,0,103219,103591,1 F,0,103591,103964,1,0.4240001 F,0,103964,104430,0.4240001,1 F,0,104430,104803,1,0
Sprite,Foreground,Centre,"SB\02_2.png",320,240 M,0,101821,102101,-120,75,295,92 M,0,102101,102473,295,92,301,94 F,0,102101,102473,0,1 F,0,102473,102846,1,0 M,0,102473,103219,301,94,313,100 F,0,102846,103126,0 F,0,103126,103405,0,1 M,0,103219,104709,313,100,336,112 F,0,103405,103685,1,0 F,0,103685,103964,0,1 F,0,103964,104244,1,0.7 F,0,104244,104523,0.7,0 F,0,104523,104709,0
Sprite,Foreground,Centre,"SB\01.png",320,240 M,0,104803,105082,956,151,331,210 F,0,105082,105362,0.9399999,1 M,0,105082,107784,331,210,318,242 F,0,105362,105641,1,0.5320001 F,0,105641,106014,0.5320001,0.5285243 F,0,106014,106293,0.5285243,1 F,0,106293,106759,1,0.76 F,0,106759,107225,0.76,1 F,0,107225,107411,1 F,0,107411,107784,1,0
Sprite,Foreground,Centre,"SB\01_1.png",320,240 M,0,104803,105082,957,152,333,209 F,0,105082,105455,0.436,1 M,0,105082,107691,333,209,317,241 F,0,105455,105827,1,0.3360001 F,0,105827,106293,0.3360001,1 F,0,106293,106666,1,0.3568248 F,0,106666,107039,0.3568248,1 F,0,107039,107411,1,0.632 F,0,107411,107691,0.632,0
Sprite,Foreground,Centre,"SB\03.png",320,240 M,0,107779,108059,-188,362,313,328 F,0,108059,108524,0.744,1 M,0,108059,112251,313,328,376,323 F,0,108524,108897,1,0.7 F,0,108897,109549,0.7,1 F,0,109549,109829,1,0.8239999 F,0,109829,110388,0.8239999,1 F,0,110388,111878,1 F,0,111878,112251,1,0
Sprite,Foreground,Centre,"SB\03_2.png",320,240 M,0,107779,108059,-188,362,314,327 F,0,108059,108524,0,1 M,0,108059,112251,314,327,377,323 F,0,108524,108990,1,0 F,0,108990,109456,0,1 F,0,109456,109922,1,0 F,0,109922,110388,0,1 F,0,110388,110854,1,0 F,0,110854,111878,0,1 F,0,111878,112251,1,0
//Storyboard Sound Samples
//Background Colour Transformations
3,100,163,162,255

[TimingPoints]
1941,372.670807453416,4,2,0,70,1,0
13400,-100,4,1,0,70,0,0
13586,-100,4,2,0,70,0,0
67531,-100,4,2,0,70,0,1
79083,-100,4,2,0,70,0,0
79456,-100,4,2,0,70,0,1
91381,-166.666666666667,4,2,0,70,0,0
96599,-100,4,2,0,70,0,0
148027,-100,4,2,0,70,0,1
159580,-100,4,2,0,70,0,0
159953,-100,4,2,0,70,0,1
171878,-166.666666666667,4,2,0,70,0,0
176723,-100,4,2,0,70,0,0
180822,-100,4,2,0,70,0,1
180916,-100,4,2,0,70,0,0

[Colours]
Combo1 : 255,128,255
Combo2 : 232,160,13
Combo3 : 255,255,0
Combo4 : 255,128,128

[HitObjects]
88,88,13493,1,2
88,88,13866,2,0,B|168:56|240:88,1,150,4|2
296,128,14425,1,0
320,200,14611,1,0
296,272,14798,2,0,B|260:291|224:271,1,75,0|2
240,200,15170,1,4
168,192,15357,2,0,B|142:223|155:262,1,75
224,272,15729,5,2
224,272,15916,1,2
216,120,16288,1,0
216,120,16475,1,2
336,48,16847,6,0,B|407:96|420:174,1,150,4|2
344,184,17406,1,0
400,240,17593,2,0,B|368:269|329:268,1,75
272,224,17965,1,2
344,184,18152,1,4
416,168,18338,6,0,B|407:128|368:114,1,75,0|2
232,64,18897,1,2
96,128,19270,1,2
96,128,19456,1,2
96,128,19829,6,0,B|70:159|83:198,1,75,4|0
104,272,20201,2,0,B|192:272,3,75,2|0|0|0
256,272,20947,1,2
320,224,21133,1,4
288,152,21319,2,0,B|224:88|152:152,1,150,0|2
155,149,21878,1,2
155,149,22251,5,2
224,120,22437,1,2
288,152,22624,1,0
352,120,22810,1,0
416,152,22996,2,0,B|416:240,1,75,0|2
360,272,23369,2,0,B|332:301|291:293,1,75,0|0
232,248,23742,5,0
304,224,23928,1,0
356,168,24114,2,0,B|394:155|426:181,2,75
288,152,24673,1,2
224,112,24860,2,0,B|190:88|152:104,1,75,0|0
96,56,25232,2,0,B|70:87|83:126,1,75,0|2
136,176,25605,2,0,B|99:193|94:234,1,75,0|4
240,280,26164,5,2
392,280,26537,1,0
464,144,26909,1,2
384,16,27282,1,0
232,16,27655,1,2
160,144,28027,1,0
240,280,28400,1,2
392,280,28773,2,2,B|392:112,4,150,0|2|0|2|0
320,280,30450,5,0
192,200,30636,1,2
192,352,30822,1,0
192,200,31009,1,2
320,136,31195,2,0,B|348:107,2,37.5,0|0|4
184,96,31754,6,0,B|120:136,1,75,0|0
184,176,32127,1,8
120,208,32313,2,0,B|137:244|178:248,1,75,0|0
256,120,32686,5,2
256,264,32872,1,10
256,120,33059,1,2
256,192,33245,6,0,B|336:192,1,75,0|0
328,264,33618,1,8
392,232,33804,2,0,B|433:227|450:191,1,75,0|0
392,152,34177,1,0
328,192,34363,1,8
328,120,34549,1,0
256,128,34736,6,0,B|192:192|256:264,1,150,4|8
328,272,35295,1,0
328,192,35481,1,0
400,224,35667,2,0,B|461:155|397:91,1,150,2|0
397,91,36226,1,2
256,32,36599,1,8
256,32,36972,6,0,B|214:36|197:72,1,75,4|0
264,112,37344,1,8
197,72,37531,1,4
136,24,37717,2,0,B|99:106|181:148,1,150,0|8
197,72,38276,5,0
197,72,38462,1,4
264,112,38649,1,0
264,112,38835,1,8
336,144,39021,2,0,B|339:183|306:208,1,75,4|0
240,248,39394,1,0
176,288,39580,2,0,B|142:262|146:223,1,75,8|0
80,192,39953,6,0,B|99:112|178:86,1,150,0|8
328,80,40698,1,0
80,200,41071,6,8,B|99:120|178:94,1,150,8|0
328,80,41816,2,0,B|304:157|224:178,1,150,8|0
160,212,42375,5,0
112,272,42562,1,8
88,200,42748,1,0
88,200,42934,2,0,B|90:160|128:141,1,75,0|2
280,128,43307,5,10
130,141,43493,1,2
144,56,43680,5,4
216,80,43866,2,0,B|191:114|207:150,1,75,0|8
256,208,44239,1,0
280,128,44425,5,2
408,200,44611,1,2
344,336,44798,1,8
256,208,44984,1,8
328,240,45170,6,0,B|308:277|269:278,1,75,4|0
256,208,45543,1,8
200,256,45729,1,0
184,184,45916,2,0,B|193:142|230:131,1,75,0|0
304,152,46288,1,8
280,80,46475,6,0,B|258:43|218:44,1,75,0|4
192,112,46847,1,0
144,56,47034,2,0,B|109:75|109:118,1,75,8|4
32,112,47406,1,0
40,184,47593,2,0,B|111:223|182:182,1,150,2|0
192,112,48152,1,2
192,112,48524,1,8
192,112,48897,6,0,B|228:98|261:126,1,75,4|0
216,184,49270,1,8
256,248,49456,1,4
296,184,49642,1,0
296,184,49829,5,8
360,48,50015,1,8
456,168,50201,1,2
296,184,50388,1,4
368,200,50574,5,0
368,200,50760,2,0,B|375:118|449:82,1,150,8|2
368,200,51319,1,2
224,160,51506,1,8
336,56,51692,1,2
312,128,51878,2,0,B|288:200,3,75,2|0|8|0
344,248,52624,6,4,B|309:331|393:370,1,150,4|8
416,296,53183,1,8
416,224,53369,2,4,B|451:141|367:102,1,150,4|8
336,168,53928,1,0
288,224,54114,1,0
264,152,54301,2,8,B|200:104,1,75,0|8
352,96,54673,5,0
204,107,54860,1,2
288,224,55046,1,8
352,96,55232,1,8
336,168,55419,1,2
360,240,55605,6,0,B|313:320|234:278,1,150,4|8
152,152,56350,1,4
152,152,56723,6,0,B|248:152,1,75,8|0
304,152,57096,1,2
232,288,57282,1,0
152,152,57468,1,8
80,152,57655,1,8
112,216,57841,2,8,B|216:248|232:120,1,150,0|8
360,80,58586,5,4
360,80,58773,2,0,B|384:109|368:149,1,75,2|8
312,200,59145,1,2
250,236,59332,1,4
288,56,59518,5,8
312,200,59704,1,8
224,96,59891,1,2
250,236,60077,1,2
376,152,60263,1,8
250,236,60450,1,8
176,240,60636,6,0,B|136:232|112:200,1,75,2|2
113,201,61009,1,2
128,136,61195,2,0,B|176:144,4,37.5,8|0|2|2|4
264,72,61941,6,8,B|344:54|400:115,1,150,4|2
336,160,62500,1,0
408,192,62686,1,2
344,232,62872,2,0,B|334:268|292:278,1,75,0|2
272,208,63245,1,0
261,133,63431,6,0,B|161:177|233:284,1,150,4|2
272,208,63990,1,0
290,278,64177,2,0,B|334:268|344:232,1,75,2|0
344,231,64549,1,2
272,208,64736,1,0
344,232,64922,2,0,B|355:123|232:136,1,150,4|2
200,176,65481,5,0
184,104,65667,1,2
128,152,65854,1,0
144,224,66040,2,0,B|133:260|90:270,1,75,2|0
72,200,66413,2,0,B|32:128,1,75,8|0
88,80,66785,1,8
232,40,67158,1,2
232,40,67531,5,4
368,112,67717,1,2
304,248,67903,1,8
168,184,68090,1,0
168,184,68276,1,2
168,184,68649,5,8
248,128,68835,2,0,B|320:64,1,75,0|2
336,168,69208,2,0,B|272:224,1,75,0|8
200,272,69580,1,0
168,184,69767,1,2
168,184,69953,1,0
248,128,70139,2,0,B|248:40,1,75,8|0
168,184,70512,5,4
248,53,70698,1,2
168,184,70885,1,8
168,32,71071,1,2
96,160,71257,6,8,B|42:222|70:300,1,150,2|8
160,256,71816,1,0
232,320,72003,1,2
160,256,72189,1,0
256,224,72375,2,8,B|316:168|298:87,1,150,8|2
200,72,72934,5,0
104,88,73121,1,8
88,184,73307,1,0
160,256,73493,1,4
304,120,73866,1,8
304,120,74239,5,2
360,200,74425,1,0
280,256,74611,1,8
224,176,74798,1,4
224,176,75170,1,2
304,120,75357,1,8
248,40,75543,1,6
248,40,75916,5,0
384,104,76102,1,8
232,112,76288,1,0
320,64,76475,2,0,B|293:100|308:146,1,75,4|0
376,200,76847,2,0,B|372:237|332:254,1,75,8|0
232,272,77220,1,2
328,256,77406,5,0
264,184,77593,1,8
168,208,77779,1,0
72,208,77965,2,0,B|36:197|27:154,1,75,2|0
120,128,78338,2,8,B|169:30|272:107,1,150,8|2
440,64,79083,1,8
440,64,79456,5,4
380,200,79642,1,2
360,48,79829,1,8
304,184,80015,1,2
360,48,80201,1,2
360,48,80574,6,0,B|315:56|296:100,1,75,8|0
208,120,80947,1,2
120,88,81133,2,0,B|105:54|61:45,2,75,0|8|0
208,120,81692,2,0,B|193:153|149:162,2,75,2|0|8
208,120,82251,1,0
256,208,82437,5,4
400,256,82624,1,2
256,208,82810,1,8
360,96,82996,1,2
256,208,83183,1,2
256,208,83555,5,8
168,248,83742,1,0
256,304,83928,2,0,B|336:288,1,75,2|0
256,208,84301,2,0,B|192:160,1,75,8|0
168,248,84673,2,0,B|80:288,1,75,2|0
80,184,85046,1,8
232,56,85419,1,2
416,120,85791,1,8
416,120,86164,6,2,B|429:154|402:188,1,75,2|0
320,240,86537,1,8
232,272,86723,1,4
232,272,87096,1,0
136,240,87282,1,8
64,176,87468,1,4
64,176,87841,6,0,B|62:138|99:115,1,75,0|8
192,72,88214,1,0
288,56,88400,2,8,B|370:52|414:121,3,150,4|8|4|8
376,208,89704,1,0
240,144,89891,5,2
240,292,90077,1,0
112,212,90263,1,8
240,144,90450,1,0
376,208,90636,1,4
376,208,91009,1,8
376,208,91381,6,0,B|320:120,1,90.0000021457673,4|2
256,72,92127,1,0
184,132,92500,2,0,B|136:208,1,90.0000021457673,2|0
144,256,93059,1,2
168,296,93245,2,0,B|257:295,1,90.0000021457673,2|0
296,264,93804,1,2
328,224,93990,1,2
344,176,94177,1,0
328,128,94363,6,0,B|328:72|272:56,1,90.0000021457673,0|2
192,48,95108,1,0
112,96,95481,1,2
64,176,95854,2,0,B|64:272,1,90.0000021457673,0|4
216,280,96599,5,2
232,184,96785,2,0,B|258:150|297:156,1,75,2|8
312,256,97158,1,0
312,256,97344,1,2
368,176,97531,5,2
368,176,97717,2,0,B|391:140|372:105,1,75,8|8
288,56,98090,2,0,B|208:56,1,75,2|2
144,128,98462,2,0,B|240:128,1,75,8|8
219,128,98835,1,4
256,192,99208,12,4,100326
408,80,112251,5,4
336,104,112437,2,0,B|232:136,2,75,0|8|0
368,240,112996,5,0
232,184,113183,1,2
264,40,113369,1,8
408,80,113555,1,2
408,80,113742,5,4
336,104,113928,2,0,B|336:184,1,75,0|8
264,184,114301,2,0,B|233:204|194:185,1,75,0|0
184,112,114673,1,0
128,168,114860,1,8
152,240,115046,1,0
224,256,115232,2,0,B|175:354|72:277,1,150,4|8
152,240,115791,1,2
152,240,116164,6,0,B|201:142|304:219,1,150,4|0
176,312,116723,1,2
104,184,116909,1,2
112,336,117096,1,8
104,184,117282,1,8
80,256,117468,6,0,B|44:245|34:203,1,75,4|0
56,128,117841,1,8
128,96,118027,2,0,B|232:16|352:96,1,225,4|8
376,248,118959,5,4
376,248,119145,1,0
304,280,119332,1,8
304,280,119518,2,0,B|270:296|234:272,1,75,4|0
272,208,119891,1,0
344,184,120077,2,0,B|380:159|414:175,2,75,8|0|0
344,184,120636,1,0
288,136,120822,6,0,B|254:120|218:144,1,75,8|0
217,144,121195,1,0
176,208,121381,1,0
217,144,121568,1,8
176,208,121754,1,0
136,144,121940,6,0,B|102:160|99:204,1,75,0|0
176,208,122313,1,8
184,280,122500,2,0,B|228:276|244:242,1,75,0|0
280,176,122872,5,0
216,144,123059,1,8
176,208,123245,1,8
80,96,123431,2,0,B|-10:123|41:219,1,150,4|8
176,208,123990,5,2
136,144,124177,1,4
208,120,124363,2,0,B|252:116|268:82,1,75,0|8
316,139,124736,2,0,B|244:195,1,75,0|2
400,240,125108,5,0
256,184,125295,1,8
400,240,125481,1,8
256,184,125667,6,0,B|271:218|245:254,1,75,0|0
256,184,126040,2,0,B|221:199|185:173,1,75,8|0
256,184,126413,2,0,B|240:149|266:113,1,75,0|0
256,184,126785,2,0,B|290:168|326:194,1,75,8|0
344,264,127158,6,0,B|296:330|214:323,1,150,4|8
232,248,127717,1,0
160,264,127903,2,0,B|147:183|210:130,1,150,2|8
360,96,128649,1,2
432,232,129021,1,8
432,232,129394,6,0,B|424:269|382:283,1,75,4|0
312,320,129767,1,8
240,296,129953,2,0,B|202:292|183:251,1,75,4|2
152,184,130326,1,2
224,160,130512,1,8
272,216,130698,1,2
224,160,130885,1,4
227,159,131071,6,0,B|198:133|206:90,1,75,0|8
96,88,131444,2,0,B|49:203|124:304,1,225,4|8
264,360,132375,1,2
360,256,132748,1,8
376,104,133121,5,2
304,80,133307,2,0,B|224:48,1,75,0|8
240,128,133680,2,0,B|168:160,1,75,0|0
232,208,134052,1,0
304,176,134239,2,0,B|344:256,1,75,8|0
336,316,134611,2,0,B|301:334|263:312,1,75,2|0
200,280,134984,5,8
240,128,135170,1,8
200,280,135357,1,2
338,242,135543,1,0
240,128,135729,2,0,B|216:200,1,75,8|0
144,208,136102,6,4,B|54:181|105:85,1,150,4|8
102,90,136847,1,4
176,72,137034,2,0,B|264:48,1,75,0|8
320,80,137406,1,0
256,128,137593,2,0,B|264:208,3,75,2|0|8|8
331,234,138338,2,0,B|310:268|274:295|233:276|206:247,1,150,2|8
88,136,139083,5,4
88,136,139456,1,8
88,136,139829,2,0,B|116:110|158:124,1,75,4|0
136,192,140201,1,8
208,184,140388,2,0,B|205:227|236:249,1,75,0|2
280,184,140760,1,0
200,56,140947,1,8
280,184,141133,1,8
344,48,141319,2,8,B|392:114|360:189,1,150,2|8
248,296,142065,6,0,B|160:296,2,75,4|0|2
320,296,142624,1,0
320,224,142810,2,0,B|320:144,2,75,2|0|2
320,296,143369,1,0
392,296,143555,2,0,B|472:296,2,75,4|0|2
320,296,144114,1,0
320,224,144301,6,0,B|264:176,1,75,2|0
128,200,144673,1,2
176,136,144860,2,0,B|248:64,2,75,0|4|0
248,160,145419,1,2
200,224,145605,2,0,B|160:304,2,75,0|2|0
248,160,146164,1,2
352,48,146350,6,0,B|424:88,1,75,0|4
272,48,146723,2,0,B|200:96,1,75,0|8
296,208,147096,2,0,B|368:160,1,75,0|8
216,208,147468,2,0,B|144:160,1,75,0|2
153,166,148027,5,4
296,112,148214,1,2
272,264,148400,1,8
153,166,148586,1,0
272,264,148773,1,2
272,264,149145,5,8
176,288,149332,2,0,B|137:292|110:257,1,75,0|4
152,168,149704,1,0
56,184,149891,1,8
152,168,150077,1,4
56,184,150263,1,2
96,96,150450,1,0
96,96,150636,2,0,B|168:40,1,75,8|0
304,64,151009,5,4
304,64,151195,1,2
376,192,151381,1,8
376,192,151568,2,0,B|320:264,1,75,2|2
329,251,152127,5,8
240,280,152313,1,0
329,251,152500,1,4
256,184,152686,1,0
240,280,152872,2,8,B|160:298|102:239,1,150,8|2
64,152,153431,5,0
112,64,153618,1,8
208,48,153804,1,0
304,48,153990,2,4,B|385:43|431:111,1,150,4|8
344,288,154736,1,2
344,288,155108,5,8
256,240,155295,1,4
256,240,155667,1,2
168,288,155854,1,8
88,240,156040,1,4
88,240,156413,6,0,B|88:152,1,75,0|8
152,96,156785,1,0
240,52,156972,2,0,B|275:28|309:45,2,75,2|0|8
152,96,157531,1,0
232,152,157717,6,0,B|258:186|296:181,1,75,4|0
312,88,158090,1,8
392,192,158276,1,0
312,88,158462,1,4
392,192,158649,1,0
448,80,158835,1,8
448,80,159021,2,0,B|248:200,1,225,4|4
255,195,159953,5,4
128,120,160139,1,2
128,120,160326,1,8
128,272,160512,1,2
128,272,160698,1,2
128,272,161071,5,2
224,288,161257,1,0
255,195,161444,1,4
288,104,161630,2,0,B|304:64,2,37.5,0|0|8
384,104,162003,1,4
352,200,162189,2,0,B|320:280,1,75,2|0
224,288,162562,2,0,B|144:288,1,75,8|0
64,168,162934,5,4
208,208,163121,1,2
176,64,163307,1,8
64,168,163493,1,0
176,64,163680,1,2
176,64,164052,6,0,B|213:42|247:61,1,75,2|0
328,192,164425,2,0,B|303:270|224:290,1,150,4|8
256,144,164984,2,0,B|280:65|359:45,1,150,4|0
328,192,165543,2,0,B|408:176|463:237,1,150,8|4
463,237,166288,1,8
463,237,166661,5,2
376,280,166847,1,0
376,280,167034,2,0,B|280:280,1,75,8|4
301,280,167593,1,2
208,248,167779,1,8
152,168,167965,1,4
152,168,168338,5,0
200,88,168524,1,8
296,56,168711,1,0
392,88,168897,2,8,B|437:156|402:230,2,150,4|8|4
392,88,170015,5,8
296,56,170201,1,0
208,88,170388,1,2
176,176,170574,1,0
224,264,170760,2,0,B|243:302|281:305,1,75,8|0
376,272,171133,5,4
384,264,171506,1,8
392,256,171878,1,4
400,168,172251,6,0,B|360:88,1,90.0000021457673,2|0
320,64,172810,1,0
272,64,172996,2,0,B|224:64,1,45.0000010728836,2|0
192,88,173369,2,0,B|144:184,1,90.0000021457673,0|2
152,216,173928,1,0
176,256,174114,2,0,B|216:296,1,45.0000010728836
248,304,174487,6,0,B|352:304,1,90.0000021457673,2|0
368,272,175046,2,0,B|400:232,1,45.0000010728836,0|2
424,208,175419,1,0
424,160,175605,2,0,B|424:64,1,90.0000021457673,0|2
336,56,176350,2,0,B|288:45|254:80,1,90.0000021457673,0|4
134,104,177096,5,2
72,176,177282,1,2
134,104,177468,1,8
176,192,177655,1,2
136,104,177841,2,8,B|216:93|268:156,1,150,4|8
176,192,178400,5,2
268,156,178586,1,2
264,256,178773,1,2
268,156,178959,2,0,B|336:112,1,75,8|8
331,115,179332,1,4
256,192,179704,12,4,180822
