osu file format v9

[General]
AudioFilename: Light My Fire .mp3
AudioLeadIn: 2000
PreviewTime: 52662
Countdown: 0
SampleSet: Soft
StackLeniency: 0.7
Mode: 0
LetterboxInBreaks: 1

[Editor]
DistanceSpacing: 0.8
BeatDivisor: 4
GridSize: 8

[Metadata]
Title:Light My Fire (TV Size)
Artist:KOTOKO
Creator:remy11
Version:Shana
Source:Shakugan no Shana III (Final)
Tags:Backfire

[Difficulty]
HPDrainRate:7
CircleSize:4
OverallDifficulty:7
ApproachRate:9
SliderMultiplier:2
SliderTickRate:1

[Events]
//Background and Video events
0,0,"BG.jpg"
Video,0,"Shana OP.avi"
//Break Periods
//Storyboard Layer 0 (Background)
//Storyboard Layer 1 (Fail)
//Storyboard Layer 2 (Pass)
//Storyboard Layer 3 (Foreground)
//Storyboard Sound Samples
//Background Colour Transformations
3,100,163,162,255

[TimingPoints]
323,322.58064516129,4,2,0,80,1,0
623,560.747663551402,4,2,0,80,1,0
903,517.241379310345,4,2,0,80,1,0
1161,480,4,2,0,80,1,0
1401,444.444444444444,4,2,0,80,1,0
1623,416.666666666667,4,2,0,80,1,0
1831,397.350993377483,4,2,0,80,1,0
2029,389.61038961039,4,2,0,80,1,0
2223,387.096774193548,4,2,0,80,1,0
2416,384.615384615385,4,2,0,80,1,0
2613,382.165605095541,4,2,0,80,1,0
2804,307.692307692308,4,2,0,80,1,0
2957,260.869565217391,4,2,0,80,1,0
3087,244.897959183673,4,2,0,80,1,0
3209,243.90243902439,4,2,0,80,1,0
3330,242.914979757085,4,2,0,80,1,0
3451,241.935483870968,4,2,0,80,1,0
3576,240,4,2,0,80,1,0
3696,238.095238095238,4,2,0,80,1,0
3816,236.220472440945,4,2,0,80,1,0
3935,233.463035019455,4,2,0,80,1,0
4051,230.769230769231,4,2,0,80,1,0
4166,228.571428571429,4,2,0,80,1,0
4280,226.415094339623,4,2,0,80,1,0
4393,224.299065420561,4,2,0,80,1,0
4505,222.222222222222,4,2,0,80,1,0
4616,220.183486238532,4,2,0,80,1,0
4726,218.181818181818,4,2,0,80,1,0
4835,217.785843920145,4,2,0,80,1,0
4943,217.391304347826,4,2,0,80,1,0
5051,216.998191681736,4,2,0,80,1,0
5159,216.606498194946,4,2,0,80,1,0
5270,500,4,2,0,80,1,0
6263,322.58064516129,4,2,0,80,1,0
11385,322.58064516129,4,2,0,80,1,0
52675,-100,4,2,0,80,0,1
77191,-100,4,2,0,80,0,0

[HitObjects]
256,192,323,12,0,5270
200,56,6263,6,0,B|256:48|304:56,1,100
352,144,6585,2,0,B|296:152|248:144,1,100
144,144,6908,1,2
144,144,6988,1,2
144,144,7069,1,2
328,240,7554,6,0,B|384:232|432:240,1,100
480,328,7875,2,0,B|424:336|376:328,1,100
272,328,8199,1,2
272,328,8280,1,2
272,328,8359,1,2
80,240,8844,6,0,B|136:232|184:240,1,100
224,328,9165,2,0,B|168:336|120:328,1,100
24,328,9489,1,2
24,328,9570,1,2
24,328,9650,1,2
128,192,10134,5,8
128,192,10295,1,8
368,192,10779,1,8
368,192,10940,1,8
72,176,11385,5,0
136,96,11546,1,0
200,176,11707,2,2,B|256:184|304:176,1,100
360,96,12030,5,0
424,176,12191,1,0
360,264,12353,2,2,B|304:272|256:264,1,100
184,336,12675,5,0
104,272,12836,1,0
184,200,12998,2,2,B|240:208|288:200,1,100
385,198,13320,6,0,B|441:206|489:198,2,100
385,198,13804,1,8
316,280,13965,6,2,B|292:232|244:200,1,100
147,217,14288,2,2,B|171:265|219:297,1,100,0|0
249,192,14611,2,2,B|225:144|177:112,1,100,0|0
82,138,14933,2,2,B|106:186|154:218,1,100
71,280,15256,6,2,B|156:366|280:336,1,200
253,341,15740,1,0
357,341,15901,1,0
389,333,15982,1,0
421,309,16062,1,0
437,285,16143,1,0
453,253,16224,1,0
453,221,16304,1,0
453,189,16385,1,0
453,157,16465,1,0
453,125,16546,1,0
157,91,17191,6,2,B|213:83|261:91,1,100
313,180,17514,2,2,B|257:188|209:180,1,100,0|0
102,179,17836,5,8
102,179,17998,1,8
65,281,18159,1,8
65,281,18320,1,8
172,283,18482,1,8
172,283,18643,1,8
208,176,18804,1,8
208,176,18965,5,2
208,176,19046,1,2
208,176,19127,2,2,B|264:176|312:200,1,100,0|0
345,296,19449,2,2,B|401:296|449:272,1,100,0|0
438,169,19772,2,2,B|382:169|334:145,2,100
438,169,20256,1,8
453,65,20417,2,0,B|405:49|341:49,1,100
252,51,20740,2,0,B|198:36|140:51,1,100
117,145,21062,5,8
139,249,21224,1,8
219,316,21385,1,8
320,344,21546,1,2
320,344,21627,1,2
320,344,21707,2,2,B|376:344|424:328,1,100
464,224,22030,5,8
400,120,22191,1,8
344,224,22353,1,8
280,120,22514,1,8
224,224,22675,1,8
160,120,22836,1,8
104,224,22998,6,2,B|61:192|38:136,1,100
96,56,23320,2,2,B|138:99|152:144,1,100
150,137,23643,1,8
200,280,23804,1,8
80,192,23965,1,8
224,192,24127,1,8
112,280,24288,1,8
200,344,24449,6,0,B|256:344|312:328,2,100
200,344,24933,1,4
192,256,25094,2,0,B|248:256|304:240,2,100,0|0|4
136,184,25578,6,0,B|160:136|208:112,1,100
248,192,25901,2,0,B|296:168|320:120,1,100
391,47,26224,5,0
423,55,26304,1,0
447,79,26385,1,0
455,111,26465,1,0
455,143,26546,1,0
455,175,26627,1,0
455,207,26707,1,0
439,315,26869,6,2,B|383:323|335:315,1,100
378,224,27191,2,2,B|322:216|274:224,1,100
224,320,27514,5,8
224,320,27675,1,8
160,240,27836,1,8
160,240,27998,1,8
88,320,28159,1,8
88,320,28320,1,8
24,240,28482,1,8
24,240,28643,1,8
88,152,28804,6,0,B|96:88|128:64,2,100
88,152,29288,1,4
192,152,29449,2,0,B|248:160|304:152,1,100
320,56,29772,2,0,B|376:48|432:56,1,100
440,152,30094,6,2,B|488:152|488:152|488:96,2,100
440,152,30578,1,4
440,248,30740,2,2,B|496:248|496:248|496:304,2,100
440,248,31224,1,4
344,248,31385,6,0,B|328:304|288:344,1,100
232,264,31707,2,0,B|192:312|176:360,1,100,0|0
80,323,32030,5,8
29,234,32191,1,8
34,131,32353,1,8
86,42,32514,1,8
188,20,32675,2,2,B|244:12|292:20,1,100
241,112,32998,2,2,B|297:120|345:112,1,100
414,39,33320,5,8
467,128,33482,1,8
478,233,33643,2,0,B|478:281|446:329,1,100
348,358,33965,2,2,B|300:358|252:334,2,100,0|2|0
354,255,34449,1,2
354,255,34530,1,2
354,255,34611,2,2,B|306:231|258:231,1,100
184,304,34933,6,0,B|136:280|104:232,1,100
60,147,35256,1,8
92,49,35417,1,8
192,24,35578,2,0,B|256:16|304:24,1,100
248,116,35901,2,0,B|312:124|360:116,1,100
348,118,36224,1,8
441,166,36385,1,8
459,267,36546,1,8
402,355,36707,1,4
63,81,37191,6,2,B|175:65|263:81,1,200
337,154,37675,1,8
410,82,37836,1,8
450,178,37998,2,0,B|458:226|442:282,1,100
352,328,38320,1,8
267,269,38482,2,0,B|250:321|194:345,1,100
136,264,38804,1,8
136,264,38965,1,8
48,208,39127,1,2
48,208,39207,1,2
48,208,39288,2,2,B|56:112|160:48,1,200
261,43,39772,6,0,B|317:35|365:43,1,100
322,139,40094,2,0,B|378:147|426:139,1,100
456,237,40417,2,2,B|456:293|432:349,2,100
352,216,40901,6,2,B|320:304|208:352,1,200
117,308,41385,2,0,B|69:284|45:236,1,100
40,136,41707,1,2
40,136,41788,1,2
40,136,41869,2,2,B|56:80|96:56,1,100
352,64,42353,5,8
440,120,42514,1,8
352,168,42675,1,8
440,216,42836,1,2
440,216,42917,1,2
440,216,42998,2,2,B|392:304|296:352,1,200
297,351,43482,1,2
232,280,43643,6,0,B|176:304|160:360,2,100
232,280,44127,1,8
145,223,44288,1,8
169,122,44449,1,8
272,104,44611,1,8
304,280,44933,6,2,B|248:288|200:280,1,100
112,241,45256,2,2,B|104:193|112:137,1,100
201,90,45578,2,2,B|249:82|305:90,1,100
388,143,45901,2,2,B|396:191|388:247,1,100
333,328,46224,5,8
231,327,46385,1,8
129,302,46546,2,2,B|81:270|65:222,1,100
80,120,46869,1,8
140,41,47030,1,8
244,33,47191,2,4,B|292:25|348:33,1,100
256,192,47433,12,0,49772
128,192,50094,5,8
128,192,50256,1,8
256,96,50578,1,8
256,96,50740,1,8
392,192,51062,1,8
392,192,51224,1,8
256,288,51546,1,8
256,288,51707,1,8
256,192,52030,1,12
256,192,52191,1,12
62,144,52675,6,0,B|110:152|166:144,1,100
128,48,52998,2,0,B|176:40|232:48,1,100
272,141,53320,1,8
329,52,53482,1,8
383,141,53643,1,8
333,231,53804,6,2,B|381:231|429:263,2,100
333,231,54288,1,8
208,318,54449,1,8
256,166,54611,1,8
304,318,54772,1,8
176,230,54933,1,8
151,128,55094,5,0
151,128,55256,2,2,B|95:96|47:96,2,100
248,85,55740,2,2,B|304:61|352:61,2,100
248,85,56224,1,8
336,144,56385,6,0,B|392:160|424:200,1,100
430,304,56707,2,0,B|382:288|339:255,1,100
342,257,57030,1,8
240,248,57191,2,2,B|208:296|168:328,1,100
104,248,57514,2,2,B|136:200|176:168,1,100
208,56,57836,6,0,B|168:24|104:32,2,100
309,57,58320,2,0,B|349:25|413:33,2,100
310,155,58804,1,8
207,156,58965,1,8
113,203,59127,6,2,B|113:259|153:299,1,100
248,320,59449,2,2,B|304:320|344:280,1,100
397,199,59772,1,2
397,199,59853,1,2
397,199,59933,2,2,B|397:143|357:103,1,100
256,104,60256,5,8
256,104,60417,1,8
256,272,60740,1,8
256,272,60901,1,8
149,293,61062,5,2
149,293,61143,1,2
149,293,61224,2,2,B|130:236|128:184,1,100
128,194,61546,1,10
128,195,61707,1,8
390,194,62030,1,8
390,194,62191,1,8
371,301,62353,5,2
371,301,62433,1,2
371,301,62514,2,2,B|323:317|267:317,1,100
272,316,62836,1,2
169,334,62998,6,0,B|121:318|89:270,1,100
106,164,63320,2,0,B|154:180|194:228,1,100
203,118,63643,1,8
306,103,63804,1,8
364,188,63965,1,8
377,291,64127,6,0,B|329:323|281:331,1,100
256,232,64449,2,0,B|208:240|160:272,1,100
164,269,64772,1,8
73,317,64933,1,8
73,317,65094,1,8
48,48,65578,6,0,B|104:32|152:48,1,100
200,136,65901,2,0,B|144:152|96:136,1,100
32,216,66224,1,8
88,304,66385,1,8
184,264,66546,1,8
240,352,66707,2,0,B|296:352|336:328,1,100
416,264,67030,2,0,B|448:224|448:168,1,100
447,171,67352,1,8
424,72,67514,5,2
424,72,67594,1,2
424,72,67675,2,2,B|368:48|312:48,1,100
224,48,67998,1,8
120,48,68159,2,2,B|64:48|8:96,2,100
120,48,68643,1,8
176,136,68804,1,8
72,136,68965,1,8
120,224,69127,1,8
72,320,69288,5,2
72,320,69369,1,2
72,320,69449,2,2,B|128:328|200:328,1,100
272,336,69772,2,0,B|336:320|368:296,1,100
432,224,70094,2,0,B|456:176|456:120,1,100
400,40,70417,1,8
296,40,70578,1,8
232,120,70740,6,2,B|192:80|136:64,2,100
232,120,71224,1,8
232,224,71385,2,2,B|192:264|136:280,2,100
232,224,71869,1,8
304,296,72030,6,0,B|368:312|416:280,1,100
464,208,72353,2,0,B|472:160|448:112|448:104,1,100
368,48,72675,1,8
264,48,72836,1,8
184,112,72998,1,8
192,216,73159,1,8
272,280,73320,6,2,B|240:328|184:344|192:344,2,100
272,280,73804,1,8
352,344,73965,2,0,B|424:336|456:312,1,100
448,216,74288,2,0,B|400:192|344:184,1,100
353,185,74611,1,8
320,88,74772,6,2,B|368:56|432:56|424:64,2,100
320,88,75256,1,8
208,168,75417,1,8
248,32,75578,1,8
296,168,75740,1,8
176,88,75901,1,8
88,136,76062,6,2,B|40:168|32:216,1,100
72,312,76385,2,2,B|120:280|128:232,1,100
192,312,76707,6,2,B|216:360|280:368,1,100
360,320,77030,2,2,B|336:264|272:264,1,100
336,176,77353,6,2,B|392:168|440:136,1,100
440,48,77675,2,2,B|384:56|336:88,1,100
248,72,77998,6,0,B|184:56|136:80,1,100
149,74,78320,1,8
96,160,78482,1,2
96,160,78562,1,2
96,160,78643,2,2,B|72:208|80:264,1,100
160,320,78965,1,0
160,320,79127,2,0,B|216:336|272:320,1,100
352,280,79449,5,0
352,280,79611,2,0,B|392:240|400:192,1,100
392,96,79933,1,0
392,96,80094,2,0,B|352:48|296:40,1,100
208,48,80417,1,0
208,48,80578,2,0,B|160:64|112:112,1,100
123,100,80901,1,0
96,184,81062,5,2
96,184,81143,1,2
96,184,81224,2,2,B|80:240|120:280,1,100
200,232,81546,2,0,B|232:288|192:328,1,100
296,344,81869,2,0,B|352:336|384:296,1,100
384,200,82191,2,0,B|328:208|296:248,1,100
264,152,82514,6,2,B|272:88|328:64,2,100
264,152,82998,1,4
168,152,83159,2,2,B|160:88|104:64,2,100
168,152,83643,1,4
168,256,83804,2,2,B|160:320|104:344,2,100
168,256,84288,1,4
272,256,84449,2,2,B|280:320|336:344,2,100
272,256,84933,1,4
216,192,85094,5,2
216,192,85175,1,2
216,192,85256,1,2
216,192,85335,1,2
216,192,85417,1,2
216,192,85497,1,2
216,192,85577,1,2
216,192,85658,1,2
216,192,85739,1,2
216,192,85819,1,2
216,192,85900,1,2
216,192,85982,1,2
216,192,86062,1,2
