osu file format v9

[General]
AudioFilename: Light My Fire .mp3
AudioLeadIn: 2000
PreviewTime: 52662
Countdown: 0
SampleSet: Soft
StackLeniency: 0.7
Mode: 0
LetterboxInBreaks: 1

[Editor]
DistanceSpacing: 0.8
BeatDivisor: 4
GridSize: 8

[Metadata]
Title:Light My Fire (TV Size)
Artist:KOTOKO
Creator:remy11
Version:Ogachan
Source:Shakugan no Shana III (Final)
Tags:Backfire

[Difficulty]
HPDrainRate:4
CircleSize:3
OverallDifficulty:4
ApproachRate:4
SliderMultiplier:1
SliderTickRate:1

[Events]
//Background and Video events
0,0,"BG.jpg"
Video,0,"Shana OP.avi"
//Break Periods
//Storyboard Layer 0 (Background)
//Storyboard Layer 1 (Fail)
//Storyboard Layer 2 (Pass)
//Storyboard Layer 3 (Foreground)
//Storyboard Sound Samples
//Background Colour Transformations
3,100,163,162,255

[TimingPoints]
323,322.58064516129,4,2,0,80,1,0
623,560.747663551402,4,2,0,80,1,0
903,517.241379310345,4,2,0,80,1,0
1161,480,4,2,0,80,1,0
1401,444.444444444444,4,2,0,80,1,0
1623,416.666666666667,4,2,0,80,1,0
1831,397.350993377483,4,2,0,80,1,0
2029,389.61038961039,4,2,0,80,1,0
2223,387.096774193548,4,2,0,80,1,0
2416,384.615384615385,4,2,0,80,1,0
2613,382.165605095541,4,2,0,80,1,0
2804,307.692307692308,4,2,0,80,1,0
2957,260.869565217391,4,2,0,80,1,0
3087,244.897959183673,4,2,0,80,1,0
3209,243.90243902439,4,2,0,80,1,0
3330,242.914979757085,4,2,0,80,1,0
3451,241.935483870968,4,2,0,80,1,0
3576,240,4,2,0,80,1,0
3696,238.095238095238,4,2,0,80,1,0
3816,236.220472440945,4,2,0,80,1,0
3935,233.463035019455,4,2,0,80,1,0
4051,230.769230769231,4,2,0,80,1,0
4166,228.571428571429,4,2,0,80,1,0
4280,226.415094339623,4,2,0,80,1,0
4393,224.299065420561,4,2,0,80,1,0
4505,222.222222222222,4,2,0,80,1,0
4616,220.183486238532,4,2,0,80,1,0
4726,218.181818181818,4,2,0,80,1,0
4835,217.785843920145,4,2,0,80,1,0
4943,217.391304347826,4,2,0,80,1,0
5051,216.998191681736,4,2,0,80,1,0
5159,216.606498194946,4,2,0,80,1,0
5270,500,4,2,0,80,1,0
6263,322.58064516129,4,2,0,80,1,0
11385,322.58064516129,4,2,0,80,1,0
52675,-100,4,2,0,80,0,1
77191,-100,4,2,0,80,0,0

[HitObjects]
256,192,324,12,0,5270
144,96,6263,6,2,B|256:96|336:24,2,200
80,144,7876,1,8
24,200,8199,1,8
80,256,8521,1,8
144,304,8844,6,0,B|240:384|328:296,1,200
240,168,10134,1,0
240,168,10295,1,0
120,168,10779,1,0
120,168,10940,1,0
112,272,11385,6,2,B|104:328|48:344,2,100
192,272,12353,1,8
272,272,12675,2,0,B|320:272|328:272|328:272|360:232,1,100
360,160,13320,2,8,B|360:112|360:112|360:112|320:72,1,100
240,72,13965,6,0,B|192:64|136:72,1,100
152,152,14611,1,8
232,152,14933,1,8
256,192,15256,12,0,16546
152,104,17191,5,0
216,56,17514,1,0
280,104,17836,2,2,B|336:88|384:104,3,100
440,152,19127,1,4
440,152,19288,1,4
320,152,19772,1,2
320,152,19933,1,2
320,280,20417,1,4
320,280,20578,1,4
200,280,21062,1,2
200,280,21223,1,2
160,160,21707,6,0,B|184:112|232:88,1,100
304,72,22353,1,8
360,128,22675,1,8
360,208,22998,2,0,B|336:256|288:280,1,100
208,280,23643,1,8
160,216,23965,1,8
112,152,24288,6,2,B|56:184|48:240,2,100
112,152,25256,1,8
168,96,25578,2,4,B|264:64|368:56,2,200
32,176,27514,6,0,B|96:192|112:256,1,100
184,208,28159,2,0,B|200:272|264:288,1,100
272,208,28804,2,0,B|256:144|192:128,1,100
152,80,29449,2,2,B|240:24|240:24|328:88,3,200
432,192,32030,5,8
384,256,32353,1,8
336,320,32675,2,0,B|296:368|240:344,1,100
184,296,33320,1,8
128,240,33643,1,8
80,176,33965,2,0,B|64:120|96:80,1,100
176,88,34611,2,2,B|264:144|304:240,2,200
176,88,36546,1,4
312,128,37191,6,0,B|328:176|320:232,1,100
400,232,37836,2,0,B|384:280|392:336,1,100
312,304,38482,2,2,B|208:280|112:312,2,200
312,224,40094,1,8
272,152,40417,1,8
200,120,40740,1,8
120,104,41062,6,2,B|48:184,1,100
112,232,41707,2,2,B|184:152,1,100
256,152,42353,1,8
256,152,42675,2,2,B|232:104|280:56,2,100
320,200,43643,6,0,B|280:240|232:240,1,100
216,320,44288,2,0,B|256:360|304:360,1,100
376,328,44933,1,8
400,256,45256,1,8
392,176,45578,1,8
336,120,45901,1,8
256,192,46224,12,0,47514
216,192,50094,1,4
216,192,50256,1,4
296,192,50578,1,2
296,192,50739,1,2
296,272,51063,1,4
296,272,51224,1,4
216,272,51546,1,2
216,272,51707,1,2
136,272,52030,1,4
136,272,52191,1,4
136,152,52675,6,0,B|240:128|312:48,2,200
96,224,54288,1,8
136,296,54611,1,8
200,248,54933,1,8
280,248,55256,6,0,B|320:288|320:344,1,100
392,304,55901,2,0,B|432:264|432:208,1,100
432,136,56546,2,2,B|360:64|248:56,1,200
104,112,57836,6,0,B|80:168|88:208,1,100
160,184,58482,2,0,B|184:240|176:280,1,100
128,344,59127,1,8
208,344,59449,1,8
288,344,59772,2,2,B|352:256,1,100
256,192,60417,12,0,62353
160,104,62998,6,2,B|256:64|304:64|304:64|352:104,2,200
160,104,64933,1,4
72,240,65578,6,0,B|104:288|104:336,1,100
184,312,66224,2,0,B|232:280|280:280,1,100
344,328,66869,1,8
392,264,67191,1,8
376,184,67514,1,8
304,144,67836,1,8
248,88,68159,6,2,B|216:128|144:136,2,100
248,88,69127,1,8
320,56,69449,2,0,B|368:40|432:40,1,100
472,96,70094,2,0,B|488:144|488:208,1,100
440,256,70740,6,2,B|368:288|296:264|296:264|240:288,2,200
408,184,72353,1,8
328,184,72675,1,8
248,208,72998,1,8
184,256,73320,2,2,B|176:304|136:344,3,100
64,312,74611,2,2,B|56:248|80:208,3,100
48,136,75901,5,8
128,152,76224,1,8
184,208,76546,2,0,B|184:256|152:304,1,100
232,328,77191,2,2,B|280:328|328:296,1,100
384,240,77836,2,0,B|384:192|352:144,1,100
352,64,78482,5,8
272,48,78804,1,8
192,64,79127,2,0,B|152:96|136:144,1,100
208,176,79772,2,2,B|176:224|128:232,1,100
80,296,80417,2,0,B|112:336|160:352,1,100
224,304,81062,5,0
296,336,81385,1,0
352,280,81707,2,0,B|392:248|408:200,1,100
424,120,82353,2,0,B|392:80|344:64,1,100
272,96,82998,2,0,B|232:128|216:176,1,100
256,192,83643,12,0,86062
