osu file format v9

[General]
AudioFilename: KOTOKO - Light My Fire (TV Size).mp3
AudioLeadIn: 1000
PreviewTime: 53104
Countdown: 0
SampleSet: Soft
StackLeniency: 0.7
Mode: 0
LetterboxInBreaks: 1

[Editor]
Bookmarks: 17130,37775,53259,76491,86652
DistanceSpacing: 1.2
BeatDivisor: 2
GridSize: 16

[Metadata]
Title:Light My Fire (TV Size)
Artist:KOTOKO
Creator:happy30
Version:Dan
Source:Shakugan no Shana III (Final)
Tags:team fumoffu ryo supercell dandan Dangaard Sallad4ever opening

[Difficulty]
HPDrainRate:7
CircleSize:4
OverallDifficulty:7
ApproachRate:9
SliderMultiplier:1.6
SliderTickRate:2

[Events]
//Background and Video events
0,0,"shana.jpg"
Video,0,"Kotoko - Light My Fire (TV Size).avi"
//Break Periods
//Storyboard Layer 0 (Background)
//Storyboard Layer 1 (Fail)
//Storyboard Layer 2 (Pass)
//Storyboard Layer 3 (Foreground)
//Storyboard Sound Samples
//Background Colour Transformations
3,100,163,162,255

[TimingPoints]
405,322.58064516129,4,2,1,5,1,0
2824,-100,4,2,1,20,0,0
3146,-100,4,2,1,25,0,0
3469,-100,4,2,1,30,0,0
3792,-100,4,2,1,35,0,0
4114,-100,4,2,1,40,0,0
4437,-100,4,2,1,45,0,0
4759,-100,4,2,1,50,0,0
5082,-100,4,2,1,60,0,0
5404,-100,4,2,1,70,0,0
5808,-100,4,2,1,5,0,0
6534,-100,4,1,1,30,0,0
9437,-100,4,1,1,35,0,0
10727,-100,4,1,1,40,0,0
11969,322.58064516129,4,1,1,50,1,0
17130,-133.333333333333,4,2,1,50,0,0
26646,-100,4,1,1,40,0,0
27291,-100,4,1,1,50,0,0
37775,-200,4,2,1,50,0,0
47936,-200,4,2,1,30,0,0
50033,-100,4,2,1,5,0,0
50678,-100,4,1,1,60,0,0
53259,-100,4,1,1,60,0,1
66001,-100,4,1,1,70,0,0
66140,322.58064516129,4,1,1,70,1,1
76483,322.58064516129,4,1,1,70,1,1
86644,-100,4,1,1,70,0,0

[Colours]
Combo1 : 244,167,21
Combo2 : 197,20,20
Combo3 : 91,118,10

[HitObjects]
256,192,888,12,0,5808
304,224,6856,5,0
304,224,7017,1,0
304,224,7179,1,0
352,304,7340,2,0,B|327:346,2,40
448,304,7663,2,0,B|509:232|448:160,1,160
256,144,8146,5,0
256,144,8308,1,0
256,144,8469,1,0
208,224,8630,2,0,B|233:266,2,40
112,224,8953,2,0,B|94:184|112:144,1,80
208,64,9275,6,0,B|184:24,3,26.6666666666667
352,144,9598,2,0,B|268:284,1,160
160,144,10082,1,0
160,144,10243,2,0,B|76:284,1,160
32,96,10727,5,0
32,96,10888,1,0
480,96,11372,1,0
480,96,11534,1,0
16,336,11969,6,0,B|24:288|64:272,1,80,4|0
112,352,12291,1,0
160,272,12452,2,0,B|192:224,2,40
208,352,12775,2,0,B|368:352,1,160
496,256,13259,6,0,B|488:208|448:192,1,80
400,272,13581,1,0
352,192,13742,2,0,B|320:144,2,40
304,272,14065,2,0,B|144:272,1,160
16,176,14549,6,0,B|96:176,2,80
96,48,15033,1,0
96,48,15114,1,0
96,48,15194,2,0,B|152:104,1,80
96,304,15517,2,0,B|152:247,1,80
416,48,15839,6,0,B|359:104,1,80
416,304,16162,2,0,B|359:247,1,80
256,48,16485,1,0
256,64,16565,1,0
256,80,16646,1,0
256,96,16727,1,0
256,112,16807,1,0
256,128,16888,1,0
256,144,16968,1,0
256,160,17049,1,0
256,176,17130,6,0,B|272:211|319:225,1,59.9999982118607,6|0
176,96,17614,1,0
96,176,17775,2,0,B|59:231|96:288,2,119.999996423721,2|0|2
192,232,18581,2,0,B|229:287|192:344,2,119.999996423721,0|0|0
64,112,19549,6,0,B|99:96|113:49,1,59.9999982118607,0|2
24,40,19872,1,0
192,112,20194,2,0,B|256:112,1,59.9999982118607,0|2
336,112,20517,1,0
448,256,20839,2,0,B|384:256,1,59.9999982118607,0|2
304,256,21162,1,0
128,256,21485,2,0,B|163:272|177:319,1,59.9999982118607,0|2
88,328,21808,1,0
336,320,22130,6,0,B|352:355|399:369,2,59.9999982118607,0|2|0
384,112,22775,2,0,B|419:96|433:49,2,59.9999982118607,0|2|0
176,64,23420,2,0,B|160:29|113:15,2,59.9999982118607,0|2|0
128,272,24065,2,0,B|93:288|79:335,2,59.9999982118607,0|2|0
352,272,24710,6,0,B|296:312,2,59.9999982118607,0|2|0
160,208,25356,2,0,B|216:248,2,59.9999982118607,0|2|0
352,144,26001,2,0,B|296:184,2,59.9999982118607,0|2|0
160,80,26646,1,0
160,80,26727,1,0
160,80,26807,1,8
64,192,26968,1,0
64,192,27291,5,0
64,192,27452,2,0,B|46:232|64:272,1,80,4|0
256,304,27775,2,0,B|274:264|256:224,1,80,8|0
160,80,28098,2,0,B|142:120|160:160,1,80
352,192,28420,2,0,B|370:152|352:112,1,80,8|0
256,304,28743,1,0
256,304,28904,1,0
352,336,29065,1,8
448,304,29227,2,0,B|448:144,1,160
352,16,29710,6,0,B|352:96,1,80,8|0
448,64,30033,1,0
448,64,30194,1,0
272,32,30356,2,0,B|232:14|192:32,1,80,8|0
112,80,30678,1,0
112,80,30839,1,0
72,272,31001,2,0,B|112:290|152:272,1,80,8|0
272,144,31323,2,0,B|232:126|192:144,1,80
232,320,31646,2,0,B|272:338|312:320,1,80,8|0
392,272,31968,1,0
352,96,32130,2,0,B|368:176,1,80,0|8
248,32,32452,6,0,B|280:192,1,160,0|0
160,64,32936,2,0,B|80:64,1,80,8|0
352,96,33259,2,0,B|432:96,1,80
176,144,33581,2,0,B|96:144,1,80,8|0
368,176,33904,2,0,B|448:176,1,80
192,224,34227,2,0,B|112:224,1,80,8|0
312,352,34549,1,0
312,352,34710,2,0,B|280:192,1,160
496,128,35194,6,0,B|448:192,1,80
384,272,35517,1,8
384,272,35678,1,0
400,48,35839,2,0,B|352:112,1,80
288,192,36162,1,8
288,192,36323,1,0
192,64,36485,5,0
192,64,36565,1,8
192,64,36646,1,8
96,160,36807,1,0
128,288,36968,1,0
128,288,37049,1,8
128,288,37130,1,8
192,176,37291,1,8
224,304,37452,1,0
288,192,37614,1,8
320,320,37775,6,0,B|384:272,1,80,6|8
480,64,38420,2,0,B|416:112,1,80,2|8
464,256,38904,2,0,B|456:208|416:192,1,80,2|0
256,192,39388,1,8
256,192,39549,2,0,B|192:240,1,80,2|0
208,320,40033,1,8
272,272,40194,1,0
336,224,40356,1,2
336,144,40517,5,0
336,144,40678,2,0,B|336:104,1,40,8|0
256,16,41001,2,0,B|256:96,1,80,2|8
416,192,41485,2,0,B|416:112,1,80,2|0
256,192,41968,2,0,B|192:240,1,80,8|2
112,208,42452,1,0
112,208,42614,2,0,B|144:184,1,40,8|0
208,128,42936,1,2
144,32,43098,5,0
144,32,43259,2,0,B|144:72,1,40,8|0
16,80,43581,2,0,B|80:128,1,80,2|8
32,272,44065,2,0,B|40:224|80:208,1,80,2|0
160,320,44549,2,0,B|128:296,1,40,8|0
272,304,44872,2,0,B|208:256,1,80,2|8
336,144,45356,2,0,B|272:192,1,80,0|2
352,224,45839,1,8
416,176,46001,1,0
480,128,46162,2,0,B|480:48,1,80,2|8
480,224,46646,6,0,B|416:272,1,80,2|0
512,352,47130,2,0,B|480:328,1,40,8|2
352,224,47452,2,0,B|320:248,1,40,0|2
256,192,47936,12,0,50033
448,192,50678,5,8
448,192,50839,2,0,B|368:192,1,80,8|0
400,336,51162,1,8
400,336,51323,2,0,B|343:279,1,80,8|0
256,384,51646,1,8
256,384,51807,2,0,B|256:304,1,80,8|0
112,336,52130,1,8
112,336,52291,2,0,B|168:279,1,80,8|0
64,192,52614,1,8
256,192,52775,1,8
448,16,53259,6,0,B|404:25|388:67,1,80,4|0
400,232,53581,2,0,B|432:208|432:208|464:184|464:144|464:144|464:96,1,160,8|0
320,192,54065,2,0,B|384:144,1,80,0|8
192,96,54388,2,0,B|256:144|256:144|320:96,1,160,4|0
256,48,54872,1,8
128,144,55033,1,0
128,144,55114,1,0
128,144,55194,2,0,B|192:192,1,80
128,48,55517,1,8
32,160,55678,5,0
32,160,55839,2,0,B|41:204|83:220,1,80,0|0
256,336,56162,2,0,B|242:270|179:246,1,120,8|0
160,256,56485,1,0
352,240,56646,2,0,B|396:231|412:189,1,80,0|8
184,152,56968,2,0,B|234:193|278:193|328:152,1,160,4|0
112,96,57452,1,8
112,96,57614,2,0,B|162:55|206:55|256:96,1,160,4|0
256,256,58098,1,8
256,256,58259,1,0
352,128,58420,6,0,B|304:192,1,80,4|0
400,320,58743,2,0,B|352:256|352:256|400:192,1,160,8|0
352,384,59227,2,0,B|304:320,1,80,0|8
112,192,59549,2,0,B|160:256|160:256|112:320,1,160,4|0
64,256,60033,1,8
160,128,60194,1,0
160,128,60275,1,0
160,128,60356,2,0,B|208:192,1,80,0|0
352,128,60678,2,0,B|304:192,1,80,8|0
496,64,61001,6,0,B|400:192,1,160,0|8
304,64,61485,2,0,B|208:192,1,160
112,64,61968,1,8
112,64,62130,1,4
16,208,62291,6,0,B|-2:248|16:288,1,80
176,368,62614,2,0,B|194:328|176:288,1,80,8|0
177,290,62856,1,0
177,290,62936,1,0
288,368,63098,1,8
256,240,63259,1,8
368,320,63420,1,0
336,192,63581,6,0,B|380:183|396:141,1,80,4|0
192,112,63904,2,0,B|256:64|256:64|320:112,1,160,8|0
448,16,64388,2,0,B|384:64,1,80,0|8
464,264,64710,2,0,B|505:214|505:170|464:120,1,160,4|0
256,168,65194,2,0,B|215:218|215:262|256:312,1,160,8|8
256,312,65678,1,8
16,320,66140,6,0,B|25:276|67:260,1,80,4|0
80,80,66462,2,0,B|112:104|112:104|144:128|144:168|144:168|144:216,1,160,8|0
0,128,66946,2,0,B|64:176,1,80,0|8
192,64,67269,2,0,B|256:112|256:112|320:64,1,160,4|0
256,16,67753,1,8
128,112,67914,1,0
128,112,67995,1,0
128,112,68075,2,0,B|192:160,1,80
384,112,68398,2,0,B|320:160,1,80,8|0
48,96,68720,6,0,B|57:52|99:36,1,80
256,192,69043,2,0,B|242:258|179:282,1,120,8|0
160,272,69366,1,0
352,264,69527,2,0,B|396:273|412:315,1,80,0|8
184,352,69849,2,0,B|234:393|278:393|328:352,1,160,4|0
112,288,70333,1,8
112,288,70495,2,0,B|162:247|206:247|256:288,1,160,4|0
40,352,70979,1,8
40,352,71140,1,0
16,160,71301,6,0,B|64:224,1,80,4|0
112,32,71624,2,0,B|64:96|64:96|112:160,1,160,8|0
296,32,72108,2,0,B|216:32,1,80,0|8
400,160,72430,2,0,B|448:96|448:96|400:32,1,160,4|0
352,96,72914,1,8
448,224,73075,1,0
448,224,73156,1,0
448,224,73237,2,0,B|496:160,1,80
328,304,73559,5,8
328,304,73720,2,0,B|278:345|234:345|184:304,1,160,0|0
56,208,74204,2,0,B|120:256,1,80,8|0
248,160,74527,2,0,B|184:208,1,80,0|0
56,112,74849,2,0,B|120:160,1,80,8|4
336,200,75172,6,0,B|354:160|336:120,1,80,0|0
176,16,75494,2,0,B|158:56|176:96,1,80,8|0
174,93,75736,1,0
174,93,75817,1,8
304,64,75979,1,4
208,160,76140,1,0
336,128,76301,1,4
256,384,76644,5,0
256,384,76805,2,0,B|256:224,2,160,8|8|8
128,256,77612,1,0
128,256,77773,2,0,B|176:320,1,80,8|0
384,256,78095,2,0,B|336:320,1,80,8|0
336,320,78337,1,0
336,320,78418,1,8
384,176,78579,1,0
432,320,78741,1,8
304,224,78902,1,0
464,224,79063,6,0,B|512:160,1,80,8|0
432,16,79386,2,0,B|384:80,1,80,8|0
384,80,79628,1,0
384,80,79708,1,8
80,368,80031,6,0,B|128:304,1,80,8|0
144,160,80353,2,0,B|96:224,1,80,8|0
176,368,80676,2,0,B|224:304,1,80,8|0
224,304,80918,1,0
224,304,80998,1,8
336,368,81159,1,0
304,240,81321,1,8
416,304,81482,1,0
256,192,81644,12,8,84870
128,256,85192,2,0,B|104:288,2,40,8|0|0
256,336,85515,2,0,B|256:376,2,40,8|0|0
384,256,85837,2,0,B|408:288,2,40,8|0|0
192,192,86160,5,12
336,96,86321,1,12
176,96,86482,1,12
320,192,86644,1,12
