osu file format v12

[General]
AudioFilename: light my fire - kotoko.mp3
AudioLeadIn: 0
PreviewTime: 53516
Countdown: 1
SampleSet: Soft
StackLeniency: 0.7
Mode: 0
LetterboxInBreaks: 1
WidescreenStoryboard: 0

[Editor]
DistanceSpacing: 2
BeatDivisor: 4
GridSize: 4
TimelineZoom: 1

[Metadata]
Title:Light My Fire
TitleUnicode:Light My Fire
Artist:KOTOKO
ArtistUnicode:KOTOKO
Creator:Moway
Version:Inferno
Source:Shakugan no Shana III (Final)
Tags:
BeatmapID:415475
BeatmapSetID:171813

[Difficulty]
HPDrainRate:6
CircleSize:4
OverallDifficulty:8
ApproachRate:9
SliderMultiplier:1.9
SliderTickRate:1

[Events]
//Background and Video events
0,0,"bg.jpg",0,0
//Break Periods
2,157266,166467
//Storyboard Layer 0 (Background)
//Storyboard Layer 1 (Fail)
//Storyboard Layer 2 (Pass)
//Storyboard Layer 3 (Foreground)
//Storyboard Sound Samples
//Background Colour Transformations
3,100,163,162,255

[TimingPoints]
1173,322.58064516129,4,2,1,5,1,0
1473,560.747663551402,4,2,1,5,1,0
1753,517.241379310345,4,2,1,5,1,0
2011,480,4,2,1,5,1,0
2251,444.444444444444,4,2,1,5,1,0
2473,416.666666666667,4,2,1,5,1,0
2681,397.350993377483,4,2,1,5,1,0
2879,389.61038961039,4,2,1,5,1,0
3073,387.096774193548,4,2,1,5,1,0
3266,384.615384615385,4,2,1,5,1,0
3463,382.165605095541,4,2,1,5,1,0
3654,307.692307692308,4,2,1,5,1,0
3807,260.869565217391,4,2,1,5,1,0
3937,244.897959183673,4,2,1,5,1,0
4059,243.90243902439,4,2,1,5,1,0
4180,242.914979757085,4,2,1,5,1,0
4301,241.935483870968,4,2,1,5,1,0
4426,240,4,2,1,5,1,0
4546,238.095238095238,4,2,1,5,1,0
4666,236.220472440945,4,2,1,5,1,0
4785,233.463035019455,4,2,1,5,1,0
4901,230.769230769231,4,2,1,5,1,0
5016,228.571428571429,4,2,1,5,1,0
5130,226.415094339623,4,2,1,5,1,0
5243,224.299065420561,4,2,1,5,1,0
5355,222.222222222222,4,2,1,5,1,0
5466,220.183486238532,4,2,1,5,1,0
5576,218.181818181818,4,2,1,5,1,0
5685,217.785843920145,4,2,1,5,1,0
5793,217.391304347826,4,2,1,5,1,0
5901,216.998191681736,4,2,1,5,1,0
6009,216.606498194946,4,2,1,5,1,0
6117,500,4,2,1,5,1,0
7110,322.58064516129,4,2,1,80,1,0
7110,-133.333333333333,4,2,2,60,0,0
9690,-111.111111111111,4,2,1,20,0,0
10497,-80,4,2,1,40,0,0
10980,-80,4,2,1,80,0,0
12229,322.58064516129,4,2,1,80,1,1
12309,-100,4,2,1,80,0,0
17390,-111.111111111111,4,2,2,60,0,0
26906,-111.111111111111,4,2,1,60,0,0
27712,-100,4,2,1,80,0,0
38035,-133.333333333333,4,2,1,40,0,0
38358,-133.333333333333,4,2,2,40,0,0
48358,-133.333333333333,4,2,1,40,0,0
48438,-133.333333333333,4,2,1,5,0,0
50777,-100,4,2,1,80,0,0
51745,-95.2380952380952,4,2,1,90,0,0
53519,-95.2380952380952,4,2,1,90,0,1
78680,-133.333333333333,4,2,1,40,0,0
79325,-100,4,2,1,80,0,1
79406,-100,4,2,1,80,0,0
99970,-133.333333333333,4,2,1,40,0,0
100293,-133.333333333333,4,2,2,40,0,0
110293,-133.333333333333,4,2,1,40,0,0
110374,-133.333333333333,4,2,1,5,0,0
112712,-100,4,2,1,80,0,0
113680,-95.2380952380952,4,2,1,90,0,0
115454,-95.2380952380952,4,2,1,90,0,1
141180,-95.2380952380952,4,2,1,5,0,0
141261,-100,4,2,1,90,0,1
141341,-100,4,2,1,90,0,0
167067,-111.111111111111,4,2,1,70,0,0
176099,-100,4,2,1,40,0,0
177390,-133.333333333333,4,2,2,70,0,0
187712,-100,4,2,1,40,0,0
190616,-100,4,2,1,50,0,0
190938,-100,4,2,1,60,0,0
191261,-100,4,2,1,70,0,0
191583,-100,4,2,1,80,0,0
191906,-95.2380952380952,4,2,1,90,0,0
192874,-90.9090909090909,4,2,1,95,0,1
223680,-90.9090909090909,4,2,1,95,0,0
224003,-90.9090909090909,4,2,1,5,0,0

[Colours]
Combo1 : 255,128,0
Combo2 : 255,0,0
Combo3 : 255,255,119
Combo4 : 174,0,0

[HitObjects]
256,192,1173,12,0,6117,0:0:0:0:
239,190,7110,6,0,L|223:262,1,71.2500027179719,2|0,0:0|0:0,0:0:0:0:
135,174,7432,1,2,0:0:0:0:
252,105,7593,1,0,0:0:0:0:
252,105,7674,1,0,0:0:0:0:
252,105,7755,2,0,P|304:126|321:154,1,71.2500027179719,2|0,0:0|0:0,0:0:0:0:
130,258,8077,2,0,P|78:237|61:209,1,71.2500027179719,2|0,0:0|0:0,0:0:0:0:
218,279,8400,6,0,L|228:360,1,71.2500027179719,2|0,0:0|0:0,0:0:0:0:
277,199,8722,1,2,0:0:0:0:
314,284,8884,1,0,0:0:0:0:
328,294,8964,1,0,0:0:0:0:
345,296,9045,2,0,P|388:289|422:292,1,71.2500027179719,2|0,0:0|0:0,0:0:0:0:
218,279,9368,1,2,0:0:0:0:
208,256,9448,1,0,0:0:0:0:
198,232,9529,1,0,0:0:0:0:
188,208,9609,1,0,0:0:0:0:
175,180,9690,6,0,L|195:86,1,85.4999973907472,8|10,0:0|0:0,0:0:0:0:
377,91,10013,1,0,0:0:0:0:
389,108,10093,1,8,0:0:0:0:
402,124,10174,2,0,P|418:177|397:218,1,85.4999973907472,8|0,0:0|0:0,0:0:0:0:
216,240,10497,6,0,B|140:164|66:260|31:252|-8:220|8:164|40:156|80:168|76:206,1,296.875,6|0,0:0|0:0,0:0:0:0:
158,322,10980,5,10,0:0:0:0:
303,167,11142,1,10,0:0:0:0:
147,107,11626,5,10,0:0:0:0:
331,307,11787,1,10,0:0:0:0:
239,151,12229,6,0,L|255:247,1,95,6|0,0:0|0:0,0:0:0:0:
254,244,12470,1,0,0:0:0:0:
254,244,12551,1,2,0:0:0:0:
80,169,12712,1,0,0:0:0:0:
80,169,12793,1,0,0:0:0:0:
80,169,12874,2,0,L|64:75,1,95,2|0,0:0|0:0,0:0:0:0:
155,248,13196,2,0,P|120:280|58:283,1,95,2|0,0:0|0:0,0:0:0:0:
168,99,13519,6,0,P|203:67|265:64,1,95,2|0,0:0|0:0,0:0:0:0:
248,60,13761,1,0,0:0:0:0:
248,60,13841,1,2,0:0:0:0:
399,142,14003,1,0,0:0:0:0:
402,165,14083,1,0,0:0:0:0:
404,188,14164,2,0,L|411:292,1,95,2|0,0:0|0:0,0:0:0:0:
257,360,14487,2,0,P|192:360|150:369,1,95,2|0,0:0|0:0,0:0:0:0:
48,203,14809,6,0,P|113:203|155:194,1,95,2|0,0:0|0:0,0:0:0:0:
142,197,15051,1,0,0:0:0:0:
142,197,15132,1,2,0:0:0:0:
200,120,15293,2,0,L|236:88,2,47.5,0|0|2,0:0|0:0|0:0,0:0:0:0:
142,314,15616,2,0,L|116:354,2,47.5,0|0|2,0:0|0:0|0:0,0:0:0:0:
301,262,15938,5,0,0:0:0:0:
301,262,16019,1,0,0:0:0:0:
301,262,16099,2,0,P|304:214|299:168,1,95,2|0,0:0|0:0,0:0:0:0:
129,172,16422,1,2,0:0:0:0:
187,354,16583,1,0,0:0:0:0:
396,332,16745,6,0,L|453:309,1,47.5,8|8,0:0|0:0,0:0:0:0:
406,249,16906,6,0,L|463:226,1,47.5,8|0,0:0|0:0,0:0:0:0:
407,171,17067,6,0,L|464:148,1,47.5,8|8,0:0|0:0,0:0:0:0:
417,88,17228,6,0,L|474:65,1,47.5,8|8,0:0|0:0,0:0:0:0:
327,92,17390,6,0,L|321:184,1,85.4999973907472,4|0,0:0|0:0,0:0:0:0:
321,177,17874,1,0,0:0:0:0:
320,177,18035,2,0,B|246:144|246:144|206:172|147:168,1,170.999994781494,2|0,0:0|0:0,0:0:0:0:
183,80,18519,1,0,0:0:0:0:
245,231,18680,6,0,L|326:267,2,85.4999973907472,2|0|0,0:0|0:0|0:0,0:0:0:0:
96,84,19164,2,0,P|70:144|88:259,1,170.999994781494,2|0,0:0|0:0,0:0:0:0:
170,299,19648,1,2,0:0:0:0:
245,231,19809,1,0,0:0:0:0:
334,281,19970,6,0,L|351:371,1,85.4999973907472,2|0,0:0|0:0,0:0:0:0:
178,103,20454,1,0,0:0:0:0:
178,103,20616,2,0,L|161:13,1,85.4999973907472,2|0,0:0|0:0,0:0:0:0:
345,114,21099,1,0,0:0:0:0:
345,114,21261,2,0,L|435:97,1,85.4999973907472,2|0,0:0|0:0,0:0:0:0:
167,270,21745,1,0,0:0:0:0:
167,270,21906,2,0,L|77:287,2,85.4999973907472,2|0|0,0:0|0:0|0:0,0:0:0:0:
102,368,22390,6,0,P|48:362|5:257,1,170.999994781494,2|0,0:0|0:0,0:0:0:0:
146,116,23035,1,0,0:0:0:0:
146,116,23196,2,0,L|161:23,1,85.4999973907472,2|0,0:0|0:0,0:0:0:0:
256,256,23680,1,0,0:0:0:0:
256,256,23841,2,0,L|271:349,1,85.4999973907472,2|0,0:0|0:0,0:0:0:0:
371,116,24325,1,0,0:0:0:0:
371,116,24487,2,0,L|386:23,2,85.4999973907472,2|0|0,0:0|0:0|0:0,0:0:0:0:
369,255,24970,5,0,0:0:0:0:
369,255,25132,2,0,P|338:203|209:164,1,170.999994781494,2|0,0:0|0:0,0:0:0:0:
153,266,25616,1,0,0:0:0:0:
153,266,25777,2,0,L|159:358,1,85.4999973907472,2|0,0:0|0:0,0:0:0:0:
65,123,26261,1,0,0:0:0:0:
65,123,26422,2,0,L|71:215,1,85.4999973907472,2|0,0:0|0:0,0:0:0:0:
183,79,26906,5,2,0:0:0:0:
183,79,26987,1,2,0:0:0:0:
183,79,27067,2,0,P|220:56|273:41,1,85.4999973907472,8|2,0:0|0:0,0:0:0:0:
256,328,27551,1,2,0:0:0:0:
144,276,27712,6,0,P|132:240|140:184,1,95,4|0,0:0|0:0,0:0:0:0:
368,108,28035,2,0,P|380:144|372:200,1,95,8|0,0:0|0:0,0:0:0:0:
256,328,28358,2,0,B|232:264|296:220|256:128,1,190,2|8,0:0|0:0,0:0:0:0:
172,96,28841,1,0,0:0:0:0:
334,283,29003,6,0,P|381:295|441:289,2,95,2|0|8,0:0|0:0|0:0,0:0:0:0:
171,176,29487,2,0,P|108:182|7:260,1,190
287,178,29970,2,0,P|304:126|301:76,1,95,8|0,0:0|0:0,0:0:0:0:
182,280,30293,6,0,P|165:332|168:382,1,95,2|0,0:0|0:0,0:0:0:0:
279,294,30616,1,8,0:0:0:0:
159,192,30777,1,0,0:0:0:0:
279,294,30938,2,0,L|380:281,1,95,2|0,0:0|0:0,0:0:0:0:
267,206,31261,1,8,0:0:0:0:
178,329,31422,1,0,0:0:0:0:
326,367,31583,6,0,L|427:354,1,95,2|0,0:0|0:0,0:0:0:0:
411,175,31906,1,8,0:0:0:0:
317,281,32067,1,0,0:0:0:0:
318,281,32148,1,0,0:0:0:0:
318,281,32228,2,0,P|278:315|236:321,1,95,2|0,0:0|0:0,0:0:0:0:
147,201,32551,2,0,P|138:149|154:110,1,95,8|0,0:0|0:0,0:0:0:0:
317,281,32874,6,0,L|325:377,1,95,2|0,0:0|0:0,0:0:0:0:
231,290,33196,1,8,0:0:0:0:
331,194,33358,1,0,0:0:0:0:
231,290,33519,2,0,P|178:295|125:288,1,95,2|0,0:0|0:0,0:0:0:0:
236,182,33841,1,8,0:0:0:0:
317,281,34003,1,0,0:0:0:0:
96,357,34164,6,0,P|63:314|65:259,1,95,2|0,0:0|0:0,0:0:0:0:
125,91,34487,1,8,0:0:0:0:
138,184,34648,1,0,0:0:0:0:
156,277,34809,2,0,L|257:254,1,95,2|0,0:0|0:0,0:0:0:0:
313,186,35132,1,8,0:0:0:0:
388,292,35293,6,0,L|204:340,1,190
101,231,35777,1,8,0:0:0:0:
90,347,35938,1,0,0:0:0:0:
235,254,36099,2,0,P|250:204|243:153,1,95,2|0,0:0|0:0,0:0:0:0:
129,155,36422,1,8,0:0:0:0:
156,295,36583,1,0,0:0:0:0:
311,323,36745,5,2,0:0:0:0:
347,315,36825,1,8,0:0:0:0:
378,293,36906,1,8,0:0:0:0:
288,79,37067,2,0,L|273:174,1,95,2|0,0:0|0:0,0:0:0:0:
269,196,37309,1,8,0:0:0:0:
265,219,37390,1,8,0:0:0:0:
344,312,37551,1,0,0:0:0:0:
456,288,37712,2,0,L|470:194,1,95,8|0,0:0|0:0,0:0:0:0:
384,246,38035,6,0,P|347:269|242:250,1,142.500005435944,2|8,0:0|0:0,0:0:0:0:
205,194,38519,1,0,0:0:0:0:
127,207,38680,2,0,L|106:283,2,71.2500027179719,0|0|8,0:0|0:0|0:0,0:0:0:0:
49,219,39164,2,0,B|29:295|29:295|57:345|109:349,1,142.500005435944
148,316,39648,1,8,0:0:0:0:
148,316,39809,1,0,0:0:0:0:
215,355,39970,1,0,0:0:0:0:
287,324,40132,2,0,P|330:274|340:184,1,142.500005435944
194,228,40616,6,0,L|114:222,1,71.2500027179719,2|0,0:0|0:0,0:0:0:0:
292,123,40938,2,0,L|363:128,1,71.2500027179719,8|2,0:0|0:0,0:0:0:0:
235,16,41261,2,0,P|190:52|176:146,1,142.500005435944,0|8,0:0|0:0,0:0:0:0:
236,178,41745,1,0,0:0:0:0:
292,232,41906,2,0,L|290:313,1,71.2500027179719
176,307,42228,2,0,L|177:235,1,71.2500027179719,8|0,0:0|0:0,0:0:0:0:
313,153,42551,1,0,0:0:0:0:
313,153,42712,2,0,B|371:115|399:179|449:147,1,142.500005435944
312,56,43196,5,2,0:0:0:0:
226,99,43358,2,0,P|213:144|213:183,2,71.2500027179719,0|10|2,0:0|0:0|0:0,0:0:0:0:
123,161,43841,2,0,P|143:223|231:258,1,142.500005435944,0|8,0:0|0:0,0:0:0:0:
418,175,44325,2,0,P|354:161|279:220,1,142.500005435944,0|0,0:0|0:0,0:0:0:0:
363,311,44809,2,0,P|371:272|363:234,1,71.2500027179719,8|0,0:0|0:0,0:0:0:0:
217,96,45132,2,0,P|208:134|217:173,1,71.2500027179719,0|0,0:0|0:0,0:0:0:0:
269,249,45454,1,8,0:0:0:0:
269,249,45777,5,2,0:0:0:0:
336,209,45938,2,0,L|422:190,2,71.2500027179719,0|8|2,0:0|0:0|0:0,0:0:0:0:
269,167,46422,2,0,P|191:148|135:181,1,142.500005435944,0|8,0:0|0:0,0:0:0:0:
91,261,46906,2,0,L|105:339,1,71.2500027179719
220,299,47228,1,0,0:0:0:0:
220,299,47390,2,0,L|207:228,1,71.2500027179719,8|0,0:0|0:0,0:0:0:0:
128,147,47712,1,0,0:0:0:0:
128,147,47874,2,0,P|206:161|251:110,1,142.500005435944
181,82,48358,5,2,0:0:0:0:
256,192,48438,12,0,50454,0:0:0:0:
152,80,50777,5,2,0:0:0:0:
152,80,50858,1,2,0:0:0:0:
152,80,50938,2,0,L|143:177,1,95,8|2,0:0|0:0,0:0:0:0:
360,304,51261,5,2,0:0:0:0:
360,304,51341,1,2,0:0:0:0:
360,304,51422,2,0,L|369:207,1,95,8|2,0:0|0:0,0:0:0:0:
135,52,51745,5,2,0:0:0:0:
135,52,51825,1,2,0:0:0:0:
135,52,51906,2,0,L|123:178,1,99.7499969558717,8|2,0:0|0:0,0:0:0:0:
377,332,52228,5,2,0:0:0:0:
377,332,52309,1,2,0:0:0:0:
377,332,52390,2,0,L|389:206,1,99.7499969558717,8|2,0:0|0:0,0:0:0:0:
256,8,52712,6,2,L|256:68,1,49.8749984779358
256,192,52874,1,8,0:0:0:0:
256,192,53035,1,8,0:0:0:0:
256,192,53519,6,0,P|172:236|68:216,1,199.499993911743,6|8,0:0|0:0,0:0:0:0:
199,110,54003,1,0,0:0:0:0:
348,214,54164,2,0,P|359:272|341:321,1,99.7499969558717,2|2,0:0|0:0,0:0:0:0:
174,384,54487,1,8,0:0:0:0:
97,315,54648,6,0,P|78:252|111:110,1,199.499993911743,4|2,0:0|0:0,0:0:0:0:
262,282,55132,2,0,P|274:343|266:392,1,99.7499969558717,8|0,0:0|0:0,0:0:0:0:
165,236,55454,1,2,0:0:0:0:
260,162,55616,1,2,0:0:0:0:
364,219,55777,2,0,P|421:209|460:187,1,99.7499969558717,8|0,0:0|0:0,0:0:0:0:
260,162,56099,6,0,P|192:149|67:182,1,199.499993911743,4|8,0:0|0:0,0:0:0:0:
282,363,56583,1,0,0:0:0:0:
323,344,56664,1,8,0:0:0:0:
354,311,56745,2,0,L|375:196,1,99.7499969558717,2|2,0:0|0:0,0:0:0:0:
256,56,57067,1,8,0:0:0:0:
144,80,57228,6,0,P|117:145|135:276,1,199.499993911743,4|2,0:0|0:0,0:0:0:0:
282,363,57712,1,8,0:0:0:0:
368,304,57874,2,0,P|395:239|377:108,1,199.499993911743,4|0,0:0|0:0,0:0:0:0:
204,176,58358,2,0,L|212:280,1,99.7499969558717,8|0,0:0|0:0,0:0:0:0:
470,110,58680,6,0,P|438:58|393:30,1,99.7499969558717,4|0,0:0|0:0,0:0:0:0:
311,179,59003,2,0,B|211:204|208:132|107:171,1,199.499993911743,8|2,0:0|0:0,0:0:0:0:
233,272,59487,1,2,0:0:0:0:
351,250,59648,1,8,0:0:0:0:
429,145,59809,6,0,P|446:207|406:348,1,199.499993911743,4|2,0:0|0:0,0:0:0:0:
246,358,60293,1,8,0:0:0:0:
161,269,60454,1,0,0:0:0:0:
161,269,60535,1,8,0:0:0:0:
161,269,60616,2,0,L|137:169,1,99.7499969558717,2|2,0:0|0:0,0:0:0:0:
292,32,60938,2,0,L|268:128,1,99.7499969558717,8|2,0:0|0:0,0:0:0:0:
311,281,61261,6,0,B|361:254|411:282|411:282|425:234|490:198,1,199.499993911743,4|8,0:0|0:0,0:0:0:0:
201,281,61745,2,0,B|151:254|101:282|101:282|87:234|22:198,1,199.499993911743,0|2,0:0|0:0,0:0:0:0:
160,350,62228,1,8,0:0:0:0:
264,216,62390,6,0,P|280:164|260:12,1,199.499993911743,4|2,0:0|0:0,0:0:0:0:
160,192,62874,1,8,0:0:0:0:
260,312,63035,1,8,0:0:0:0:
260,312,63116,1,8,0:0:0:0:
260,312,63196,1,8,0:0:0:0:
344,196,63358,5,2,0:0:0:0:
136,280,63519,1,8,0:0:0:0:
272,76,63680,1,8,0:0:0:0:
340,264,63841,6,0,P|241:255|161:199,1,199.499993911743,6|8,0:0|0:0,0:0:0:0:
92,56,64325,1,0,0:0:0:0:
16,228,64487,2,0,P|0:284|12:340,1,99.7499969558717,2|2,0:0|0:0,0:0:0:0:
168,364,64809,1,8,0:0:0:0:
248,276,64970,6,0,P|272:216|256:84,1,199.499993911743,4|2,0:0|0:0,0:0:0:0:
156,248,65454,1,8,0:0:0:0:
260,360,65616,1,0,0:0:0:0:
260,360,65696,1,8,0:0:0:0:
260,360,65777,2,0,P|311:343|368:348,1,99.7499969558717,2|2,0:0|0:0,0:0:0:0:
248,276,66099,2,0,P|272:227|315:191,1,99.7499969558717,8|2,0:0|0:0,0:0:0:0:
156,248,66422,6,0,P|136:176|160:56,1,199.499993911743,4|8,0:0|0:0,0:0:0:0:
371,161,66906,1,0,0:0:0:0:
383,188,66987,1,8,0:0:0:0:
391,216,67067,2,0,P|339:248|267:248,1,99.7499969558717,2|2,0:0|0:0,0:0:0:0:
96,172,67390,1,8,0:0:0:0:
151,56,67551,6,0,B|220:39|220:39|274:67|274:67|344:51,1,199.499993911743,4|2,0:0|0:0,0:0:0:0:
201,136,68035,1,8,0:0:0:0:
201,136,68196,2,0,P|178:183|188:244,1,99.7499969558717,4|0,0:0|0:0,0:0:0:0:
360,296,68519,1,2,0:0:0:0:
360,296,68680,2,0,P|362:246|340:202,1,99.7499969558717,8|2,0:0|0:0,0:0:0:0:
252,324,69003,6,0,P|160:354|83:298,1,199.499993911743,4|8,0:0|0:0,0:0:0:0:
223,146,69487,1,0,0:0:0:0:
223,146,69567,1,8,0:0:0:0:
222,146,69648,2,0,P|190:182|183:231,1,99.7499969558717,2|2,0:0|0:0,0:0:0:0:
356,368,69970,1,8,0:0:0:0:
458,303,70132,6,0,P|473:240|472:106,1,199.499993911743,4|2,0:0|0:0,0:0:0:0:
296,17,70616,1,8,0:0:0:0:
234,137,70777,1,0,0:0:0:0:
234,137,70858,1,8,0:0:0:0:
234,137,70938,2,0,L|343:125,1,99.7499969558717,2|2,0:0|0:0,0:0:0:0:
416,32,71261,1,8,0:0:0:0:
284,235,71422,6,0,P|211:238|143:125,1,199.499993911743,4|2,0:0|0:0,0:0:0:0:
435,213,71906,2,0,P|453:271|439:320,1,99.7499969558717,8|0,0:0|0:0,0:0:0:0:
312,153,72228,2,0,P|294:95|308:46,1,99.7499969558717,2|2,0:0|0:0,0:0:0:0:
435,213,72551,1,8,0:0:0:0:
348,295,72712,1,6,0:0:0:0:
246,233,72874,6,0,P|173:218|46:244,1,199.499993911743,2|8,0:0|0:0,0:0:0:0:
278,315,73358,2,0,P|322:280|329:231,1,99.7499969558717,0|8,0:0|0:0,0:0:0:0:
256,40,73680,1,2,0:0:0:0:
256,40,74003,6,0,L|228:256,1,199.499993911743,6|2,0:0|0:0,0:0:0:0:
344,134,74487,2,0,P|396:118|446:129,1,99.7499969558717,8|2,0:0|0:0,0:0:0:0:
496,215,74809,2,0,L|480:325,1,99.7499969558717,8|2,0:0|0:0,0:0:0:0:
255,204,75132,2,0,L|269:105,1,99.7499969558717,8|2,0:0|0:0,0:0:0:0:
351,248,75454,6,0,P|320:301|265:307,1,99.7499969558717,8|2,0:0|0:0,0:0:0:0:
136,196,75777,1,8,0:0:0:0:
236,102,75938,1,2,0:0:0:0:
236,102,76019,1,2,0:0:0:0:
236,102,76099,2,0,P|281:78|338:64,1,99.7499969558717,8|2,0:0|0:0,0:0:0:0:
242,224,76422,2,0,P|285:250|325:293,1,99.7499969558717,8|0,0:0|0:0,0:0:0:0:
141,289,76745,5,12,0:0:0:0:
43,72,76906,1,8,0:0:0:0:
151,135,77067,1,2,0:0:0:0:
13,253,77228,5,12,0:0:0:0:
128,52,77390,2,0,P|191:58|226:88,1,99.7499969558717,8|0,0:0|0:0,0:0:0:0:
307,316,77712,5,12,0:0:0:0:
153,186,77874,1,8,0:0:0:0:
317,195,78035,1,2,0:0:0:0:
197,74,78196,1,8,0:0:0:0:
64,224,78358,2,0,L|64:332,1,99.7499969558717,8|0,0:0|0:0,0:0:0:0:
256,140,78680,5,2,0:0:0:0:
408,290,79325,6,0,L|510:261,1,95,4|0,0:0|0:0,0:0:0:0:
363,211,79648,1,8,0:0:0:0:
337,334,79809,1,0,0:0:0:0:
460,185,79970,2,0,P|469:138|460:89,1,95,2|0,0:0|0:0,0:0:0:0:
271,170,80293,2,0,P|262:217|271:266,1,95,8|0,0:0|0:0,0:0:0:0:
366,121,80616,5,2,0:0:0:0:
256,47,80777,1,0,0:0:0:0:
366,121,80938,1,8,0:0:0:0:
177,150,81099,2,0,L|75:158,1,95,0|2,0:0|0:0,0:0:0:0:
224,294,81422,2,0,L|318:286,2,95,0|8|0,0:0|0:0|0:0,0:0:0:0:
340,381,81906,6,0,P|405:348|401:206,1,190,2|8,0:0|0:0,0:0:0:0:
333,53,82390,1,0,0:0:0:0:
273,131,82551,2,0,L|261:228,1,95,2|0,0:0|0:0,0:0:0:0:
367,142,82874,1,8,0:0:0:0:
244,41,83035,1,0,0:0:0:0:
183,218,83196,6,0,P|197:273|228:295,1,95,2|0,0:0|0:0,0:0:0:0:
440,200,83519,2,0,P|392:200|341:215,1,95,8|0,0:0|0:0,0:0:0:0:
323,217,83761,1,0,0:0:0:0:
299,219,83841,1,2,0:0:0:0:
177,351,84003,1,0,0:0:0:0:
304,382,84164,2,0,P|327:341|327:288,1,95,8|0,0:0|0:0,0:0:0:0:
229,138,84487,6,0,L|203:243,1,95,2|0,0:0|0:0,0:0:0:0:
276,326,84809,1,8,0:0:0:0:
104,288,84970,1,0,0:0:0:0:
276,326,85132,2,0,L|381:352,1,95,2|0,0:0|0:0,0:0:0:0:
236,236,85454,1,8,0:0:0:0:
184,352,85616,1,0,0:0:0:0:
362,227,85777,6,0,P|399:189|442:165,1,95,2|0,0:0|0:0,0:0:0:0:
272,168,86099,2,0,P|257:116|258:68,1,95,8|0,0:0|0:0,0:0:0:0:
362,227,86422,1,2,0:0:0:0:
232,256,86583,2,0,L|117:237,1,95,0|8,0:0|0:0,0:0:0:0:
128,156,86906,1,0,0:0:0:0:
281,327,87067,6,0,B|325:289|320:255|320:255|284:210|304:147,1,190,2|8,0:0|0:0,0:0:0:0:
406,284,87551,2,0,P|392:334|364:367,1,95,0|2,0:0|0:0,0:0:0:0:
209,170,87874,2,0,P|223:120|251:87,1,95,0|8,0:0|0:0,0:0:0:0:
303,234,88196,6,0,L|295:286,2,47.5,2|0|2,2:0|0:0|0:0,0:0:0:0:
315,119,88519,1,0,0:0:0:0:
202,272,88680,1,8,0:0:0:0:
390,294,88841,1,8,3:0:0:0:
232,186,89003,1,4,3:0:0:0:
315,356,89164,1,4,3:0:0:0:
428,203,89325,2,0,L|414:94,1,95,8|0,0:0|0:0,0:0:0:0:
240,66,89648,5,4,0:0:0:0:
240,66,89809,1,0,0:0:0:0:
185,143,89970,1,8,0:0:0:0:
279,151,90132,1,0,0:0:0:0:
145,56,90293,1,2,0:0:0:0:
279,151,90454,1,0,0:0:0:0:
145,56,90616,2,0,P|100:95|90:134,1,95,8|0,0:0|0:0,0:0:0:0:
120,291,90938,5,2,0:0:0:0:
120,291,91099,1,0,0:0:0:0:
112,204,91261,1,8,0:0:0:0:
198,315,91422,1,0,0:0:0:0:
39,263,91583,1,2,0:0:0:0:
188,231,91745,1,0,0:0:0:0:
39,263,91906,2,0,P|38:325|57:358,1,95,8|0,0:0|0:0,0:0:0:0:
174,149,92228,6,0,P|175:87|156:54,1,95,2|0,0:0|0:0,0:0:0:0:
90,120,92551,1,8,0:0:0:0:
106,204,92712,1,0,0:0:0:0:
174,149,92874,1,2,0:0:0:0:
188,232,93035,1,0,0:0:0:0:
286,120,93196,1,8,0:0:0:0:
334,262,93358,1,0,0:0:0:0:
188,232,93519,6,0,P|185:176|186:128,1,95,2|0,0:0|0:0,0:0:0:0:
260,283,93841,1,8,0:0:0:0:
119,328,94003,1,0,0:0:0:0:
0,200,94164,2,0,P|48:182|103:184,1,95,2|0,0:0|0:0,0:0:0:0:
52,272,94487,1,8,0:0:0:0:
16,104,94648,1,0,0:0:0:0:
172,68,94809,6,0,P|190:116|188:171,1,95,2|0,0:0|0:0,0:0:0:0:
289,301,95132,2,0,P|290:253|307:209,1,95,8|0,0:0|0:0,0:0:0:0:
377,272,95454,1,2,0:0:0:0:
210,207,95616,1,0,0:0:0:0:
312,104,95777,1,8,0:0:0:0:
306,209,95938,1,0,0:0:0:0:
206,110,96099,6,0,P|164:84|120:72,1,95,2|0,0:0|0:0,0:0:0:0:
53,224,96422,2,0,P|95:250|139:262,1,95,8|0,0:0|0:0,0:0:0:0:
131,165,96745,1,2,0:0:0:0:
18,293,96906,1,0,0:0:0:0:
185,327,97067,1,8,0:0:0:0:
299,200,97228,6,0,P|353:235|361:359,1,190
275,303,97712,1,8,0:0:0:0:
299,200,97874,1,0,0:0:0:0:
405,225,98035,1,2,0:0:0:0:
381,328,98196,1,0,0:0:0:0:
275,303,98358,1,8,0:0:0:0:
197,233,98519,1,0,0:0:0:0:
113,340,98680,5,8,0:0:0:0:
146,360,98761,1,10,0:0:0:0:
184,363,98841,1,8,0:0:0:0:
403,174,99003,2,0,P|351:152|301:159,1,95,8|8,0:0|0:0,0:0:0:0:
276,164,99245,1,8,0:0:0:0:
242,181,99325,1,10,0:0:0:0:
151,259,99487,1,8,0:0:0:0:
151,259,99567,1,8,0:0:0:0:
151,259,99648,1,8,0:0:0:0:
264,336,99809,1,8,0:0:0:0:
379,238,99970,6,0,L|400:87,1,142.500005435944,2|8,0:0|0:0,0:0:0:0:
347,38,100454,1,0,0:0:0:0:
300,101,100616,2,0,L|289:172,1,71.2500027179719
210,170,100938,2,0,P|221:214|254:239,1,71.2500027179719,8|0,0:0|0:0,0:0:0:0:
209,304,101261,2,0,L|280:315,2,71.2500027179719,0|0|8,0:0|0:0|0:0,0:0:0:0:
132,320,101745,1,0,0:0:0:0:
132,320,101825,1,0,0:0:0:0:
132,320,101906,2,0,P|93:296|83:262,1,71.2500027179719
84,108,102228,2,0,P|123:132|133:166,1,71.2500027179719,8|0,0:0|0:0,0:0:0:0:
57,179,102551,5,2,0:0:0:0:
188,88,102712,2,0,L|264:88,2,71.2500027179719,0|8|2,0:0|0:0|0:0,0:0:0:0:
281,185,103196,2,0,P|316:171|343:61,1,142.500005435944,0|8,0:0|0:0,0:0:0:0:
184,173,103680,2,0,P|149:187|122:297,1,142.500005435944
175,329,104164,2,0,P|195:292|190:256,1,71.2500027179719,8|0,0:0|0:0,0:0:0:0:
109,355,104487,1,0,0:0:0:0:
109,355,104648,2,0,B|172:378|184:331|275:364,1,142.500005435944
377,252,105132,5,2,0:0:0:0:
384,174,105293,1,0,0:0:0:0:
312,204,105454,2,0,P|298:248|311:291,1,71.2500027179719,8|2,0:0|0:0,0:0:0:0:
377,252,105777,2,0,P|436:288|429:363,1,142.500005435944,0|8,0:0|0:0,0:0:0:0:
359,331,106261,2,0,P|282:306|212:310,1,142.500005435944
143,323,106745,1,8,0:0:0:0:
143,323,106906,1,0,0:0:0:0:
67,341,107067,1,0,0:0:0:0:
24,275,107228,2,0,L|2:115,1,142.500005435944
90,45,107712,5,2,0:0:0:0:
157,114,107874,2,0,P|118:139|73:144,2,71.2500027179719,0|8|2,0:0|0:0|0:0,0:0:0:0:
246,78,108358,2,0,P|265:121|248:223,1,142.500005435944,0|8,0:0|0:0,0:0:0:0:
169,275,108841,2,0,P|224:284|316:334,1,142.500005435944
372,355,109325,2,0,P|392:314|399:274,1,71.2500027179719,8|0,0:0|0:0,0:0:0:0:
334,112,109648,1,0,0:0:0:0:
334,112,109809,2,0,P|314:153|332:251,1,142.500005435944
425,182,110293,5,2,0:0:0:0:
256,192,110374,12,0,112390,0:0:0:0:
360,80,112712,5,2,0:0:0:0:
360,80,112793,1,2,0:0:0:0:
360,80,112874,2,0,L|369:177,1,95,8|2,0:0|0:0,0:0:0:0:
152,304,113196,5,2,0:0:0:0:
152,304,113277,1,2,0:0:0:0:
152,304,113358,2,0,L|143:207,1,95,8|2,0:0|0:0,0:0:0:0:
377,52,113680,5,2,0:0:0:0:
377,52,113761,1,2,0:0:0:0:
377,52,113841,2,0,L|389:178,1,99.7499969558717,8|2,0:0|0:0,0:0:0:0:
135,332,114164,5,2,0:0:0:0:
135,332,114245,1,2,0:0:0:0:
135,332,114325,2,0,L|123:206,1,99.7499969558717,8|2,0:0|0:0,0:0:0:0:
256,8,114648,6,2,L|256:68,1,49.8749984779358
256,192,114809,1,8,0:0:0:0:
256,192,114970,1,8,0:0:0:0:
256,192,115454,6,0,P|172:148|68:168,1,199.499993911743,6|8,0:0|0:0,0:0:0:0:
100,322,115938,1,0,0:0:0:0:
256,192,116099,2,0,P|309:151|363:136,1,99.7499969558717,2|2,0:0|0:0,0:0:0:0:
512,203,116422,1,0,0:0:0:0:
475,312,116583,6,0,P|423:266|438:114,1,199.499993911743,4|2,0:0|0:0,0:0:0:0:
319,243,117067,2,0,L|301:348,1,99.7499969558717,8|0,0:0|0:0,0:0:0:0:
205,149,117390,2,0,L|189:50,1,99.7499969558717,2|2,0:0|0:0,0:0:0:0:
75,253,117712,1,8,0:0:0:0:
170,327,117874,1,0,0:0:0:0:
275,268,118035,6,0,P|368:245|486:264,1,199.499993911743,4|8,0:0|0:0,0:0:0:0:
308,161,118519,2,0,L|283:109,2,49.8749984779358,0|8|2,0:0|0:0|0:0,0:0:0:0:
410,321,118841,1,2,0:0:0:0:
470,164,119003,1,8,0:0:0:0:
239,20,119164,6,0,P|201:94|212:209,1,199.499993911743,4|2,0:0|0:0,0:0:0:0:
400,344,119648,1,8,0:0:0:0:
452,256,119809,2,0,B|398:233|339:266|339:266|293:247|281:193,1,199.499993911743,4|2,0:0|0:0,0:0:0:0:
168,43,120293,1,8,0:0:0:0:
266,97,120454,5,0,0:0:0:0:
266,97,120535,1,8,0:0:0:0:
266,97,120616,2,0,P|273:162|256:307,1,199.499993911743,4|8,0:0|0:0,0:0:0:0:
167,358,121099,1,0,0:0:0:0:
218,195,121261,2,2,P|271:181|331:182,1,99.7499969558717,2|2,0:0|0:0,0:0:0:0:
407,283,121583,1,8,0:0:0:0:
137,281,121745,6,0,P|87:226|81:101,1,199.499993911743,4|2,0:0|0:0,0:0:0:0:
287,275,122228,2,0,P|274:331|239:362,1,99.7499969558717,8|0,0:0|0:0,0:0:0:0:
200,162,122551,1,2,0:0:0:0:
296,32,122712,1,2,0:0:0:0:
470,121,122874,1,8,0:0:0:0:
376,236,123035,5,0,0:0:0:0:
376,236,123116,1,0,0:0:0:0:
376,236,123196,2,0,P|280:253|263:344,1,199.499993911743,4|8,0:0|0:0,0:0:0:0:
136,148,123680,2,0,P|232:131|249:40,1,199.499993911743,0|2,0:0|0:0,0:0:0:0:
19,143,124164,1,8,0:0:0:0:
91,326,124325,6,0,P|200:335|293:298,1,199.499993911743,4|2,0:0|0:0,0:0:0:0:
421,117,124809,1,8,0:0:0:0:
331,39,124970,1,8,0:0:0:0:
307,48,125051,1,8,0:0:0:0:
285,60,125132,1,8,0:0:0:0:
267,77,125212,1,8,0:0:0:0:
252,97,125293,1,8,0:0:0:0:
239,118,125374,1,8,0:0:0:0:
234,142,125454,1,8,0:0:0:0:
231,166,125535,1,8,0:0:0:0:
231,191,125616,1,8,0:0:0:0:
232,215,125696,1,8,0:0:0:0:
235,239,125777,6,0,P|170:294|48:247,1,199.499993911743,6|8,0:0|0:0,0:0:0:0:
135,114,126261,1,0,0:0:0:0:
321,205,126422,2,0,P|324:271|300:309,1,99.7499969558717,2|2,0:0|0:0,0:0:0:0:
31,346,126745,1,0,0:0:0:0:
42,240,126906,6,0,P|113:220|257:249,1,199.499993911743,4|2,0:0|0:0,0:0:0:0:
435,356,127390,1,8,0:0:0:0:
333,338,127551,1,0,0:0:0:0:
333,338,127632,1,8,0:0:0:0:
333,338,127712,2,0,L|313:232,1,99.7499969558717,2|2,0:0|0:0,0:0:0:0:
474,72,128035,2,0,L|492:170,1,99.7499969558717,8|0,0:0|0:0,0:0:0:0:
414,267,128358,6,0,L|376:71,1,199.499993911743,4|8,0:0|0:0,0:0:0:0:
503,245,128841,1,0,0:0:0:0:
502,285,128922,1,8,0:0:0:0:
486,321,129003,2,0,P|437:356|385:347,1,99.7499969558717,2|2,0:0|0:0,0:0:0:0:
181,231,129325,1,8,0:0:0:0:
271,134,129487,6,0,P|287:215|269:344,1,199.499993911743,4|2,0:0|0:0,0:0:0:0:
67,350,129970,1,8,0:0:0:0:
2,247,130132,2,0,P|-14:166|4:37,1,199.499993911743,4|2,0:0|0:0,0:0:0:0:
205,33,130616,2,0,L|91:9,1,99.7499969558717,8|0,0:0|0:0,0:0:0:0:
192,154,130938,6,0,P|251:152|374:58,1,199.499993911743,4|8,0:0|0:0,0:0:0:0:
370,191,131422,1,0,0:0:0:0:
373,200,131503,1,8,0:0:0:0:
377,208,131583,2,0,L|379:317,1,99.7499969558717,2|2,0:0|0:0,0:0:0:0:
270,360,131906,1,8,0:0:0:0:
177,288,132067,6,0,P|106:258|-13:303,1,199.499993911743,4|2,0:0|0:0,0:0:0:0:
275,261,132551,2,0,P|296:208|288:151,1,99.7499969558717,8|0,0:0|0:0,0:0:0:0:
152,21,132874,2,0,P|131:74|139:131,1,99.7499969558717,2|2,0:0|0:0,0:0:0:0:
216,328,133196,1,8,0:0:0:0:
336,284,133358,6,0,P|362:235|364:76,1,199.499993911743,4|2,0:0|0:0,0:0:0:0:
165,310,133841,2,0,P|216:334|275:327,1,99.7499969558717,8|0,0:0|0:0,0:0:0:0:
163,126,134164,2,0,P|112:102|53:109,1,99.7499969558717,2|2,0:0|0:0,0:0:0:0:
296,225,134487,1,8,0:0:0:0:
369,130,134648,1,4,0:0:0:0:
291,38,134809,6,0,P|218:76|182:190,1,199.499993911743,2|8,0:0|0:0,0:0:0:0:
288,288,135293,2,0,P|298:234|288:183,1,99.7499969558717,0|8,0:0|0:0,0:0:0:0:
102,48,135616,1,2,0:0:0:0:
102,48,135938,6,0,L|306:92,1,199.499993911743,6|2,0:0|0:0,0:0:0:0:
183,151,136422,2,0,P|131:167|80:203,1,99.7499969558717,8|2,0:0|0:0,0:0:0:0:
369,139,136745,2,0,P|381:85|375:23,1,99.7499969558717,8|2,0:0|0:0,0:0:0:0:
286,261,137067,2,0,P|320:305|371:316,1,99.7499969558717,8|2,0:0|0:0,0:0:0:0:
481,207,137390,6,0,L|491:90,1,99.7499969558717,8|2,0:0|0:0,0:0:0:0:
314,38,137712,1,8,0:0:0:0:
369,139,137874,1,2,0:0:0:0:
380,161,137954,1,2,0:0:0:0:
392,182,138035,2,0,L|383:281,1,99.7499969558717,8|2,0:0|0:0,0:0:0:0:
238,129,138358,2,0,P|171:132|113:159,1,99.7499969558717,8|2,0:0|0:0,0:0:0:0:
204,238,138680,5,12,0:0:0:0:
264,45,138841,2,0,P|316:81|326:125,1,99.7499969558717,8|2,0:0|0:0,0:0:0:0:
204,238,139164,1,12,0:0:0:0:
437,101,139325,2,0,P|431:164|398:194,1,99.7499969558717,8|2,0:0|0:0,0:0:0:0:
238,129,139648,1,12,0:0:0:0:
367,29,139809,1,8,0:0:0:0:
313,168,139970,1,2,0:0:0:0:
153,34,140132,6,0,P|112:77|99:126,1,99.7499969558717,12|10,0:0|0:0,0:0:0:0:
256,304,140454,1,2,0:0:0:0:
412,114,140616,2,0,P|394:68|359:34,1,99.7499969558717,8|2,0:0|0:0,0:0:0:0:
256,155,140938,2,0,L|256:311,1,149.624995433808,12|0,0:0|0:0,0:0:0:0:
256,304,141261,6,0,L|139:286,1,95,4|0,0:0|0:0,0:0:0:0:
92,233,141583,1,8,0:0:0:0:
322,368,141745,2,0,P|345:321|339:267,1,95,0|2,0:0|0:0,0:0:0:0:
317,162,142067,1,2,0:0:0:0:
194,74,142228,2,0,P|171:121|177:175,1,95,8|0,0:0|0:0,0:0:0:0:
370,70,142551,6,0,L|269:45,1,95,2|2,0:0|0:0,0:0:0:0:
120,26,142874,1,8,0:0:0:0:
146,160,143035,1,0,0:0:0:0:
151,183,143116,1,8,0:0:0:0:
156,206,143196,1,2,0:0:0:0:
241,185,143358,1,2,0:0:0:0:
94,97,143519,1,8,0:0:0:0:
92,267,143680,1,0,0:0:0:0:
241,185,143841,6,0,L|241:81,1,95,4|2,0:0|0:0,0:0:0:0:
166,286,144164,1,8,0:0:0:0:
347,255,144325,1,0,0:0:0:0:
347,255,144406,1,8,0:0:0:0:
347,255,144487,2,0,L|347:151,1,95,2|2,0:0|0:0,0:0:0:0:
271,342,144809,2,0,P|314:368|363:372,1,95,8|2,0:0|0:0,0:0:0:0:
438,302,145132,5,0,0:0:0:0:
230,233,145293,2,0,L|111:216,1,95,2|8,0:0|0:0,0:0:0:0:
0,190,145616,1,0,0:0:0:0:
88,255,145777,2,0,P|114:205|94:147,1,95,2|2,0:0|0:0,0:0:0:0:
243,42,146099,2,0,P|217:92|237:150,1,95,8|2,0:0|0:0,0:0:0:0:
368,189,146422,6,0,L|469:175,1,95,4|2,0:0|0:0,0:0:0:0:
334,94,146745,1,8,0:0:0:0:
276,230,146906,1,8,0:0:0:0:
269,252,146987,1,8,0:0:0:0:
263,274,147067,2,0,P|247:343|257:383,1,95,2|2,0:0|0:0,0:0:0:0:
377,282,147390,1,8,0:0:0:0:
260,143,147551,1,2,0:0:0:0:
186,228,147712,5,0,0:0:0:0:
368,189,147874,2,0,P|403:151|413:94,1,95,2|8,0:0|0:0,0:0:0:0:
272,26,148196,1,0,0:0:0:0:
260,143,148358,2,0,L|260:240,1,95,2|2,0:0|0:0,0:0:0:0:
460,345,148680,2,0,L|460:248,1,95,8|2,0:0|0:0,0:0:0:0:
367,63,149003,6,0,L|367:160,1,95,0|2,0:0|0:0,0:0:0:0:
368,272,149325,1,8,0:0:0:0:
100,160,149487,2,0,P|127:120|175:96,1,95,0|2,0:0|0:0,0:0:0:0:
296,116,149809,1,2,0:0:0:0:
301,264,149970,1,8,0:0:0:0:
184,192,150132,1,6,0:0:0:0:
321,31,150293,5,12,0:0:0:0:
367,43,150374,1,8,0:0:0:0:
401,74,150454,1,8,0:0:0:0:
410,120,150535,1,8,0:0:0:0:
393,164,150616,5,2,0:0:0:0:
353,189,150696,1,2,0:0:0:0:
318,221,150777,1,2,0:0:0:0:
306,257,150858,1,2,0:0:0:0:
316,302,150938,5,8,0:0:0:0:
354,329,151019,1,8,0:0:0:0:
401,328,151099,1,8,0:0:0:0:
441,303,151180,1,8,0:0:0:0:
443,255,151261,1,2,0:0:0:0:
318,116,151422,5,8,0:0:0:0:
318,116,151503,1,8,0:0:0:0:
318,116,151583,2,0,B|236:68|216:161|137:109,1,190,4|8,0:0|0:0,0:0:0:0:
76,37,152067,1,0,0:0:0:0:
274,182,152228,2,0,P|279:233|268:279,1,95,2|2,0:0|0:0,0:0:0:0:
113,358,152551,1,8,0:0:0:0:
25,300,152712,6,0,P|0:220|29:107,1,190,2|2,0:0|0:0,0:0:0:0:
183,180,153196,2,0,P|226:158|259:116,1,95,8|0,0:0|0:0,0:0:0:0:
87,206,153519,1,2,0:0:0:0:
220,297,153680,1,2,0:0:0:0:
336,184,153841,2,0,P|350:138|344:85,1,95,8|0,0:0|0:0,0:0:0:0:
435,48,154164,6,0,P|450:172|403:253,1,190,4|8,0:0|0:0,0:0:0:0:
328,291,154648,1,0,0:0:0:0:
232,225,154809,2,0,L|122:215,1,95,2|2,0:0|0:0,0:0:0:0:
17,75,155132,2,0,L|127:65,1,95,8|0,0:0|0:0,0:0:0:0:
346,92,155454,6,0,P|350:139|336:184,1,95,4|0,0:0|0:0,0:0:0:0:
254,290,155777,1,8,0:0:0:0:
127,251,155938,1,0,0:0:0:0:
262,67,156099,1,2,0:0:0:0:
254,290,156261,1,2,0:0:0:0:
127,108,156422,1,8,0:0:0:0:
386,99,156583,6,0,B|417:103|452:86|452:86|427:131|394:151|394:151|432:179|384:281,1,285,4|0,0:0|0:0,0:0:0:0:
370,102,167067,6,0,P|385:165|363:285,1,170.999994781494,4|8,0:0|0:0,0:0:0:0:
292,323,167551,1,2,0:0:0:0:
215,269,167712,2,0,L|125:269,1,85.4999973907472,8|0,0:0|0:0,0:0:0:0:
299,184,168035,2,0,L|209:184,1,85.4999973907472
139,125,168358,5,0,0:0:0:0:
65,183,168519,1,2,0:0:0:0:
50,198,168599,1,0,0:0:0:0:
34,212,168680,2,0,P|21:262|31:298,1,85.4999973907472,2|0,0:0|0:0,0:0:0:0:
59,109,169003,2,0,P|72:59|62:23,1,85.4999973907472,8|0,0:0|0:0,0:0:0:0:
141,254,169325,1,0,0:0:0:0:
299,184,169487,1,2,0:0:0:0:
208,91,169648,6,0,L|196:188,2,85.4999973907472,2|8|2,0:0|0:0|0:0,0:0:0:0:
299,184,170132,1,2,0:0:0:0:
219,307,170293,2,0,P|184:342|134:355,1,85.4999973907472,8|0,0:0|0:0,0:0:0:0:
81,324,170535,1,0,0:0:0:0:
81,324,170616,2,0,L|53:222,1,85.4999973907472,0|2,0:0|0:0,0:0:0:0:
128,177,170858,5,0,0:0:0:0:
128,177,170938,2,0,L|156:279,1,85.4999973907472,0|2,0:0|0:0,0:0:0:0:
279,361,171261,1,2,0:0:0:0:
359,240,171422,1,0,0:0:0:0:
262,264,171583,1,8,0:0:0:0:
408,319,171745,1,0,0:0:0:0:
471,200,171906,2,0,P|478:153|468:106,1,85.4999973907472,0|2,0:0|0:0,0:0:0:0:
279,106,172228,6,0,L|160:118,1,85.4999973907472,2|8,0:0|0:0,0:0:0:0:
284,21,172551,1,0,0:0:0:0:
363,144,172712,1,2,0:0:0:0:
262,264,172874,2,0,P|241:217|254:169,1,85.4999973907472,8|0,0:0|0:0,0:0:0:0:
425,87,173196,2,0,P|446:134|433:182,1,85.4999973907472,0|2,0:0|0:0,0:0:0:0:
385,283,173519,5,0,0:0:0:0:
306,335,173680,1,2,0:0:0:0:
287,345,173761,1,0,0:0:0:0:
268,354,173841,1,2,0:0:0:0:
189,300,174003,1,0,0:0:0:0:
171,288,174083,1,0,0:0:0:0:
153,276,174164,2,0,L|82:227,1,85.4999973907472,12|0,0:0|0:0,0:0:0:0:
279,156,174487,2,0,L|349:204,1,85.4999973907472,0|2,0:0|0:0,0:0:0:0:
184,154,174809,5,2,0:0:0:0:
154,64,174970,1,8,0:0:0:0:
232,11,175132,1,0,0:0:0:0:
307,67,175293,1,2,0:0:0:0:
279,156,175454,2,0,P|246:229|265:323,1,170.999994781494,12|0,0:0|0:0,0:0:0:0:
454,323,175938,1,2,0:0:0:0:
481,208,176099,6,0,P|489:152|476:100,1,95,4|0,0:0|0:0,0:0:0:0:
307,67,176422,1,8,0:0:0:0:
292,69,176503,1,8,0:0:0:0:
278,71,176583,1,8,0:0:0:0:
263,73,176664,1,8,0:0:0:0:
248,75,176745,1,8,0:0:0:0:
234,78,176825,1,8,0:0:0:0:
220,81,176906,1,8,0:0:0:0:
206,84,176987,1,8,0:0:0:0:
192,87,177067,2,0,L|124:98,1,47.5,8|8,0:0|0:0,0:0:0:0:
128,178,177228,2,0,L|81:170,1,47.5,8|0,0:0|0:0,0:0:0:0:
34,80,177390,5,4,0:0:0:0:
478,80,178680,2,0,P|504:140|346:163,1,285.000010871888,2|0,0:0|0:0,0:0:0:0:
423,137,179809,5,0,0:0:0:0:
423,137,179970,2,0,P|452:206|450:279,1,142.500005435944,2|0,0:0|0:0,0:0:0:0:
388,332,180454,2,0,L|304:325,1,71.2500027179719,2|0,0:0|0:0,0:0:0:0:
263,247,180777,2,0,L|179:254,2,71.2500027179719,0|2|0,0:0|0:0|0:0,0:0:0:0:
335,158,181261,5,2,0:0:0:0:
187,140,181906,1,2,0:0:0:0:
335,158,182551,6,0,L|318:373,1,213.750008153916,2|2,0:0|0:0,0:0:0:0:
238,286,183196,1,0,0:0:0:0:
238,286,183358,2,0,P|183:245|166:346,1,213.750008153916,2|0,0:0|0:0,0:0:0:0:
424,259,184487,5,2,0:0:0:0:
368,126,184970,1,0,0:0:0:0:
300,194,185132,2,0,P|237:211|148:199,1,142.500005435944,2|0,0:0|0:0,0:0:0:0:
111,134,185616,2,0,L|116:291,1,142.500005435944,2|0,0:0|0:0,0:0:0:0:
401,250,186261,5,0,0:0:0:0:
401,250,186422,2,0,L|396:93,1,142.500005435944,2|0,0:0|0:0,0:0:0:0:
329,42,186906,1,0,0:0:0:0:
309,134,187067,2,0,L|227:143,1,71.2500027179719,2|0,0:0|0:0,0:0:0:0:
128,53,187390,2,0,L|198:45,1,71.2500027179719,2|0,0:0|0:0,0:0:0:0:
169,267,187712,5,6,0:0:0:0:
169,267,188035,2,0,P|114:266|71:243,1,95,2|0,0:0|0:0,0:0:0:0:
218,106,188358,2,0,P|244:154|246:202,1,95,2|0,0:0|0:0,0:0:0:0:
56,144,188680,2,0,P|84:96|125:71,1,95,2|0,0:0|0:0,0:0:0:0:
341,167,189003,6,0,L|344:271,1,95,0|0,0:0|0:0,0:0:0:0:
431,211,189325,2,0,L|434:315,1,95,0|0,0:0|0:0,0:0:0:0:
325,346,189648,2,0,L|268:340,3,47.5,8|8|8|8,0:0|0:0|0:0|0:0,0:0:0:0:
217,290,189970,2,0,L|169:294,3,47.5,8|8|8|8,0:0|0:0|0:0|0:0,0:0:0:0:
104,237,190293,5,8,0:0:0:0:
90,211,190374,1,8,0:0:0:0:
85,183,190454,1,8,0:0:0:0:
91,155,190535,1,8,0:0:0:0:
109,132,190616,1,8,0:0:0:0:
134,120,190696,1,8,0:0:0:0:
162,116,190777,1,8,0:0:0:0:
189,125,190858,1,8,0:0:0:0:
214,138,190938,5,8,0:0:0:0:
257,158,191019,1,8,0:0:0:0:
304,160,191099,1,8,0:0:0:0:
350,150,191180,1,8,0:0:0:0:
388,121,191261,1,8,0:0:0:0:
392,74,191341,1,8,0:0:0:0:
373,30,191422,1,8,0:0:0:0:
327,14,191503,1,8,0:0:0:0:
284,33,191583,5,8,0:0:0:0:
292,89,191664,1,8,0:0:0:0:
294,146,191745,1,8,0:0:0:0:
302,201,191825,1,8,0:0:0:0:
308,257,191906,2,0,P|274:303|216:326,1,99.7499969558717
141,316,192148,6,4,L|115:256,1,49.8749984779358,8|8,0:0|0:0,0:0:0:0:
71,52,192390,1,8,0:0:0:0:
441,52,192874,6,0,P|478:142|450:253,1,209.000006378174,4|8,0:0|0:0,0:0:0:0:
324,344,193358,1,0,0:0:0:0:
232,272,193519,2,0,P|276:236|336:228,1,104.500003189087,2|2,0:0|0:0,0:0:0:0:
412,288,193841,1,8,0:0:0:0:
216,160,194003,6,0,P|144:144|0:164,1,209.000006378174,4|2,0:0|0:0,0:0:0:0:
232,272,194487,1,8,0:0:0:0:
330,165,194648,1,0,0:0:0:0:
330,165,194728,1,8,0:0:0:0:
330,165,194809,2,0,P|341:106|328:50,1,104.500003189087,2|2,0:0|0:0,0:0:0:0:
206,200,195132,1,8,0:0:0:0:
299,283,195293,1,0,0:0:0:0:
398,207,195454,6,0,P|417:142|390:6,1,209.000006378174,4|8,0:0|0:0,0:0:0:0:
192,37,195938,1,0,0:0:0:0:
167,46,196019,1,8,0:0:0:0:
142,54,196099,1,2,0:0:0:0:
301,125,196261,2,0,P|326:80|316:20,1,104.500003189087,2|8,0:0|0:0,0:0:0:0:
252,260,196583,6,0,P|302:298|449:271,1,209.000006378174,4|2,0:0|0:0,0:0:0:0:
233,143,197067,1,8,0:0:0:0:
140,200,197228,2,0,P|111:260|214:351,1,209.000006378174,4|2,0:0|0:0,0:0:0:0:
351,158,197712,1,8,0:0:0:0:
267,54,197874,5,8,0:0:0:0:
267,54,197954,1,8,0:0:0:0:
267,54,198035,2,0,P|192:68|59:48,1,209.000006378174,4|8,0:0|0:0,0:0:0:0:
31,142,198519,1,0,0:0:0:0:
299,137,198680,2,0,P|345:102|354:52,1,104.500003189087,2|2,0:0|0:0,0:0:0:0:
183,158,199003,1,8,0:0:0:0:
214,270,199164,6,0,B|301:307|321:225|437:285,1,209.000006378174,4|2,0:0|0:0,0:0:0:0:
245,192,199648,2,0,P|188:188|127:215,1,104.500003189087,8|0,0:0|0:0,0:0:0:0:
372,351,199970,2,0,P|429:355|490:328,1,104.500003189087,2|2,0:0|0:0,0:0:0:0:
371,137,200293,1,8,0:0:0:0:
320,251,200454,1,0,0:0:0:0:
424,275,200616,6,0,B|433:215|381:189|381:189|303:173|318:104,1,209.000006378174,4|8,0:0|0:0,0:0:0:0:
196,120,201099,2,0,B|209:173|131:189|131:189|79:215|88:275,1,209.000006378174,0|2,0:0|0:0,0:0:0:0:
256,344,201583,1,8,0:0:0:0:
315,119,201745,6,0,P|255:49|195:119,1,209.000006378174,4|2,0:0|0:0,0:0:0:0:
256,344,202228,1,8,0:0:0:0:
360,239,202390,1,2,0:0:0:0:
360,239,202470,1,2,0:0:0:0:
360,239,202551,1,2,0:0:0:0:
152,145,202712,1,2,0:0:0:0:
152,145,202792,1,2,0:0:0:0:
152,145,202874,2,0,L|257:101,1,104.500003189087,8|2,0:0|0:0,0:0:0:0:
125,296,203196,6,0,P|58:264|20:124,1,209.000006378174,4|8,0:0|0:0,0:0:0:0:
216,226,203680,1,0,0:0:0:0:
284,312,203841,2,0,P|248:357|202:369,1,104.500003189087,2|2,0:0|0:0,0:0:0:0:
250,86,204164,1,8,0:0:0:0:
361,156,204325,6,0,P|381:234|348:365,1,209.000006378174,4|2,0:0|0:0,0:0:0:0:
259,141,204809,2,0,P|284:90|326:66,1,104.500003189087,8|0,0:0|0:0,0:0:0:0:
289,255,205132,2,0,P|232:258|190:234,1,104.500003189087,2|2,0:0|0:0,0:0:0:0:
113,29,205454,1,8,0:0:0:0:
198,90,205616,5,8,0:0:0:0:
211,111,205696,1,8,0:0:0:0:
219,135,205777,2,0,P|194:217|70:207,1,209.000006378174,4|8,0:0|0:0,0:0:0:0:
80,58,206261,2,2,P|124:98|129:154,1,104.500003189087
4,106,206583,1,2,0:0:0:0:
180,16,206745,1,8,0:0:0:0:
301,94,206906,6,0,P|351:119|493:58,1,209.000006378174,4|2,0:0|0:0,0:0:0:0:
261,15,207390,1,8,0:0:0:0:
174,60,207551,2,0,P|127:90|109:244,1,209.000006378174,4|2,0:0|0:0,0:0:0:0:
319,213,208035,2,0,L|208:174,1,104.500003189087,8|0,0:0|0:0,0:0:0:0:
358,338,208358,6,0,P|408:322|449:268,1,104.500003189087,4|2,0:0|0:0,0:0:0:0:
435,53,208680,1,8,0:0:0:0:
362,145,208841,1,0,0:0:0:0:
356,170,208922,1,8,0:0:0:0:
351,195,209003,1,2,0:0:0:0:
471,152,209164,1,2,0:0:0:0:
326,44,209325,1,8,0:0:0:0:
259,227,209487,6,0,P|318:288|430:249,1,209.000006378174,4|2,0:0|0:0,0:0:0:0:
176,147,209970,2,0,L|155:254,1,104.500003189087,8|0,0:0|0:0,0:0:0:0:
224,330,210293,1,2,0:0:0:0:
351,195,210454,1,2,0:0:0:0:
176,147,210616,1,8,0:0:0:0:
243,249,210777,6,0,P|273:195|271:43,1,209.000006378174,4|2,0:0|0:0,0:0:0:0:
126,227,211261,2,0,L|141:341,1,104.500003189087,8|0,0:0|0:0,0:0:0:0:
386,157,211583,2,0,L|371:43,1,104.500003189087,2|2,0:0|0:0,0:0:0:0:
201,68,211906,1,8,0:0:0:0:
78,150,212067,1,4,0:0:0:0:
259,298,212228,6,0,P|334:299|460:239,1,209.000006378174,2|8,0:0|0:0,0:0:0:0:
210,214,212712,2,0,P|173:256|162:307,1,104.500003189087,0|8,0:0|0:0,0:0:0:0:
325,170,213035,1,2,0:0:0:0:
325,170,213358,6,0,P|334:116|200:69,1,209.000006378174,4|2,0:0|0:0,0:0:0:0:
321,271,213841,2,0,L|441:251,1,104.500003189087,8|2,0:0|0:0,0:0:0:0:
169,369,214164,2,0,L|289:349,1,104.500003189087,10|0,0:0|0:0,0:0:0:0:
85,294,214487,2,0,P|70:233|78:179,1,104.500003189087,8|2,0:0|0:0,0:0:0:0:
288,26,214809,6,0,P|303:87|295:141,1,104.500003189087,8|2,0:0|0:0,0:0:0:0:
203,162,215132,1,8,0:0:0:0:
381,78,215293,1,2,0:0:0:0:
381,78,215374,1,2,0:0:0:0:
381,78,215454,2,0,L|489:51,1,104.500003189087,8|2,0:0|0:0,0:0:0:0:
364,280,215777,2,0,L|262:254,1,104.500003189087,8|2,0:0|0:0,0:0:0:0:
454,177,216099,6,0,P|484:227|469:289,1,104.500003189087,12|2,0:0|0:0,0:0:0:0:
319,363,216422,1,8,0:0:0:0:
152,265,216583,1,2,0:0:0:0:
126,257,216664,1,2,0:0:0:0:
100,251,216745,1,8,0:0:0:0:
261,183,216906,1,2,0:0:0:0:
287,175,216987,1,2,0:0:0:0:
313,169,217068,1,8,0:0:0:0:
147,101,217228,1,2,0:0:0:0:
121,93,217309,1,2,0:0:0:0:
95,87,217390,6,0,P|58:132|46:183,1,104.500003189087,8|2,0:0|0:0,0:0:0:0:
147,355,217712,1,8,0:0:0:0:
256,256,217874,1,2,0:0:0:0:
256,256,217954,1,2,0:0:0:0:
256,256,218035,1,8,0:0:0:0:
392,308,218196,1,2,0:0:0:0:
392,308,218277,1,2,0:0:0:0:
392,308,218358,1,8,0:0:0:0:
472,188,218519,5,2,0:0:0:0:
472,188,218599,1,2,0:0:0:0:
472,188,218680,2,0,P|464:128|425:89,1,104.500003189087,8|2,0:0|0:0,0:0:0:0:
386,78,218922,1,2,0:0:0:0:
334,87,219003,2,0,P|286:123|271:177,1,104.500003189087,8|2,0:0|0:0,0:0:0:0:
281,215,219245,1,2,0:0:0:0:
315,253,219325,2,0,P|370:276|424:261,1,104.500003189087,8|2,0:0|0:0,0:0:0:0:
456,238,219567,1,2,0:0:0:0:
472,188,219648,2,0,P|464:128|425:89,1,104.500003189087,8|2,0:0|0:0,0:0:0:0:
386,78,219890,1,0,0:0:0:0:
334,87,219970,6,0,L|225:61,1,104.500003189087,8|2,0:0|0:0,0:0:0:0:
127,131,220212,1,2,0:0:0:0:
127,131,220293,2,0,L|228:155,1,104.500003189087,8|2,0:0|0:0,0:0:0:0:
331,206,220535,1,2,0:0:0:0:
331,206,220616,2,0,P|341:274|321:338,1,104.500003189087,10|2,0:0|0:0,0:0:0:0:
144,361,220938,1,4,0:0:0:0:
8,240,221099,1,0,0:0:0:0:
97,122,221261,5,8,0:0:0:0:
97,122,221341,1,8,0:0:0:0:
97,122,221422,2,0,L|130:178,1,52.2500015945435,2|2,0:0|0:0,0:0:0:0:
232,270,221583,1,8,0:0:0:0:
232,270,221663,1,8,0:0:0:0:
232,270,221744,2,0,L|265:214,1,52.2500015945435,2|2,0:0|0:0,0:0:0:0:
235,89,221906,1,8,0:0:0:0:
235,89,221986,1,8,0:0:0:0:
235,89,222067,2,0,L|179:122,1,52.2500015945435,2|2,0:0|0:0,0:0:0:0:
87,224,222228,1,8,0:0:0:0:
87,224,222308,1,8,0:0:0:0:
87,224,222389,2,0,L|143:257,1,52.2500015945435,2|2,0:0|0:0,0:0:0:0:
362,317,222551,5,8,0:0:0:0:
382,280,222632,1,8,0:0:0:0:
401,243,222712,1,2,0:0:0:0:
420,205,222793,1,2,0:0:0:0:
443,169,222874,2,0,L|467:118,1,52.2500015945435,8|8,0:0|0:0,0:0:0:0:
316,164,223035,2,0,L|339:211,1,52.2500015945435,2|2,0:0|0:0,0:0:0:0:
468,303,223196,5,8,0:0:0:0:
394,106,223358,1,8,0:0:0:0:
277,278,223519,1,2,0:0:0:0:
140,129,223680,6,0,P|181:79|329:109,1,209.000006378174,14|0,0:0|0:0,0:0:0:0:
