osu file format v9

[General]
AudioFilename: Leaf Ticket.mp3
AudioLeadIn: 1001
PreviewTime: 84528
Countdown: 0
SampleSet: Normal
StackLeniency: 0.7
Mode: 0
LetterboxInBreaks: 0

[Editor]
DistanceSpacing: 1
BeatDivisor: 4
GridSize: 8

[Metadata]
Title:Leaf ticket (Short Ver.)
Artist:KOTOKO
Creator:kanpakyin
Version:Easy
Source:Parfait ~Chocolat Second Brew~
Tags:i've sound lovefantasy GIGA

[Difficulty]
HPDrainRate:3
CircleSize:4
OverallDifficulty:2
ApproachRate:3
SliderMultiplier:0.8
SliderTickRate:1

[Events]
//Background and Video events
0,0,"BG.jpg"
Video,0,"Video.avi"
//Break Periods
2,109135,115545
//Storyboard Layer 0 (Background)
//Storyboard Layer 1 (Fail)
//Storyboard Layer 2 (Pass)
//Storyboard Layer 3 (Foreground)
//Storyboard Sound Samples
//Background Colour Transformations
3,100,163,162,255

[TimingPoints]
1139,508.474576271186,4,2,2,40,1,0
4571,-100,4,2,1,20,0,0
4825,-100,4,2,2,40,0,0
11181,-100,4,2,1,70,0,0
11562,-100,4,1,1,70,0,0
13596,-100,4,2,1,70,0,0
14105,-100,4,2,2,70,0,0
15249,-100,4,2,0,70,0,0
15630,-100,4,2,1,70,0,0
17791,-100,4,2,2,70,0,0
18172,-100,4,2,1,70,0,0
18681,-100,4,2,2,70,0,0
20206,-100,4,1,1,70,0,0
21605,-100,4,2,1,70,0,0
22367,-100,4,2,2,70,0,0
22622,-100,4,2,1,70,0,0
23384,-100,4,2,2,70,0,0
23766,-100,4,2,1,70,0,0
26308,-100,4,2,2,70,0,0
26816,-100,4,2,1,70,0,0
27452,-100,4,2,2,70,0,0
27833,-100,4,2,1,70,0,0
30376,-100,4,1,1,70,0,0
31774,-100,4,2,1,70,0,0
32283,-100,4,2,2,70,0,0
32537,-100,4,2,1,70,0,0
33045,-100,4,2,2,70,0,0
34571,-100,4,2,1,70,0,0
35079,-100,4,2,2,70,0,0
35333,-100,4,2,1,70,0,0
36859,-100,4,2,2,70,0,0
37622,-100,4,2,1,70,0,0
39020,-100,4,2,2,70,0,0
39655,-100,4,2,1,70,0,0
41181,-100,4,2,2,70,0,0
42071,-100,4,2,1,70,0,0
43088,-100,4,2,2,70,0,0
45757,-100,4,2,1,70,0,0
46011,-100,4,2,2,70,0,0
47791,-100,4,2,1,70,0,0
48554,-100,4,2,2,70,0,0
48808,-100,4,2,1,70,0,0
51859,-100,4,2,0,70,0,0
52240,-100,4,2,1,70,0,0
52876,-100,4,2,2,70,0,0
53130,-100,4,2,1,70,0,0
53893,-100,4,2,1,30,0,0
54147,-100,4,2,1,70,0,0
55927,-100,4,2,2,70,0,0
56435,-100,4,2,1,70,0,0
56816,-100,4,2,2,70,0,0
57325,-100,4,2,1,70,0,0
58977,-100,4,2,2,70,0,0
59232,-100,4,2,1,70,0,0
59994,-100,4,2,2,70,0,0
60249,-100,4,2,1,70,0,0
61011,-100,4,2,2,70,0,0
61520,-100,4,2,1,70,0,0
61774,-100,4,2,2,70,0,0
62410,-100,4,2,1,70,0,0
62918,-100,4,1,1,70,0,0
63935,-100,4,2,1,40,0,0
64316,-100,4,2,1,70,0,0
65079,-100,4,2,2,70,0,0
65461,-100,4,2,1,70,0,0
66096,-100,4,2,1,40,0,0
66350,-100,4,2,1,70,0,0
67113,-100,4,2,2,70,0,0
67367,-100,4,2,1,70,0,0
68130,-100,4,2,1,40,0,0
68384,-100,4,2,1,70,0,0
70164,-100,4,2,1,40,0,0
70418,-100,4,2,1,70,0,0
71181,-100,4,2,2,70,0,0
71435,-100,4,2,1,70,0,0
72198,-100,4,2,1,40,0,0
72452,-100,4,2,1,70,0,0
74232,-100,4,2,1,40,0,0
74486,-100,4,2,1,70,0,0
75249,-100,4,2,2,70,0,0
75503,-100,4,2,1,70,0,0
77283,-100,4,2,2,70,0,0
77537,-100,4,2,1,70,0,0
78300,-100,4,2,1,40,0,0
78554,-100,4,2,1,70,0,0
79316,-100,4,2,2,70,0,0
79698,-100,4,2,1,70,0,0
80461,-100,4,1,1,70,0,0
84528,-100,4,2,1,70,0,1
87452,-100,4,2,2,70,0,1
87706,-100,4,2,1,70,0,1
88215,-100,4,2,2,70,0,1
88850,-100,4,2,1,70,0,1
90630,-100,4,2,2,70,0,1
91901,-100,4,2,1,70,0,1
92410,-100,4,2,2,80,0,1
92918,-100,4,2,1,70,0,1
93554,-100,4,2,2,70,0,1
93808,-100,4,2,1,70,0,1
94571,-100,4,2,1,50,0,1
94825,-100,4,2,1,70,0,1
96605,-100,4,2,0,70,0,1
96859,-100,4,2,1,70,0,1
97622,-100,4,2,2,70,0,1
98003,-100,4,2,1,70,0,1
98638,-100,4,2,0,70,0,1
98893,-100,4,2,1,70,0,1
100672,-100,4,2,1,50,0,1
100927,-100,4,2,1,70,0,1
101435,-100,4,2,2,70,0,1
101689,-100,4,2,1,70,0,1
108935,-100,4,2,2,70,0,0
109444,-100,4,2,1,70,0,0
117961,-100,4,2,2,70,0,0
118215,-100,4,2,1,70,0,0
118977,-100,4,2,2,70,0,0
119486,-100,4,2,1,70,0,0
119994,-100,4,2,2,70,0,0
120376,-100,4,2,1,70,0,0
120757,-100,4,2,2,70,0,0
121393,-100,4,2,1,70,0,0
123045,-100,4,2,1,40,0,0
123300,-100,4,2,1,70,0,0
125079,-100,4,2,2,70,0,0
125588,-100,4,2,1,70,0,0
125969,-100,4,1,1,70,0,0
127113,-100,4,2,2,30,0,0
129655,-100,4,2,2,5,0,0

[Colours]
Combo1 : 205,136,247
Combo2 : 146,203,237
SliderBorder : 190,190,190

[HitObjects]
184,148,1139,2,0,B|94:148,2,80,2|0|0
256,113,2664,1,2
256,113,3172,2,0,B|340:114|329:143|415:145,2,160,0|2|4
276,190,5715,1,2
197,175,6223,2,0,B|197:261,1,80,2|0
207,334,7240,1,4
256,189,9274,5,4
256,192,9528,12,2,11308
254,193,11816,6,0,B|171:193,2,80
323,152,13342,2,0,B|343:196|318:243,2,80,0|2|2
251,115,14867,2,0,B|232:75|256:24,2,80,8|4|0
321,76,16393,2,0,B|146:77,1,160,2|4
182,153,17918,5,2
103,135,18427,2,0,B|104:228,1,80,2|8
182,232,19444,2,0,B|211:315,1,80,4|2
284,284,20461,2,0,B|340:347,2,80,0|0|4
351,240,21986,5,8
389,170,22494,2,0,B|471:169,2,80,2|8|4
339,106,24020,2,0,B|355:88|365:56,2,40,8|2|2
291,170,25037,1,8
213,191,25545,5,4
135,171,26054,1,8
92,103,26562,2,0,B|76:61|23:42,2,80,2|0|4
168,80,28088,2,0,B|187:146|148:199|148:199|171:210|167:235,2,160,8|8|8
248,91,30630,2,0,B|249:63|239:38,2,40
286,161,31647,6,0,B|417:161,2,120,4|2|8
236,224,33681,1,4
189,288,34189,2,0,B|25:288,2,160,0|8|0
264,315,36732,2,0,B|270:340|298:357,2,40,0|2|8
341,296,37749,6,0,B|469:297,2,120,2|2|8
366,220,39783,1,2
387,143,40291,6,0,B|331:130|331:70|331:70|263:69,1,160,0|8
263,148,41816,2,0,B|99:147,1,160,4|2
61,215,43342,2,0,B|14:186,2,40,8|2|4
134,356,44867,5,2
284,308,45884,1,2
225,159,46901,1,4
373,218,47918,6,0,B|373:179|373:179|384:138|384:138|382:86,2,120,4|2|8
452,205,49952,2,0,B|452:251|452:251|465:278|465:278|466:323,2,120,0|2|8
375,230,51986,5,4
317,285,52494,1,8
249,328,53003,2,0,B|153:312,1,80,2|8
194,238,54020,2,0,B|124:184,1,80,4|8
200,149,55037,2,0,B|111:8,2,160,2|4|2
273,116,57579,1,8
344,152,58088,6,0,B|428:152|420:193|509:191,2,160,0|2|4
359,230,60630,1,8
325,302,61139,2,0,B|266:275|200:302,2,120,2|2|8
400,320,63172,2,0,B|441:345,2,40
392,244,64189,6,0,B|394:202|364:172|364:172|387:152|389:91,1,160,4|2
308,100,65715,1,8
238,138,66223,2,0,B|71:137,1,160,4|2
52,213,67749,1,8
115,262,68257,6,0,B|127:338|60:365,2,120,4|2|8
192,283,70291,1,4
326,196,71308,6,0,B|412:197,2,80,2|8|4
253,162,72833,2,0,B|234:126|253:82,2,80,0|2|8
305,222,74359,6,0,B|326:266|299:313,2,80,4|0|2
236,263,75884,2,0,B|72:264,1,160,8|0
96,184,77410,6,0,B|12:185,2,80,2|8|4
175,160,78935,1,0
240,114,79444,2,0,B|283:83|284:35,1,80,2|8
200,48,80461,6,0,B|372:48,2,160
133,92,83003,2,0,B|52:93,1,80
121,237,84528,6,0,B|123:285|74:315,2,80,4|8|2
201,231,86054,2,0,B|202:255|193:271,2,40,8|2|0
177,154,87071,2,0,B|174:111|128:83,1,80,8|2
198,38,88088,2,0,B|176:21|148:15,2,40,8|2|4
252,96,89105,6,0,B|313:130|379:97|379:97|414:121,1,160,8|8
445,180,90630,2,0,B|482:150,3,40,6|2|2|2
495,273,92155,1,8
418,295,92664,5,4
418,295,93172,1,8
339,279,93681,1,2
261,297,94189,2,0,B|226:319|182:318,2,80,8|4|8
278,218,95715,2,0,B|336:218|336:218|386:228|386:228|440:229,2,160,2|4|2
201,195,98257,5,8
250,132,98766,2,0,B|229:93|126:118|123:173,2,160,4|2|4
327,111,101308,2,0,B|308:93|304:74,2,40,8|2|0
313,189,102325,2,0,B|395:189|390:168|473:169,2,160,8|8|8
257,131,104867,5,4
256,192,105630,12,4,108935
116,240,117071,6,0,B|27:240,2,80,4|8|2
177,291,118596,1,8
254,270,119105,2,0,B|326:271|326:271|337:226|402:223,1,160,4|2
444,162,120630,2,0,B|471:185|478:201,2,40,8|2|4
377,117,121647,6,0,B|337:112|306:85|306:85|276:111|218:110,1,160,8|8
155,81,123172,1,4
168,159,123681,1,8
142,234,124189,1,2
69,266,124698,6,0,B|24:265|-12:224,2,80,8|4|8
142,297,126223,2,0,B|176:332|266:332|302:291,1,160,0|4
256,192,127494,12,2,129783
